osu file format v9

[General]
AudioFilename: 04 Good Boy.mp3
AudioLeadIn: 0
PreviewTime: 54171
Countdown: 0
SampleSet: Soft
StackLeniency: 0.7
Mode: 0
LetterboxInBreaks: 1

[Editor]
DistanceSpacing: 1.1
BeatDivisor: 4
GridSize: 4

[Metadata]
Title:Good Boy
Artist:Dia Frampton
Creator:MoodyRPG
Version:Normal
Source:
Tags:red meg & dia

[Difficulty]
HPDrainRate:5
CircleSize:3
OverallDifficulty:5
ApproachRate:5
SliderMultiplier:1.2
SliderTickRate:2

[Events]
//Background and Video events
0,0,"BG Friendship.jpg"
//Break Periods
2,123401,130849
//Storyboard Layer 0 (Background)
//Storyboard Layer 1 (Fail)
//Storyboard Layer 2 (Pass)
//Storyboard Layer 3 (Foreground)
//Storyboard Sound Samples
//Background Colour Transformations
3,100,163,162,255

[TimingPoints]
2320,540.540540540541,4,2,0,70,1,0
54211,-100,4,2,0,70,0,1
71509,-100,4,2,0,70,0,0
106103,-100,4,2,0,70,0,1
123401,-100,4,2,0,70,0,0
141779,540.540540540541,4,2,0,70,1,0
141779,-100,4,2,0,70,0,1
175292,-100,4,2,0,70,0,0

[Colours]
Combo1 : 110,110,110
Combo2 : 128,124,64
Combo3 : 224,176,31
Combo4 : 241,251,174

[HitObjects]
76,53,19617,1,4
46,181,20157,1,2
46,181,20428,1,0
115,293,20968,1,2
237,342,21509,1,2
296,340,21779,2,0,B|353:325|389:266,1,120,0|2
436,143,22860,2,0,B|368:135|336:70,1,120,0|2
208,71,23941,5,0
95,145,24482,2,0,B|44:109,2,60,2|0|0
40,265,25563,1,2
171,265,26103,2,0,B|192:308|166:357,2,90,0|2|0
247,156,27455,1,2
349,73,27995,1,2
410,96,28265,6,0,B|439:157|407:219,1,120,0|2
448,338,29347,2,0,B|384:338|331:289,1,120,0|2
214,295,30428,2,0,B|156:267,1,60
105,231,30968,2,0,B|63:181,1,60,2|0
43,54,31779,1,2
43,54,32049,1,2
146,136,32590,6,0,B|181:200|239:207,1,120,0|2
360,158,33671,1,0
310,35,34211,2,0,B|255:71|196:33,1,120,2|0
143,154,35292,2,0,B|115:216|55:247,1,120,2|0
110,362,36374,1,2
170,334,36644,1,0
233,352,36914,6,0,B|294:341|344:294,1,120,4|2
256,195,37995,2,0,B|146:129,1,120,0|2
23,107,39076,2,0,B|33:57|90:35,2,90,0|2|0
59,162,40157,2,0,B|77:302,1,120,0|2
201,316,41238,6,0,B|215:263|280:220,2,120,0|2|0
332,326,42860,1,2
403,237,43401,2,0,B|431:192|395:138,2,90,0|2|0
275,201,44752,1,0
275,201,45022,1,2
182,106,45563,6,0,B|116:73|61:134,1,120,0|2
62,254,46644,1,0
169,329,47184,2,0,B|229:322|282:273,1,120,2|0
391,215,48265,1,2
361,86,48806,2,0,B|408:40,2,60,0|0|2
229,78,49887,6,0,B|169:48|98:84,1,120,0|2
79,204,50968,2,0,B|39:261,2,60,0|0|2
203,249,52049,2,0,B|233:306|294:339,1,120,0|2
375,237,53130,2,0,B|354:180|287:152,1,120,0|2
167,110,54211,5,4
280,42,54752,2,0,B|341:23|401:20,1,120,2|0
441,144,55833,2,0,B|463:208|440:271,1,120,2|0
327,326,56914,2,0,B|266:347,1,60,2|0
205,353,57455,2,0,B|131:346,1,60
94,239,58265,6,0,B|70:176|100:114,1,120,0|0
144,76,59076,1,2
260,13,59617,1,0
351,107,60157,1,2
254,352,61238,1,2
163,258,61779,1,2
60,88,62590,6,0,B|114:54|178:35,1,120
219,80,63401,1,2
334,144,63941,1,0
439,223,64482,2,0,B|460:281|435:341,1,120,2|0
332,257,65563,2,0,B|286:303,1,60,2|0
227,322,66103,2,0,B|169:338,1,60
59,264,66914,6,0,B|100:208|51:139,1,120
94,95,67725,1,2
215,42,68265,1,0
171,166,68806,1,2
297,342,69887,1,2
341,218,70428,1,2
436,127,70968,1,2
436,127,71509,6,0,B|396:79|336:62,1,120,4|2
233,143,72590,2,0,B|171:175|111:176,1,120,0|2
37,280,73671,2,0,B|87:359,2,90,0|2|0
33,213,74752,1,0
85,96,75292,1,2
179,188,75833,6,0,B|217:246,2,60,0|0|2
256,80,76914,2,0,B|298:32,2,60,0|0|2
346,175,77995,2,0,B|389:159|439:177,2,90,0|2|0
326,305,79347,1,2
197,333,79887,1,2
142,295,80157,6,0,B|85:264|59:200,1,120,0|2
117,87,81238,2,0,B|66:45,2,60,0|0|2
232,151,82319,1,0
335,68,82860,1,2
402,181,83401,1,0
438,307,83941,1,2
438,307,84482,6,0,B|382:342|314:349,1,120,0|2
216,274,85563,1,0
114,189,86103,1,2
50,73,86644,1,0
175,33,87184,6,0,B|232:49,1,60,2|0
290,80,87725,2,0,B|340:116,1,60,2|0
378,167,88265,1,2
438,284,88806,5,4
313,328,89347,2,0,B|257:354|187:346,2,120,2|0|2
227,227,90968,1,0
98,194,91509,1,2
52,70,92049,2,0,B|1:18,2,60,0|0|2
183,85,93130,6,0,B|240:64|303:83,2,120,0|2|0
108,179,94752,1,2
136,307,95292,2,0,B|72:307|26:256,2,120,0|2|0
257,258,96914,1,2
307,215,97184,1,0
350,164,97455,6,0,B|389:112|406:52,1,120,0|2
279,14,98536,1,0
158,68,99076,1,2
107,111,99347,1,0
74,168,99617,2,0,B|24:246|127:339|226:268,1,240,0|0
256,156,101238,1,2
321,41,101779,6,0,B|391:10,2,60,0|0|2
188,40,102860,2,0,B|118:9,2,60,0|0|2
121,151,103941,2,0,B|94:195|127:247,2,90,0|2|0
178,118,105022,1,0
256,224,105563,1,2
302,270,105833,1,0
355,311,106103,6,0,B|411:271|441:211,1,120,4|2
406,93,107184,1,0
285,38,107725,1,2
285,38,107995,1,0
157,72,108536,2,0,B|109:114,1,60,0|2
80,169,109076,2,0,B|62:230,1,60,0|0
175,296,109887,1,2
239,307,110157,6,0,B|341:297|401:202,1,180,0|2
435,95,111509,1,0
312,44,112049,1,2
77,95,113130,1,0
200,44,113670,1,2
358,157,114482,6,0,B|346:217|286:261,1,120
228,242,115292,1,2
137,330,115833,1,0
137,330,116374,2,0,B|88:296|60:236,1,120,2|0
113,117,117455,2,0,B|57:97,2,60,2|0|0
175,136,118265,1,2
263,234,118806,6,0,B|320:211|363:154,1,120
390,104,119617,1,2
441,225,120157,1,0
342,312,120698,1,2
71,225,121779,1,0
170,312,122320,1,2
179,112,132049,6,0,B|124:85|90:29,2,120,0|2|0
215,167,133401,1,0
204,298,133941,1,0
267,314,134211,2,0,B|328:281|399:294,2,120,0|2|0
137,341,135833,1,2
60,232,136374,6,0,B|25:181|60:107,1,120,0|2
173,176,137455,2,0,B|204:117|171:54,1,120,0|2
256,192,138536,12,4,141779
269,63,142319,6,0,B|336:86,2,60,2|0|0
142,99,143400,1,2
142,99,143670,1,0
66,206,144211,2,0,B|105:261,1,60,0|2
154,294,144751,2,0,B|227:320,1,60,0|0
406,291,145833,6,0,B|451:237|462:174,1,120
430,125,146643,1,2
345,23,147184,1,0
314,151,147724,1,2
167,361,148806,1,2
198,233,149346,1,2
52,98,150157,6,0,B|101:55|167:43,1,120,0|0
218,70,150968,1,2
347,42,151508,1,0
423,151,152049,1,2
443,281,152589,1,0
321,333,153130,2,0,B|250:298,1,60,2|0
204,326,153670,2,0,B|147:296,1,60,0|0
70,138,154481,6,0,B|30:194|74:269,1,120
99,307,155292,1,2
167,193,155833,1,0
198,64,156373,1,2
314,320,157454,1,2
345,191,157995,1,2
93,110,159076,6,0,B|36:75|5:19,2,120,4|2|0
212,53,160697,1,2
212,53,160968,1,0
293,157,161508,2,0,B|319:100,2,60,0|2|0
343,199,162319,2,0,B|354:261|297:319,1,120,0|2
251,345,163130,6,0,B|225:291|149:267,1,120
116,221,163941,1,2
196,116,164481,1,0
87,41,165022,1,2
316,116,166103,1,2
425,41,166643,1,2
445,238,167454,6,0,B|432:305|378:338,1,120,0|0
321,307,168265,1,2
199,254,168806,1,0
104,161,169346,1,2
47,41,169887,1,0
175,72,170427,6,0,B|237:109|301:109,1,120,2|0
348,82,171238,1,2
256,192,172049,12,0,175292
