osu file format v14

[General]
AudioFilename: ajisai.mp3
AudioLeadIn: 0
PreviewTime: 0
Countdown: 0
SampleSet: Soft
StackLeniency: 0.6
Mode: 0
LetterboxInBreaks: 0
WidescreenStoryboard: 0

[Editor]
Bookmarks: 11817,58082,107239,153504,199769,248926,295191,341456
DistanceSpacing: 1
BeatDivisor: 4
GridSize: 4
TimelineZoom: 0.8999999

[Metadata]
Title:Ajisai
TitleUnicode:紫陽花
Artist:Dew
ArtistUnicode:Dew
Creator:Hollow Wings
Version:Liar
Source:
Tags:花図鑑 Hana Zukan 清水悠 しみず ゆう 大西春奈 おおにし はるな Oonishi Haruna White Rose DreaM117er m1223961117
BeatmapID:845713
BeatmapSetID:387522

[Difficulty]
HPDrainRate:5
CircleSize:5
OverallDifficulty:5
ApproachRate:6
SliderMultiplier:1.5
SliderTickRate:1

[Events]
//Background and Video events
0,0,"Ajisa.jpg",0,0
//Break Periods
//Storyboard Layer 0 (Background)
//Storyboard Layer 1 (Fail)
//Storyboard Layer 2 (Pass)
//Storyboard Layer 3 (Foreground)
//Storyboard Sound Samples

[TimingPoints]
-2640,722.89156626506,4,2,1,40,1,0
11817,-100,4,2,1,35,0,0
58082,-100,4,2,1,40,0,0
84106,-83.3333333333333,4,2,1,45,0,1
130372,-100,4,2,1,45,0,0
153504,-100,4,2,1,35,0,0
199769,-100,4,2,1,40,0,0
224347,-83.3333333333333,4,2,1,45,0,1
225793,-83.3333333333333,4,2,1,45,0,1
272058,-100,4,2,1,40,0,0
295191,-100,4,2,1,35,0,0
318323,-83.3333333333333,4,2,1,45,0,1
341456,740.740740740741,4,2,1,40,1,0
344418,759.493670886076,4,2,1,35,1,0
345936,821.917808219178,4,2,1,30,1,0
347579,882.352941176471,4,2,1,25,1,0
348461,-100,4,2,1,25,0,0
349381,882.352941176471,4,2,1,20,1,0
351145,882.352941176471,4,2,1,20,1,0
352060,967.741935483871,4,2,1,20,1,0
353186,857.142857142857,4,2,1,15,1,0
353471,-100,4,2,1,5,0,0

[Colours]
Combo1 : 150,254,56
Combo2 : 255,255,187
Combo3 : 248,179,158
Combo4 : 255,121,255

[HitObjects]
168,97,251,6,0,P|177:130|192:174,1,75,2|0,0:1|0:0,0:0:0:0:
252,212,974,1,0,0:0:0:0:
316,169,1335,1,0,0:0:0:0:
384,206,1697,2,0,P|424:209|504:124,1,150,2|2,0:0|0:0,0:0:0:0:
273,33,3143,6,0,P|269:69|269:113,1,75,2|0,0:1|0:0,0:0:0:0:
228,171,3866,1,0,0:0:0:0:
157,150,4227,1,0,0:0:0:0:
128,217,4588,2,0,P|137:252|148:288,1,75,2|0,0:0|0:0,0:0:0:0:
228,171,5311,1,0,0:0:0:0:
299,199,5673,1,0,0:0:0:0:
364,164,6034,6,0,P|366:128|370:70,1,75,2|0,0:1|0:0,0:0:0:0:
418,34,6757,2,0,P|454:36|484:58,1,75,2|0,0:0|0:0,0:0:0:0:
368,90,7480,2,0,P|332:86|286:80,1,75,2|0,0:0|0:0,0:0:0:0:
211,59,8203,2,0,P|224:93|235:129,1,75,2|0,0:0|0:0,0:0:0:0:
205,221,8926,6,0,P|254:166|336:170,2,150,2|0|0,0:1|0:0|0:0,0:0:0:0:
192,295,10733,1,0,0:0:0:0:
263,316,11094,2,0,P|297:306|337:293,1,75,2|0,0:0|0:0,0:0:0:0:
409,285,11817,5,2,0:1:0:0:
400,210,12179,1,8,0:0:0:0:
349,153,12540,2,0,P|381:136|418:135,1,75,0|0,0:0|0:0,0:0:0:0:
422,98,13082,2,0,B|412:76|393:63|393:63|350:69|327:60,1,112.5,0|0,0:0|0:0,0:0:0:0:
256,85,13986,1,2,0:0:0:0:
189,51,14347,1,4,0:0:0:0:
135,103,14709,6,0,P|89:102|59:121,1,75,2|0,0:0|0:0,0:0:0:0:
111,174,15432,2,0,P|87:212|88:248,1,75,0|0,0:0|0:0,0:0:0:0:
161,231,16155,2,0,P|183:270|214:287,1,75,2|0,0:0|0:0,0:0:0:0:
239,217,16878,1,2,0:0:0:0:
284,276,17239,1,0,0:0:0:0:
256,345,17600,6,0,P|224:361|187:358,2,75,2|8|0,0:1|0:0|0:0,0:0:0:0:
256,345,18685,1,0,0:0:0:0:
284,276,19046,1,2,0:0:0:0:
353,304,19408,1,0,0:0:0:0:
388,369,19769,2,0,P|425:361|463:362,1,75,0|4,0:0|0:0,0:0:0:0:
483,289,20492,6,0,P|447:276|417:254,1,75,2|0,0:0|0:0,0:0:0:0:
345,233,21215,2,0,P|320:204|305:170,1,75,0|0,0:0|0:0,0:0:0:0:
243,127,21938,2,0,P|236:90|239:52,1,75,2|0,0:0|0:0,0:0:0:0:
167,72,22661,1,2,0:0:0:0:
95,48,23022,1,0,0:0:0:0:
95,48,23384,6,0,P|83:88|55:122,2,75,2|8|0,0:1|0:0|0:0,0:0:0:0:
167,72,24468,1,0,0:0:0:0:
167,72,24829,2,0,P|172:110|167:147,2,75,2|0|0,0:0|0:0|0:0,0:0:0:0:
239,52,25914,1,4,0:0:0:0:
304,89,26275,6,0,B|342:98|369:98|369:98|385:81|385:81|416:82|442:64,1,150,2|0,0:0|0:0,0:0:0:0:
499,15,27359,1,0,0:0:0:0:
442,64,27721,2,0,P|436:101|441:138,1,75,2|0,0:0|0:0,0:0:0:0:
379,181,28444,2,0,P|386:217|403:250,1,75,2|0,0:0|0:0,0:0:0:0:
370,318,29167,6,0,P|389:349|417:375,2,75,2|8|0,0:1|0:0|0:0,0:0:0:0:
299,291,30251,1,0,0:0:0:0:
250,230,30613,2,0,P|214:238|176:237,1,75,2|0,0:0|0:0,0:0:0:0:
106,263,31335,2,0,P|69:254|32:255,1,75,0|4,0:0|0:0,0:0:0:0:
27,330,32058,5,2,0:0:0:0:
93,365,32420,1,0,0:0:0:0:
153,321,32781,1,0,0:0:0:0:
106,263,33143,1,0,0:0:0:0:
167,220,33504,2,0,P|204:224|241:213,1,75,2|0,0:0|0:0,0:0:0:0:
235,138,34227,2,0,P|197:133|161:145,1,75,2|0,0:0|0:0,0:0:0:0:
162,144,34950,5,2,0:1:0:0:
87,153,35311,1,8,0:0:0:0:
26,108,35673,2,0,P|12:73|10:36,1,75
48,40,36215,2,0,B|83:49|105:46|105:46|129:32|157:34,1,112.5,0|0,0:0|0:0,0:0:0:0:
145,109,37119,1,2,0:0:0:0:
158,34,37480,2,0,P|177:35|196:38,1,37.5,4|0,0:0|0:0,0:0:0:0:
211,71,37841,6,0,P|248:72|284:64,1,75,2|0,0:0|0:0,0:0:0:0:
324,127,38564,2,0,P|343:95|354:59,1,75,0|0,0:0|0:0,0:0:0:0:
429,61,39287,2,0,P|411:27|386:0,1,75,2|0,0:0|0:0,0:0:0:0:
429,61,40010,1,2,0:0:0:0:
401,130,40372,1,0,0:0:0:0:
421,202,40733,6,0,P|448:231|469:269,2,75,2|8|0,0:1|0:0|0:0,0:0:0:0:
421,202,41817,1,0,0:0:0:0:
349,224,42179,1,2,0:0:0:0:
286,182,42540,1,0,0:0:0:0:
217,212,42902,1,0,0:0:0:0:
187,143,43263,1,4,0:0:0:0:
141,202,43625,6,0,L|144:276,1,75,2|0,0:0|0:0,0:0:0:0:
78,242,44347,2,0,L|81:316,1,75,0|0,0:0|0:0,0:0:0:0:
144,276,45070,2,0,L|147:350,1,75,2|0,0:0|0:0,0:0:0:0:
81,316,45793,1,2,0:0:0:0:
78,242,46155,1,0,0:0:0:0:
44,175,46516,6,0,B|61:134|84:111|84:111|119:122|149:145,1,150,2|0,0:1|0:0,0:0:0:0:
159,220,47600,1,0,0:0:0:0:
219,175,47962,1,2,0:0:0:0:
261,236,48323,1,0,0:0:0:0:
252,310,48685,1,0,0:0:0:0:
321,282,49046,1,4,0:0:0:0:
393,300,49408,6,0,B|410:341|433:364|433:364|468:353|498:329,1,150,2|0,0:0|0:0,0:0:0:0:
498,329,50492,1,0,0:0:0:0:
460,262,50853,2,0,P|482:233|495:198,1,75,2|0,0:0|0:0,0:0:0:0:
457,133,51576,2,0,P|434:162|421:197,1,75,2|0,0:0|0:0,0:0:0:0:
384,263,52299,6,0,B|341:266|310:280|310:280|272:273|236:277,1,150,2|0,0:1|0:0,0:0:0:0:
203,345,53384,2,0,B|167:340|129:347|129:347|98:333|55:330,1,150,2|0,0:0|0:0,0:0:0:0:
84,260,54468,2,0,P|48:256|12:268,1,75,2|4,0:0|0:0,0:0:0:0:
12,193,55191,6,0,P|48:187|88:193,1,75,2|0,0:0|0:0,0:0:0:0:
134,135,55914,2,0,P|98:122|61:118,1,75,0|0,0:0|0:0,0:0:0:0:
36,47,56637,1,2,0:0:0:0:
106,21,56998,1,0,0:0:0:0:
164,67,57359,1,0,0:0:0:0:
134,135,57721,1,0,0:0:0:0:
188,184,58082,6,0,P|260:164|340:160,2,150,2|0|2,0:1|0:0|0:0,0:0:0:0:
162,258,59890,1,0,0:0:0:0:
220,304,60251,1,0,0:0:0:0:
290,278,60613,1,4,0:0:0:0:
352,320,60974,6,0,B|376:286|360:245|360:245|374:227|374:227|381:203|375:169,1,150,2|0,0:0|0:0,0:0:0:0:
327,122,62058,1,0,0:0:0:0:
256,148,62420,2,0,P|240:183|241:220,1,75,2|0,0:0|0:0,0:0:0:0:
220,292,63143,1,2,0:0:0:0:
220,292,63504,1,0,0:0:0:0:
156,336,63866,6,0,P|112:332|56:320,1,75,2|0,0:1|0:0,0:0:0:0:
72,252,64588,2,0,P|116:256|172:268,1,75,2|0,0:1|0:0,0:0:0:0:
220,292,65311,1,2,0:0:0:0:
272,344,65673,1,0,0:0:0:0:
344,320,66034,2,0,P|381:313|432:312,1,75,0|4,0:0|0:0,0:0:0:0:
492,336,66757,6,0,P|504:256|511:187,1,150,2|0,0:0|0:0,0:0:0:0:
511,187,68203,1,2,0:0:0:0:
468,124,68564,1,0,0:0:0:0:
396,144,68926,1,0,0:0:0:0:
336,100,69287,1,0,0:0:0:0:
264,124,69649,6,0,P|271:199|276:288,1,150,2|0,0:1|0:0,0:0:0:0:
264,348,70733,1,0,0:0:0:0:
196,256,71094,2,0,P|236:204|328:216,1,150,2|0,0:0|0:0,0:0:0:0:
368,260,72179,1,4,0:0:0:0:
264,348,72540,6,0,P|188:339|104:332,1,150,2|0,0:0|0:0,0:0:0:0:
40,352,73625,2,0,L|30:277,2,75,0|2|0,0:0|0:0|0:0,0:0:0:0:
104,260,74709,1,2,0:0:0:0:
92,188,75070,1,0,0:0:0:0:
172,147,75432,6,0,P|100:158|48:108,1,150,2|0,0:1|0:0,0:0:0:0:
68,36,76516,1,0,0:0:0:0:
128,80,76878,1,2,0:0:0:0:
128,80,77600,2,0,P|165:73|208:68,1,75,0|4,0:0|0:0,0:0:0:0:
268,104,78323,6,0,P|340:116|420:124,1,150,2|0,0:0|0:0,0:0:0:0:
488,104,79408,1,0,0:0:0:0:
472,176,79769,2,0,P|474:214|480:252,1,75,2|0,0:0|0:0,0:0:0:0:
388,316,80492,1,2,0:0:0:0:
400,240,80853,1,0,0:0:0:0:
312,192,81215,6,0,P|317:229|319:266,1,75,2|0,0:0|0:0,0:0:0:0:
184,288,81938,2,0,P|217:304|254:311,1,75,2|0,0:0|0:0,0:0:0:0:
244,236,82661,1,2,0:0:0:0:
244,236,83022,1,0,0:0:0:0:
172,216,83384,2,0,P|132:218|92:228,1,75,2|0,0:0|0:0,0:0:0:0:
24,276,84106,6,0,P|16:188|4:88,2,179.999994506836,2|0|2,0:1|0:0|0:0,0:0:0:0:
72,352,85914,1,8,0:0:0:0:
160,328,86275,1,0,0:0:0:0:
248,352,86637,1,0,0:0:0:0:
312,292,86998,6,0,P|301:195|286:94,1,179.999994506836,2|0,0:1|0:0,0:0:0:0:
256,28,88082,1,0,0:0:0:0:
344,44,88444,2,0,P|388:40|433:37,1,89.9999972534181,2|0,0:0|0:0,0:0:0:0:
289,113,89167,2,0,P|251:106|181:101,1,89.9999972534181,2|0,0:0|0:0,0:0:0:0:
112,104,89890,6,0,P|161:175|156:268,1,179.999994506836,2|0,0:1|0:0,0:0:0:0:
88,324,90974,1,0,0:0:0:0:
16,272,91335,2,0,P|11:220|4:172,2,89.9999972534181,2|8|0,0:0|0:0|0:0,0:0:0:0:
4,360,92420,1,0,0:0:0:0:
88,324,92781,6,0,P|140:332|188:364,1,89.9999972534181,2|0,0:1|0:0,0:0:0:0:
270,238,93504,2,0,P|264:283|260:328,1,89.9999972534181,2|0,0:0|0:0,0:0:0:0:
156,244,94227,2,0,P|162:199|166:154,1,89.9999972534181,2|0,0:0|0:0,0:0:0:0:
212,76,94950,1,2,0:0:0:0:
296,108,95311,1,0,0:0:0:0:
368,56,95673,6,0,P|464:64|492:152,1,179.999994506836,2|0,0:1|0:0,0:0:0:0:
476,220,96757,1,0,0:0:0:0:
388,244,97119,2,0,P|340:236|284:228,2,89.9999972534181,2|8|0,0:0|0:0|0:0,0:0:0:0:
412,332,98203,1,0,0:0:0:0:
328,368,98564,6,0,P|272:360|144:344,1,179.999994506836,2|0,0:1|0:0,0:0:0:0:
84,276,99649,1,0,0:0:0:0:
84,276,100010,2,0,P|39:271|4:244,1,89.9999972534181,2|0,0:0|0:0,0:0:0:0:
76,192,100733,1,2,0:0:0:0:
76,192,101094,1,0,0:0:0:0:
64,104,101456,6,0,P|153:95|243:85,1,179.999994506836,2|0,0:1|0:0,0:0:0:0:
320,132,102540,1,0,0:0:0:0:
404,104,102902,2,0,P|408:60|416:4,2,89.9999972534181,2|8|0,0:0|0:0|0:0,0:0:0:0:
444,184,103986,1,0,0:0:0:0:
408,268,104347,6,0,P|318:259|228:249,1,179.999994506836,2|0,0:0|0:0,0:0:0:0:
144,284,105432,1,0,0:0:0:0:
68,236,105793,2,0,P|64:192|56:136,1,89.9999972534181,2|0,0:0|0:0,0:0:0:0:
76,60,106516,1,2,0:0:0:0:
164,76,106878,1,0,0:0:0:0:
245,37,107239,6,0,P|333:21|423:15,1,179.999994506836,2|0,0:1|0:0,0:0:0:0:
378,93,108323,1,0,0:0:0:0:
357,180,108685,2,0,P|312:171|273:151,1,89.9999972534181,2|8,0:0|0:0,0:0:0:0:
227,229,109408,2,0,P|182:237|143:257,1,89.9999972534181,0|0,0:0|0:0,0:0:0:0:
83,325,110131,6,0,P|54:239|36:151,1,179.999994506836,2|0,0:1|0:0,0:0:0:0:
36,151,111215,1,0,0:0:0:0:
90,79,111576,1,2,0:0:0:0:
121,163,111938,1,0,0:0:0:0:
68,235,112299,1,2,0:0:0:0:
144,282,112661,1,0,0:0:0:0:
203,349,113022,6,0,P|291:364|381:370,1,179.999994506836,2|0,0:1|0:0,0:0:0:0:
461,330,114106,1,0,0:0:0:0:
375,302,114468,2,0,P|330:293|291:273,1,89.9999972534181,2|8,0:0|0:0,0:0:0:0:
356,210,115191,2,0,P|400:188|446:181,1,89.9999972534181,0|0,0:0|0:0,0:0:0:0:
489,105,115914,6,0,P|476:57|479:10,2,89.9999972534181,2|0|2,0:1|0:0|0:0,0:0:0:0:
489,105,116998,1,0,0:0:0:0:
406,140,117359,2,0,P|380:103|365:60,1,89.9999972534181,2|0,0:0|0:0,0:0:0:0:
293,114,118082,2,0,P|248:105|209:85,1,89.9999972534181,2|0,0:0|0:0,0:0:0:0:
199,174,118805,6,0,P|109:180|20:195,1,179.999994506836,2|0,0:1|0:0,0:0:0:0:
20,195,119890,1,0,0:0:0:0:
72,267,120251,2,0,P|92:222|97:176,1,89.9999972534181,2|8,0:0|0:0,0:0:0:0:
131,98,120974,2,0,P|114:51|86:14,1,89.9999972534181,0|0,0:0|0:0,0:0:0:0:
40,93,121697,6,0,P|129:99|218:114,1,179.999994506836,2|0,0:1|0:0,0:0:0:0:
218,114,122781,1,0,0:0:0:0:
304,137,123143,2,0,P|321:90|350:54,1,89.9999972534181,2|0,0:0|0:0,0:0:0:0:
434,42,123866,2,0,P|465:73|506:92,1,89.9999972534181,2|0,0:0|0:0,0:0:0:0:
434,41,124588,6,0,P|426:86|425:131,1,89.9999972534181,2|0,0:1|0:0,0:0:0:0:
486,272,125311,2,0,P|485:227|477:182,1,89.9999972534181,0|0,0:0|0:0,0:0:0:0:
387,193,126034,2,0,P|298:208|208:214,1,179.999994506836,2|0,0:0|0:0,0:0:0:0:
208,214,127119,1,0,0:0:0:0:
119,227,127480,6,0,P|208:233|297:248,1,179.999994506836,2|0,0:0|0:0,0:0:0:0:
327,333,128564,2,0,P|389:268|458:210,1,179.999994506836,2|0,0:0|0:0,0:0:0:0:
455,120,129649,2,0,P|424:87|404:47,1,89.9999972534181,2|0,0:0|0:0,0:0:0:0:
331,67,130372,6,0,L|256:71,1,75,2|8,0:1|0:0,0:0:0:0:
243,145,131094,2,0,L|175:111,1,75,0|0,0:0|0:0,0:0:0:0:
119,161,131817,2,0,L|77:98,1,75,2|0,0:0|0:0,0:0:0:0:
4,116,132540,1,0,0:0:0:0:
14,190,132902,1,4,0:0:0:0:
58,250,133263,6,0,L|132:246,1,75,2|0,0:0|0:0,0:0:0:0:
239,190,133986,2,0,L|204:256,1,75,0|0,0:0|0:0,0:0:0:0:
158,312,134709,2,0,L|199:376,1,75,2|0,0:0|0:0,0:0:0:0:
241,313,135432,1,2,0:0:0:0:
306,349,135793,1,0,0:0:0:0:
377,329,136155,6,0,P|415:328|450:339,2,75,2|8|0,0:1|0:0|0:0,0:0:0:0:
378,329,137239,1,0,0:0:0:0:
305,348,137600,2,0,P|268:346|232:355,1,75,2|0,0:0|0:0,0:0:0:0:
158,343,138323,1,0,0:0:0:0:
120,278,138685,1,4,0:0:0:0:
48,254,139046,6,0,L|60:327,1,75,2|0,0:0|0:0,0:0:0:0:
120,278,139769,2,0,L|177:229,1,75,0|0,0:0|0:0,0:0:0:0:
106,204,140492,2,0,L|35:178,1,75,2|0,0:0|0:0,0:0:0:0:
93,130,141215,2,0,L|105:203,1,75,2|0,0:0|0:0,0:0:0:0:
105,203,141938,5,2,0:1:0:0:
170,166,142299,1,8,0:0:0:0:
209,102,142661,2,0,P|221:66|221:29,1,75
291,56,143384,2,0,P|364:70|439:73,1,150,2|0,0:0|0:0,0:0:0:0:
454,146,144468,1,4,0:0:0:0:
435,113,144649,1,0,0:0:0:0:
439,73,144829,6,0,P|365:87|290:90,1,150,2|0,0:0|0:0,0:0:0:0:
324,157,145914,1,0,0:0:0:0:
261,197,146275,2,0,P|323:237|379:288,1,150,2|2,0:0|0:0,0:0:0:0:
308,312,147359,1,0,0:0:0:0:
277,380,147721,5,2,0:1:0:0:
199,251,148444,1,0,0:0:0:0:
152,309,148805,1,0,0:0:0:0:
75,307,149167,2,0,P|111:317|141:340,1,75,2|0,0:0|0:0,0:0:0:0:
215,322,149890,2,0,P|213:285|199:251,1,75,0|4,0:0|0:0,0:0:0:0:
125,233,150613,6,0,P|138:198|138:160,1,75,2|0,0:0|0:0,0:0:0:0:
42,116,151335,2,0,P|60:148|67:185,1,75,2|0,0:0|0:0,0:0:0:0:
137,160,152058,2,0,P|121:127|117:90,1,75,2|0,0:0|0:0,0:0:0:0:
167,34,152781,1,2,0:0:0:0:
167,34,153143,1,0,0:0:0:0:
196,104,153504,5,2,0:1:0:0:
268,84,153866,1,8,0:0:0:0:
312,144,154227,2,0,L|304:228,1,75,0|0,0:0|0:0,0:0:0:0:
308,256,154769,2,0,P|231:239|184:240,1,112.5,0|0,0:0|0:0,0:0:0:0:
132,276,155673,1,2,0:0:0:0:
132,276,156396,6,0,P|63:269|28:200,1,150,2|0,0:0|0:0,0:0:0:0:
44,128,157480,1,0,0:0:0:0:
116,108,157841,2,0,L|196:120,1,75,2|0,0:0|0:0,0:0:0:0:
256,152,158564,1,2,0:0:0:0:
332,140,158926,1,0,0:0:0:0:
400,172,159287,6,0,P|396:252|384:320,1,150,2|0,0:1|0:0,0:0:0:0:
328,372,160372,1,0,0:0:0:0:
256,356,160733,1,2,0:0:0:0:
244,280,161094,1,0,0:0:0:0:
172,260,161456,1,0,0:0:0:0:
116,312,161817,1,4,0:0:0:0:
44,292,162179,6,0,B|43:252|56:216|56:216|47:188|43:144,1,150,2|0,0:0|0:0,0:0:0:0:
40,68,163263,1,0,0:0:0:0:
118,29,163625,2,0,P|114:67|108:103,1,75,2|0,0:0|0:0,0:0:0:0:
164,152,164347,1,2,0:0:0:0:
164,152,164709,1,0,0:0:0:0:
228,192,165070,6,0,P|236:267|237:341,1,150,2|0,0:1|0:0,0:0:0:0:
304,376,166155,1,0,0:0:0:0:
364,332,166516,2,0,P|448:332|496:372,1,150,2|0,0:0|0:0,0:0:0:0:
476,300,167600,1,4,0:0:0:0:
472,224,167962,6,0,P|474:185|481:132,2,75,2|0|0,0:0|0:0|0:0,0:0:0:0:
404,196,169046,1,0,0:0:0:0:
368,132,169408,2,0,P|372:94|375:57,1,75,2|0,0:0|0:0,0:0:0:0:
296,152,170131,2,0,P|300:189|303:226,1,75,2|0,0:0|0:0,0:0:0:0:
256,88,170853,6,0,P|172:88|124:128,1,150,2|0,0:1|0:0,0:0:0:0:
55,194,171938,2,0,P|52:157|48:120,2,75,0|2|0,0:0|0:0|0:0,0:0:0:0:
112,244,173022,1,0,0:0:0:0:
104,320,173384,1,4,0:0:0:0:
172,356,173745,6,0,P|204:352|264:340,1,75,2|0,0:0|0:0,0:0:0:0:
342,298,174468,2,0,P|328:332|316:368,1,75,0|0,0:0|0:0,0:0:0:0:
424,328,175191,2,0,P|415:253|412:178,1,150,2|2,0:0|0:0,0:0:0:0:
448,112,176275,1,0,0:0:0:0:
392,60,176637,6,0,P|344:52|308:44,1,75,2|8,0:1|0:0,0:0:0:0:
226,133,177359,2,0,P|263:127|300:120,1,75,0|0,0:0|0:0,0:0:0:0:
324,148,177902,2,0,P|321:199|312:276,1,112.5,0|0,0:0|0:0,0:0:0:0:
292,332,178805,1,2,0:0:0:0:
224,364,179167,2,0,L|172:356,1,37.5,4|0,0:0|0:0,0:0:0:0:
164,328,179528,6,0,P|80:328|32:288,1,150,2|0,0:0|0:0,0:0:0:0:
8,216,180613,1,0,0:0:0:0:
72,180,180974,2,0,P|111:177|168:168,1,75,2|0,0:0|0:0,0:0:0:0:
208,128,181697,1,2,0:0:0:0:
192,56,182058,1,0,0:0:0:0:
260,24,182420,6,0,P|334:31|408:43,1,150,2|0,0:1|0:0,0:0:0:0:
468,88,183504,1,0,0:0:0:0:
436,156,183866,1,2,0:0:0:0:
492,204,184227,1,0,0:0:0:0:
460,272,184588,1,0,0:0:0:0:
512,324,184950,1,4,0:0:0:0:
456,376,185311,6,0,P|414:373|368:368,1,75,2|0,0:0|0:0,0:0:0:0:
308,324,186034,2,0,P|321:289|332:253,1,75,0|0,0:0|0:0,0:0:0:0:
236,184,186757,2,0,P|237:221|241:258,1,75,2|0,0:0|0:0,0:0:0:0:
224,340,187480,1,2,0:0:0:0:
224,340,187841,1,0,0:0:0:0:
148,300,188203,6,0,P|64:300|16:340,2,150,2|0|2,0:1|0:0|0:0,0:0:0:0:
164,220,190010,1,0,0:0:0:0:
124,148,190372,2,0,P|72:156|44:164,1,75,0|4,0:0|0:0,0:0:0:0:
164,220,191094,6,0,P|237:207|310:189,1,150,2|0,0:0|0:0,0:0:0:0:
368,140,192179,2,0,P|352:108|352:56,2,75,0|2|0,0:0|0:0|0:0,0:0:0:0:
428,88,193263,1,2,0:0:0:0:
428,88,193625,1,0,0:0:0:0:
464,12,193986,6,0,P|504:56|480:152,1,150,2|0,0:1|0:0,0:0:0:0:
432,184,195070,2,0,P|437:217|444:276,1,75,0|2,0:0|0:0,0:0:0:0:
420,332,195793,1,0,0:0:0:0:
352,300,196155,1,0,0:0:0:0:
292,344,196516,1,4,0:0:0:0:
224,316,196878,6,0,P|151:298|71:297,1,150,2|0,0:0|0:0,0:0:0:0:
76,296,198323,1,2,0:0:0:0:
124,238,198685,1,0,0:0:0:0:
195,271,199046,1,2,0:0:0:0:
265,244,199408,1,0,0:0:0:0:
207,197,199769,6,0,B|162:190|136:220|136:220|120:207|120:207|91:216|65:196,2,150,2|0|2,0:1|0:0|0:0,0:0:0:0:
195,271,201576,1,0,0:0:0:0:
265,245,201938,1,0,0:0:0:0:
304,308,202299,1,4,0:0:0:0:
372,278,202661,6,0,B|417:271|442:301|442:301|458:288|458:288|487:297|514:277,2,150,2|0|2,0:0|0:0|0:0,0:0:0:0:
388,351,204468,1,0,0:0:0:0:
372,278,204829,1,0,0:0:0:0:
388,351,205191,1,0,0:0:0:0:
372,278,205552,6,0,B|339:271|308:278|308:278|292:269|292:269|258:271|229:291,1,150,2|0,0:1|0:0,0:0:0:0:
229,291,206637,1,0,0:0:0:0:
171,339,206998,2,0,P|134:333|97:337,1,75,2|0,0:0|0:0,0:0:0:0:
86,262,207721,2,0,P|127:262|161:269,1,75,2|4,0:0|0:0,0:0:0:0:
160,268,208444,5,2,0:0:0:0:
86,262,208805,1,0,0:0:0:0:
74,187,209167,2,0,P|39:201|17:231,1,75,0|0,0:0|0:0,0:0:0:0:
86,262,209890,1,2,0:0:0:0:
160,268,210251,1,0,0:0:0:0:
227,234,210613,1,0,0:0:0:0:
256,165,210974,1,0,0:0:0:0:
258,90,211335,6,0,B|269:72|292:60|292:60|342:78|332:145,1,150,2|0,0:1|0:0,0:0:0:0:
284,203,212420,1,0,0:0:0:0:
332,145,212781,2,0,B|352:140|377:148|377:148|400:196|345:237,1,150,2|0,0:0|0:0,0:0:0:0:
271,245,213866,1,4,0:0:0:0:
345,237,214227,6,0,B|362:248|374:271|374:271|359:321|288:316,1,150,2|0,0:0|0:0,0:0:0:0:
271,245,215311,1,0,0:0:0:0:
290,316,215673,2,0,P|252:316|217:328,1,75,2|0,0:0|0:0,0:0:0:0:
159,376,216396,1,0,0:0:0:0:
216,327,216757,6,0,B|191:301|149:292|118:314|118:314|106:284|90:285,1,150,0|8,0:0|0:0,0:0:0:0:
53,219,217841,2,0,P|90:210|126:218,1,75,0|0,0:0|0:0,0:0:0:0:
159,150,218564,2,0,P|188:172|204:206,1,75,2|0,0:0|0:0,0:0:0:0:
272,237,219287,1,2,0:0:0:0:
315,175,219649,1,4,0:0:0:0:
297,102,220010,6,0,B|303:68|330:48|330:48|372:63|413:46,1,150,2|0,0:1|0:0,0:0:0:0:
447,113,221094,1,0,0:0:0:0:
416,181,221456,2,0,P|387:159|369:121,1,75,2|0,0:0|0:0,0:0:0:0:
296,101,222179,2,0,P|259:97|223:103,1,75
222,179,222902,5,2,0:0:0:0:
268,237,223263,2,0,P|251:246|234:252,1,37.5,8|0,0:0|0:0,0:0:0:0:
197,262,223625,2,0,P|176:264|160:279,1,37.5,2|0,0:0|0:0,0:0:0:0:
166,311,223986,1,0,0:0:0:0:
151,345,224167,1,0,0:0:0:0:
107,355,224347,5,2,0:0:0:0:
72,288,224709,1,0,0:0:0:0:
106,221,225070,1,2,0:0:0:0:
71,153,225432,6,0,B|120:134|159:169|159:169|191:158|191:158|225:175|240:162,1,179.999994506836,2|8,0:1|0:0,0:0:0:0:
331,159,226516,2,0,B|350:166|375:164|375:164|390:147|416:148,1,89.9999972534181,0|0,0:0|0:0,0:0:0:0:
476,215,227239,1,2,0:0:0:0:
504,129,227600,1,0,0:0:0:0:
415,148,227962,1,0,0:0:0:0:
476,215,228323,6,0,B|489:245|486:274|486:274|494:288|494:288|486:299,2,89.9999972534181,0|2|0,0:0|0:1|0:0,0:0:0:0:
475,214,229408,1,0,0:0:0:0:
415,148,229769,1,0,0:0:0:0:
398,59,230131,1,2,0:0:0:0:
349,134,230492,1,0,0:0:0:0:
269,176,230853,1,2,0:0:0:0:
177,173,231215,6,0,B|131:169|101:141|101:141|75:138|75:138|94:104|81:71,1,179.999994506836,2|8,0:1|0:0,0:0:0:0:
163,33,232299,2,0,B|163:67|152:98|152:98|161:106|173:107,1,89.9999972534181,2|0,0:0|0:0,0:0:0:0:
245,54,233022,1,0,0:0:0:0:
173,107,233384,1,0,0:0:0:0:
85,127,233745,1,2,0:0:0:0:
120,209,234106,1,0,0:0:0:0:
111,298,234468,6,0,P|147:323|191:329,1,89.9999972534181,2|0,0:1|0:0,0:0:0:0:
274,365,235191,2,0,P|310:339|354:333,1,89.9999972534181,2|0,0:0|0:0,0:0:0:0:
444,345,235914,1,2,0:0:0:0:
475,260,236275,1,0,0:0:0:0:
387,278,236637,1,2,0:0:0:0:
475,260,236998,6,0,B|506:191|434:174|418:220|418:220|394:208|368:215,1,179.999994506836,2|8,0:1|0:0,0:0:0:0:
369,214,238082,1,2,0:0:0:0:
310,145,238444,1,0,0:0:0:0:
228,182,238805,1,2,0:0:0:0:
235,271,239167,1,0,0:0:0:0:
322,291,239528,1,2,0:0:0:0:
369,214,239890,6,0,B|356:204|339:205|339:205|312:226|284:214,2,89.9999972534181,0|2|0,0:0|0:1|0:0,0:0:0:0:
322,291,240974,1,2,0:0:0:0:
322,291,241335,1,0,0:0:0:0:
235,271,241697,1,2,0:0:0:0:
177,339,242058,1,0,0:0:0:0:
143,255,242420,1,2,0:0:0:0:
53,248,242781,6,0,B|31:284|45:319|45:319|23:344|23:344|50:369|91:360,1,179.999994506836,2|8,0:1|0:0,0:0:0:0:
90,360,243866,1,2,0:0:0:0:
177,339,244227,1,0,0:0:0:0:
143,255,244588,1,0,0:0:0:0:
235,271,244950,1,0,0:0:0:0:
322,291,245311,1,2,0:0:0:0:
297,204,245673,1,0,0:0:0:0:
328,119,246034,5,2,0:0:0:0:
244,152,246396,1,0,0:0:0:0:
279,69,246757,1,0,0:0:0:0:
189,79,247119,1,0,0:0:0:0:
105,46,247480,1,2,0:0:0:0:
113,135,247841,1,0,0:0:0:0:
70,214,248203,1,2,0:0:0:0:
24,137,248564,1,0,0:0:0:0:
24,137,248926,6,0,B|47:132|69:141|69:141|89:132|112:134,1,89.9999972534181,2|8,0:1|0:0,0:0:0:0:
189,79,249649,2,0,B|212:77|232:86|232:86|254:77|277:82,1,89.9999972534181,0|0,0:0|0:0,0:0:0:0:
360,120,250372,1,2,0:0:0:0:
284,168,250733,1,0,0:0:0:0:
372,188,251094,1,0,0:0:0:0:
348,276,251456,1,0,0:0:0:0:
428,232,251817,6,0,B|436:192|452:168|452:168|440:112|468:59,1,179.999994506836,2|0,0:1|0:0,0:0:0:0:
468,60,252902,1,0,0:0:0:0:
392,12,253263,2,0,P|368:60|360:112,2,89.9999972534181,2|0|2,0:0|0:0|0:0,0:0:0:0:
468,60,254347,1,0,0:0:0:0:
432,144,254709,6,0,B|384:136|360:92|360:92|320:116|275:101,1,179.999994506836,2|0,0:1|0:0,0:0:0:0:
204,48,255793,1,0,0:0:0:0:
160,128,256155,1,2,0:0:0:0:
159,128,256878,2,0,P|116:113|72:108,1,89.9999972534181,0|0,0:0|0:0,0:0:0:0:
176,216,257600,6,0,B|207:208|224:196|224:196|228:212|228:212|276:188|340:212,2,179.999994506836,2|0|2,0:1|0:0|0:0,0:0:0:0:
88,200,259408,1,0,0:0:0:0:
116,284,259769,1,2,0:0:0:0:
28,268,260131,1,0,0:0:0:0:
60,352,260492,6,0,B|76:360|96:364|96:364|120:356|120:356|176:380|240:364,1,179.999994506836,2|0,0:1|0:0,0:0:0:0:
316,324,261576,1,0,0:0:0:0:
376,256,261938,2,0,P|332:236|272:240,1,89.9999972534181,2|8,0:0|0:0,0:0:0:0:
316,324,262661,1,0,0:0:0:0:
404,348,263022,1,0,0:0:0:0:
468,284,263384,6,0,P|468:235|440:182,1,89.9999972534181,2|0,0:1|0:0,0:0:0:0:
444,108,264106,2,0,P|401:85|340:86,1,89.9999972534181,0|0,0:0|0:0,0:0:0:0:
276,120,264829,1,2,0:0:0:0:
324,196,265191,1,0,0:0:0:0:
248,244,265552,1,2,0:0:0:0:
296,320,265914,1,0,0:0:0:0:
216,364,266275,6,0,B|157:378|101:354|101:354|77:362|77:362|57:358|41:350,1,179.999994506836,2|0,0:1|0:0,0:0:0:0:
16,264,267359,1,0,0:0:0:0:
84,208,267721,2,0,B|108:212|124:228|124:228|152:220|167:224,1,89.9999972534181,2|8,0:0|0:0,0:0:0:0:
232,160,268444,2,0,B|247:155|275:163|275:163|291:147|315:143,1,89.9999972534181,0|0,0:0|0:0,0:0:0:0:
404,136,269167,6,0,P|391:225|379:314,1,179.999994506836,2|0,0:0|0:0,0:0:0:0:
300,360,270251,2,0,B|272:368|248:364|248:364|224:344|224:344|180:360|121:335,1,179.999994506836,2|0,0:0|0:0,0:0:0:0:
56,288,271335,2,0,P|91:258|152:252,1,89.9999972534181,2|0,0:0|0:0,0:0:0:0:
204,220,272058,6,0,P|276:236|360:240,2,150,2|0|2,0:1|0:0|0:0,0:0:0:0:
156,160,273866,1,0,0:0:0:0:
92,124,274227,1,2,0:0:0:0:
16,132,274588,1,4,0:0:0:0:
4,56,274950,6,0,P|76:40|160:36,1,150,2|0,0:0|0:0,0:0:0:0:
284,108,276396,2,0,P|357:123|432:126,1,150,2|0,0:0|0:0,0:0:0:0:
504,108,277480,1,0,0:0:0:0:
448,56,277841,6,0,P|432:136|428:224,1,150,2|0,0:1|0:0,0:0:0:0:
452,232,278745,1,0,0:0:0:0:
464,268,278926,1,0,0:0:0:0:
464,304,279106,1,0,0:0:0:0:
456,340,279287,2,0,P|413:325|360:328,1,75,2|0,0:0|0:0,0:0:0:0:
336,211,280010,2,0,P|322:246|320:284,1,75,2|4,0:0|0:0,0:0:0:0:
320,360,280733,6,0,P|245:355|172:339,1,150,2|0,0:0|0:0,0:0:0:0:
148,312,281637,1,0,0:0:0:0:
120,288,281817,1,0,0:0:0:0:
84,280,281998,1,0,0:0:0:0:
48,288,282179,2,0,P|51:250|61:214,1,75,2|0,0:0|0:0,0:0:0:0:
120,168,282902,2,0,P|116:130|106:94,1,75,2|0,0:0|0:0,0:0:0:0:
60,36,283625,6,0,P|129:53|208:52,2,150,2|0|2,0:1|0:0|0:0,0:0:0:0:
12,96,285432,1,0,0:0:0:0:
44,164,285793,1,2,0:0:0:0:
120,168,286155,1,4,0:0:0:0:
120,168,286335,1,0,0:0:0:0:
120,168,286516,6,0,P|162:153|216:156,1,75,2|0,0:0|0:0,0:0:0:0:
264,168,287239,1,2,0:0:0:0:
264,168,287962,2,0,P|338:163|411:147,1,150,2|0,0:0|0:0,0:0:0:0:
484,172,289046,1,0,0:0:0:0:
484,172,289408,6,0,P|464:248|472:324,1,150,2|0,0:1|0:0,0:0:0:0:
408,364,290492,1,0,0:0:0:0:
332,368,290853,2,0,P|264:352|244:340,1,75,2|0,0:0|0:0,0:0:0:0:
184,348,291576,1,2,0:0:0:0:
184,348,292299,6,0,P|174:311|171:274,1,75,2|0,0:0|0:0,0:0:0:0:
184,200,293022,1,2,0:0:0:0:
184,200,293745,1,2,0:0:0:0:
256,232,294106,1,0,0:0:0:0:
258,156,294468,2,0,P|294:161|329:177,1,75,0|0,0:0|0:0,0:0:0:0:
342,251,295191,5,2,0:1:0:0:
303,315,295552,1,8,0:0:0:0:
244,361,295914,1,0,0:0:0:0:
318,379,296275,1,0,0:0:0:0:
392,367,296637,2,0,P|425:350|452:324,1,75,2|0,0:0|0:0,0:0:0:0:
409,262,297359,1,0,0:0:0:0:
393,187,297721,2,0,P|357:182|320:187,1,75,4|2,0:0|0:0,0:0:0:0:
320,187,298444,5,0,0:0:0:0:
257,145,298805,1,0,0:0:0:0:
182,154,299167,1,0,0:0:0:0:
126,103,299528,2,0,P|97:78|62:65,1,75,2|0,0:0|0:0,0:0:0:0:
32,134,300251,1,0,0:0:0:0:
40,208,300613,2,0,P|78:203|118:182,1,75,0|2,0:0|0:1,0:0:0:0:
130,259,301335,5,8,0:0:0:0:
110,187,301697,1,0,0:0:0:0:
40,207,302058,2,0,P|38:245|43:282,2,75,0|2|0,0:0|0:0|0:0,0:0:0:0:
110,187,303143,2,0,P|147:191|183:181,1,75,0|4,0:0|0:0,0:0:0:0:
245,139,303866,5,2,0:0:0:0:
183,181,304227,1,0,0:0:0:0:
249,214,304588,1,0,0:0:0:0:
249,214,304950,1,0,0:0:0:0:
237,288,305311,2,0,P|205:307|169:315,1,75,2|0,0:0|0:0,0:0:0:0:
95,304,306034,1,0,0:0:0:0:
106,229,306396,2,0,P|144:229|190:247,1,75,0|2,0:0|0:1,0:0:0:0:
238,288,307119,5,8,0:0:0:0:
249,214,307480,1,0,0:0:0:0:
238,288,307841,1,0,0:0:0:0:
288,341,308203,2,0,P|322:359|358:365,1,75,2|0,0:0|0:0,0:0:0:0:
433,359,308926,1,0,0:0:0:0:
489,308,309287,2,0,P|500:273|500:236,1,75,4|2,0:0|0:0,0:0:0:0:
485,162,310010,5,0,0:0:0:0:
418,127,310372,1,0,0:0:0:0:
418,201,310733,1,0,0:0:0:0:
342,188,311094,2,0,P|307:177|276:156,1,75,2|0,0:0|0:0,0:0:0:0:
208,124,311817,1,0,0:0:0:0:
208,124,312179,2,0,P|182:151|170:186,1,75,0|2,0:0|0:1,0:0:0:0:
96,176,312902,5,8,0:0:0:0:
34,133,313263,1,0,0:0:0:0:
24,207,313625,1,0,0:0:0:0:
96,175,313986,2,0,P|108:141|104:104,1,75,2|0,0:0|0:0,0:0:0:0:
34,133,314709,1,0,0:0:0:0:
24,207,315070,2,0,P|43:238|77:252,1,75,4|2,0:0|0:0,0:0:0:0:
77,252,316155,5,2,0:0:0:0:
101,322,316516,1,0,0:0:0:0:
164,284,316878,2,0,P|174:247|193:215,1,75,2|0,0:0|0:0,0:0:0:0:
183,141,317600,1,2,0:0:0:0:
244,97,317962,2,0,P|226:64|215:28,1,75,0|2,0:0|0:1,0:0:0:0:
270,223,319046,5,0,0:0:0:0:
312,302,319408,1,0,0:0:0:0:
347,219,319769,1,2,0:0:0:0:
418,164,320131,1,8,0:0:0:0:
481,228,320492,1,0,0:0:0:0:
493,316,320853,2,0,P|448:321|403:315,1,89.9999972534181,0|2,0:0|0:1,0:0:0:0:
193,215,321938,5,0,0:0:0:0:
107,241,322299,1,0,0:0:0:0:
148,160,322661,2,0,P|109:139|65:128,1,89.9999972534181,2|0,0:0|0:0,0:0:0:0:
65,128,323384,1,2,0:0:0:0:
28,210,323745,1,0,0:0:0:0:
106,240,324106,6,0,P|168:306|251:337,1,179.999994506836,2|0,0:1|0:0,0:0:0:0:
262,247,325191,1,0,0:0:0:0:
351,234,325552,2,0,P|376:232|395:224,1,44.999998626709,2|0,0:0|0:0,0:0:0:0:
410,182,325914,2,0,P|432:197|445:218,1,44.999998626709,8|0,0:0|0:0,0:0:0:0:
452,255,326275,1,2,0:0:0:0:
416,337,326637,2,0,P|441:337|460:327,1,44.999998626709,0|0,0:0|0:0,0:0:0:0:
483,290,326998,6,0,P|479:200|461:112,1,179.999994506836,2|0,0:1|0:0,0:0:0:0:
461,112,328082,1,0,0:0:0:0:
370,107,328444,1,2,0:0:0:0:
290,64,328805,1,0,0:0:0:0:
212,111,329167,2,0,P|168:104|124:109,1,89.9999972534181,2|0,0:0|0:0,0:0:0:0:
44,152,329890,6,0,B|91:171|101:219|101:219|68:246|18:238,1,179.999994506836,2|0,0:1|0:0,0:0:0:0:
18,238,330974,1,0,0:0:0:0:
44,152,331335,1,2,0:0:0:0:
121,106,331697,1,8,0:0:0:0:
183,170,332058,1,0,0:0:0:0:
184,260,332420,1,0,0:0:0:0:
259,309,332781,6,0,B|311:317|344:341|344:341|343:302|374:259,2,179.999994506836,2|0|2,0:1|0:0|0:0,0:0:0:0:
289,224,334588,1,0,0:0:0:0:
374,259,334950,1,2,0:0:0:0:
424,333,335311,1,0,0:0:0:0:
450,246,335673,5,2,0:1:0:0:
403,72,336396,2,0,P|356:58|314:57,1,89.9999972534181
225,68,337119,1,2,0:0:0:0:
106,203,337841,2,0,P|84:197|65:186,1,44.999998626709,2|0,0:0|0:0,0:0:0:0:
77,142,338203,2,0,P|82:120|83:97,1,44.999998626709
50,66,338564,6,0,P|126:48|225:68,1,179.999994506836,2|0,0:0|0:0,0:0:0:0:
260,150,339649,2,0,P|349:143|427:100,1,179.999994506836,2|8,0:0|0:0,0:0:0:0:
427,100,340733,1,2,0:0:0:0:
341,71,341094,1,0,0:0:0:0:
280,32,341456,6,0,P|196:40|120:52,1,150,2|0,0:1|0:0,0:0:0:0:
72,96,342567,1,0,0:0:0:0:
72,96,342752,1,0,0:0:0:0:
72,96,342937,2,0,P|80:136|84:176,1,75,2|0,0:0|0:0,0:0:0:0:
132,228,343678,1,2,0:0:0:0:
120,300,344048,1,4,0:0:0:0:
168,352,344418,5,2,0:0:0:0:
204,360,344607,1,0,0:0:0:0:
240,360,344797,1,0,0:0:0:0:
308,328,345177,1,0,0:0:0:0:
380,348,345557,1,0,0:0:0:0:
448,312,345936,5,2,0:1:0:0:
448,312,346757,1,2,0:0:0:0:
440,236,347168,1,0,0:0:0:0:
380,200,347579,5,2,0:0:0:0:
312,228,348020,1,0,0:0:0:0:
244,200,348461,1,2,0:0:0:0:
236,124,348902,1,0,0:0:0:0:
300,78,349381,6,0,P|306:152|311:227,1,150,2|2,0:0|0:0,0:0:0:0:
176,288,351145,5,2,0:1:0:0:
112,248,351586,1,0,0:0:0:0:
112,176,352060,5,2,0:0:0:0:
176,140,352543,1,2,0:0:0:0:
260,216,353186,6,0,L|260:232,5,12.5,2|2|2|0|0|0,0:1|0:0|0:0|0:0|0:0|0:0,0:0:0:0:
256,192,353614,12,0,360900,0:0:0:0:
