osu file format v5

[General]
AudioFilename: 03 Ziltoidia Attaxx!!!.mp3
AudioLeadIn: 0
PreviewTime: 26335
Countdown: 1
SampleSet: Normal
StackLeniency: 0.7
Mode: 0
LetterboxInBreaks: 0
EditorBookmarks: 13006,49006,53006,82004,93004,111004,119671,140671,146337,165004,169837,201004

[Metadata]
Title:Ziltoidia Attaxx!!!
Artist:Devin Townsend
Creator:awp
Version:Medium
Source:
Tags:

[Difficulty]
HPDrainRate:5
CircleSize:5
OverallDifficulty:6
SliderMultiplier:1.8
SliderTickRate:1

[Events]
//Background and Video events
0,0,"bg.jpg"
//Break Periods
2,49122,51686
2,82204,91684
2,111037,118351
2,140871,145017
2,165204,168517
//Storyboard Layer 0 (Background)
//Storyboard Layer 1 (Failing)
//Storyboard Layer 2 (Passing)
//Storyboard Layer 3 (Foreground)
//Storyboard Sound Samples
//Background Colour Transformations
3,100,163,162,255

[TimingPoints]
2336,333.333333333333,4,1,0,100,1,0

[HitObjects]
392,144,13002,2,0,B|320:80|208:80,1,180
80,88,13669,1,0
80,232,14002,1,0
200,312,14336,2,0,B|312:328|360:232,2,180
248,176,15335,1,0
168,56,15669,6,0,L|96:56,3,60,0|0|0|8
248,56,16335,1,0
392,56,16669,1,0
256,192,17002,6,0,L|352:192,3,60,0|0|0|8
168,192,17669,1,8
24,192,18002,1,8
128,304,18335,6,0,B|272:280|256:128,1,180,0|0
256,56,19002,1,0
328,160,19335,1,0
343,303,19669,2,0,B|349:375|456:367|448:184,1,180,0|0
416,96,20335,2,0,B|488:56|512:128|456:208,1,180
312,192,21002,6,0,B|208:160,3,60,0|0|0|8
112,136,21669,1,0
112,280,22002,1,0
256,288,22335,6,0,B|464:288,1,180
440,144,23002,2,0,B|256:144,1,180
112,128,23669,6,0,B|112:248,3,60
40,312,24335,1,2
184,312,24669,1,2
320,272,25002,6,0,B|320:152,3,60
392,88,25668,1,2
248,88,26002,1,2
144,192,26335,6,0,B|224:192,3,60,0|0|0|0
344,192,27002,1,2
204,192,27335,1,2
256,192,27669,12,0,28669
368,80,29002,5,0
240,144,29335,1,0
184,64,29558,1,0
96,176,29891,1,0
64,312,30224,2,0,B|256:312,1,180
400,192,31669,6,0,B|400:72|200:64,1,180
192,72,32224,1,0
80,160,32558,1,0
184,256,32891,1,0
72,304,34335,6,0,B|72:216|160:200|184:144,1,180
224,80,34891,1,0
368,88,35224,1,0
456,200,35558,1,0
384,320,35891,1,0
264,240,36224,1,0
144,160,36558,2,0,B|72:112,1,60
16,72,36891,1,0
208,64,37335,2,0,B|288:40|360:64|368:152|320:208|200:184|224:104|288:104,1,300
261,110,38224,1,0
256,192,39669,12,0,41002
256,192,42336,12,4,43669
88,72,45002,6,0,L|88:272,1,180
88,317,45558,1,8
88,317,45891,1,8
424,312,46336,2,0,L|424:96,1,180
424,67,46891,1,8
424,67,47224,1,8
256,56,47669,5,0
256,56,47891,1,0
256,56,48002,1,0
256,152,48224,5,2
176,272,48558,5,2
320,272,48891,5,2
64,40,53002,6,0,B|208:40|32:224|232:232|232:232|280:232,1,300
368,312,53891,5,0
368,168,54224,1,0
256,72,54558,1,4
152,168,54891,1,4
152,312,55224,1,4
256,40,55669,5,0
144,40,56002,1,0
200,120,56224,1,0
136,248,56558,1,0
272,248,56891,1,0
448,256,58335,6,0,B|408:96|312:264|192:112,1,300
80,56,59224,2,0,B|192:112|80:200,1,180
88,192,59891,2,0,B|-32:264|81:343,1,180
256,288,60669,1,0
256,288,60891,2,0,L|80:288|232:136|48:136,1,540
200,56,62224,1,0
256,192,63669,12,0,64669
256,192,65002,12,0,66002
256,192,66335,5,0
256,96,66558,1,0
256,96,66669,1,0
352,96,66891,1,0
456,192,67224,1,0
352,296,67558,2,2,L|160:296,2,180,2|0|2
352,296,68335,1,2
256,192,69002,12,0,70002
256,192,70335,12,0,71335
256,224,71558,5,0
376,256,72002,2,0,L|376:96,1,120
256,288,72669,2,0,L|256:120,1,120
152,64,73224,2,0,L|152:264,1,180,0|0
256,192,74335,12,0,75335
256,192,75669,12,0,76669
88,192,77002,5,0
88,192,77224,1,0
312,192,77669,1,0
312,192,77891,1,0
104,112,78335,2,0,L|256:112,1,120
224,112,78669,1,0
320,112,78891,1,0
464,112,79224,1,0
256,192,79669,12,0,80669
256,192,81002,12,0,82002
80,88,93002,6,0,L|272:88,1,180
352,88,93558,1,0
416,216,93891,1,0
272,248,94224,2,2,L|88:248,1,180,2|2
136,64,95002,2,8,B|64:64,3,60
176,168,95669,6,0,L|368:168,1,180,0|0
352,264,96224,1,0
208,248,96558,1,0
64,216,96891,1,0
248,40,98335,5,0
144,144,98669,1,0
232,184,98891,1,0
96,240,99224,2,0,B|248:344,1,180
399,249,99891,2,0,B|244:341,1,180
244,161,100558,2,0,B|244:344,1,180
244,161,101224,1,0
152,48,101558,2,0,B|240:8|360:56,1,180
256,192,102169,12,0,103335
56,88,103669,6,0,L|112:88|56:144|120:144,1,180
56,88,104224,5,0
56,88,104558,1,0
200,88,104891,1,8
344,88,105224,1,8
80,312,106335,6,0,L|80:128,1,180
152,64,106891,1,0
232,184,107224,1,0
256,192,107558,12,8,108669
256,192,109002,6,0,L|256:64,1,120
256,72,109335,1,0
160,72,109558,1,0
64,176,109891,1,0
64,320,110224,1,2
208,320,110558,2,0,B|328:312|328:168,1,180,2|2
256,192,119669,12,4,124335
80,304,125002,6,0,L|152:264|72:240|144:216|64:176|120:144,1,360
144,32,126002,1,0
216,160,126335,1,0
360,168,126669,1,0
352,320,127002,2,0,B|440:256|352:160,1,180
280,56,127669,6,0,L|208:80|272:104|200:128|272:168|216:192,1,360
96,264,128669,1,0
216,344,129002,1,0
336,264,129335,1,0
384,128,129669,2,0,L|424:72,5,60
256,192,130502,12,0,135669
40,56,136335,6,0,B|40:128,3,60
176,56,137002,5,0
320,56,137335,5,0
472,56,137669,6,0,B|472:128,3,60,0|0|0|0
320,120,138335,5,0
176,120,138669,5,0
48,120,139002,6,0,B|48:184,3,60
176,184,139669,5,0
320,184,140002,5,0
464,184,140335,6,2,B|464:256,3,60
256,192,146335,12,0,147335
256,192,147669,12,0,148669
256,192,149002,5,0
256,96,149225,1,0
256,96,149336,1,0
160,96,149558,1,0
56,192,149891,1,0
160,296,150225,2,0,L|352:296,2,180,0|0|0
160,296,151002,1,0
256,192,151669,12,0,152669
256,192,153002,12,0,154002
256,224,154225,5,0
376,256,154669,2,0,L|376:96,1,120
256,288,155336,2,0,L|256:120,1,120
152,64,155891,2,0,L|152:264,1,180,0|0
256,192,157002,12,0,158002
256,192,158335,12,0,159335
424,192,159669,5,0
424,192,159891,1,0
200,192,160336,1,0
200,192,160558,1,0
408,272,161002,2,0,L|256:272,1,120
288,272,161336,1,0
192,272,161558,1,0
48,272,161891,1,0
256,192,162335,12,0,163335
256,192,163669,12,4,165002
392,192,169891,6,0,B|392:80|296:40,1,180
307,45,170335,1,2
208,40,170558,1,2
120,152,170891,1,0
120,152,171002,1,2
200,200,171224,1,2
328,264,171558,1,0
328,264,171669,1,2
256,328,171891,1,2
120,280,172224,1,0
120,280,172335,1,2
48,344,172558,1,2
256,192,173002,12,0,175335
376,360,175669,6,0,L|376:168,1,180
376,88,176225,1,0
248,24,176558,1,0
216,168,176891,2,8,L|216:352,1,180,8|8
400,304,177669,2,0,B|400:376,3,60
296,264,178336,6,0,L|296:72,1,180,0|0
200,88,178891,1,0
216,232,179225,1,0
280,360,179558,1,0
424,192,181002,5,0
320,296,181336,1,0
280,208,181558,1,0
224,344,181891,2,0,B|120:192,1,180
215,41,182558,2,0,B|123:196,1,180
303,196,183225,2,0,B|120:196,1,180
303,196,183891,1,2
416,288,184225,2,2,B|456:200|408:80,1,180
256,192,184836,12,4,186002
368,104,186336,6,0,L|312:104|368:160|304:160,1,180
368,104,186891,5,0
368,104,187225,1,0
216,184,187558,1,0
216,40,187891,1,0
120,328,189002,6,0,L|304:328,1,180
368,256,189558,1,0
248,176,189891,1,0
256,192,190225,12,0,191336
272,152,191669,6,0,L|400:152,1,120
392,152,192002,1,0
392,248,192225,1,0
288,344,192558,1,0
144,344,192891,1,0
144,200,193225,2,0,B|152:80|296:80,1,180
352,192,193891,6,0,B|336:264|264:272|200:232,1,180
72,184,194558,1,0
216,176,194891,1,0
232,32,195224,1,0
56,56,195669,6,2,L|168:56|48:152|160:152,1,360
256,104,196669,5,8
352,56,197002,6,2,L|464:56|344:152|456:152,1,360
256,104,198002,5,8
256,192,198335,12,4,201002
