osu file format v5

[General]
AudioFilename: 03 Ziltoidia Attaxx!!!.mp3
AudioLeadIn: 0
PreviewTime: 26335
Countdown: 1
SampleSet: Normal
StackLeniency: 0.7
Mode: 0
LetterboxInBreaks: 0
EditorBookmarks: 13006,49006,53006,82004,93004,111004,119671,140671,146337,165004,169837,201004

[Metadata]
Title:Ziltoidia Attaxx!!!
Artist:Devin Townsend
Creator:awp
Version:Bold
Source:
Tags:

[Difficulty]
HPDrainRate:6
CircleSize:6
OverallDifficulty:8
SliderMultiplier:2.1
SliderTickRate:1

[Events]
//Background and Video events
0,0,"bg.jpg"
//Break Periods
2,49122,51686
2,82204,91684
2,111037,118351
2,140871,145017
2,165204,168517
//Storyboard Layer 0 (Background)
//Storyboard Layer 1 (Failing)
//Storyboard Layer 2 (Passing)
//Storyboard Layer 3 (Foreground)
//Storyboard Sound Samples
//Background Colour Transformations
3,100,163,162,255

[TimingPoints]
2336,333.333333333333,4,1,0,100,1,0

[HitObjects]
112,104,13002,1,0
112,104,13113,1,0
112,104,13224,1,0
112,104,13335,1,0
112,272,13558,2,8,B|112:344,1,70
264,272,13891,2,8,B|264:352,1,70
416,272,14224,1,0
416,272,14335,2,0,B|416:192,1,70
416,202,14558,2,0,B|416:120,1,70
272,40,14891,1,8
272,96,15002,1,8
112,40,15224,1,8
112,96,15335,1,8
192,336,15669,6,0,B|192:264,3,70
192,16,16335,6,0,B|192:96,3,70
48,296,17002,5,0
112,296,17113,1,0
176,296,17224,1,0
240,296,17335,1,0
400,136,17669,2,2,B|160:136,1,210
248,272,18335,5,0
248,272,18446,1,0
248,272,18557,1,0
248,272,18668,1,0
400,272,18891,2,8,B|400:344,1,70
248,272,19224,2,8,B|248:352,1,70
96,272,19557,1,0
96,272,19668,2,0,B|96:192,1,70
96,202,19891,2,0,B|96:120,1,70
240,40,20224,1,8
240,96,20335,1,8
400,40,20557,1,8
400,96,20668,1,8
320,336,21002,6,0,B|320:264,3,70
320,16,21668,6,0,B|320:96,3,70
464,296,22335,5,0
400,296,22446,1,0
336,296,22557,1,0
272,296,22668,1,0
112,136,23002,2,2,B|352:136,1,210
120,200,23669,6,0,B|48:200,2,70
120,200,24002,2,0,B|208:296|304:192,2,210
392,184,25002,6,0,B|464:184,2,70
392,184,25335,2,0,B|304:88|208:192,2,210
256,344,26335,5,0
256,344,26447,1,0
256,344,26558,1,0
256,344,26669,1,0
256,72,27002,1,0
256,344,27335,1,0
256,192,27669,12,8,28669
96,72,29002,6,0,L|152:72|96:144|160:144,1,210
280,72,29558,1,0
488,72,29891,1,0
448,280,30224,2,0,L|208:280,1,210
72,192,31002,5,0
72,192,31113,1,0
72,192,31224,1,0
72,192,31335,1,4
400,192,31669,6,0,B|400:72|200:64,1,210
112,64,32224,1,0
112,272,32558,1,0
320,272,32891,1,0
320,272,33002,2,0,L|240:272,2,70
320,272,33335,1,8
320,128,33558,1,0
320,128,33669,2,0,L|400:128,2,70
320,128,34002,1,8
256,328,34335,5,0
96,192,34669,1,0
192,88,34891,1,0
400,88,35224,1,0
288,264,35558,2,0,L|64:264,2,210,0|0|0
104,152,36558,2,0,B|200:152,1,70,0|0
312,152,36891,1,0
32,192,37335,6,0,L|32:336,1,140
480,264,37891,2,0,L|480:48,1,210
408,56,38335,6,0,L|408:128,3,70
288,56,38891,1,0
288,56,39002,2,0,L|288:144,3,70
256,192,39669,12,4,41002
256,192,41224,5,0
256,192,41335,1,0
256,192,41558,1,0
256,192,41669,1,0
256,192,41891,1,0
256,192,42002,1,0
256,192,42336,12,4,43669
256,192,43891,5,0
256,192,44002,1,0
256,192,44224,1,0
256,192,44335,1,0
256,192,44558,1,0
256,192,44669,1,0
112,192,44891,5,0
112,192,45002,1,0
208,288,45224,1,0
208,288,45335,1,0
344,288,45558,2,2,L|344:72,1,210
248,48,46224,5,0
248,48,46335,1,0
240,184,46557,1,0
240,184,46668,1,0
344,280,46891,2,2,L|128:280,1,210
56,80,47558,6,0,L|112:136,1,70
48,256,47891,2,0,L|104:312,1,70
184,192,48224,2,0,L|256:112|320:192,2,210,4|4|4
64,40,53002,6,0,L|176:40|64:136|176:136,1,350
360,136,53891,1,0
256,320,54224,1,0
256,72,54558,1,2
256,320,54891,1,2
256,72,55224,1,2
200,344,55669,5,0
408,344,56002,1,0
408,216,56224,1,0
200,208,56558,1,0
288,32,56891,1,0
448,256,58335,6,0,B|416:104|336:264|296:112,1,210
192,56,58891,2,0,B|64:144|192:216,1,210
376,112,59558,2,0,B|504:200|376:272,1,210,0|0
184,344,60224,1,0
192,88,60669,5,0
120,192,60891,1,0
304,280,61335,1,0
368,176,61558,1,0
176,152,61891,1,0
344,232,62224,1,0
256,192,63669,12,4,64669
256,192,65002,12,4,66002
256,192,66224,5,0
256,192,66335,1,0
256,64,66558,1,0
256,64,66669,1,0
360,136,66891,2,0,L|512:288,1,210,0|0
328,336,67558,2,0,L|104:224,1,210
144,72,68224,1,0
144,72,68335,1,0
256,192,68669,5,8
256,192,69002,12,4,70002
256,192,70335,12,0,71335
256,224,71558,5,0
376,256,71891,1,0
376,256,72002,2,0,L|376:80,1,140
256,288,72558,1,0
256,288,72669,2,0,L|256:96,1,140
152,64,73224,2,0,L|152:296,1,210,0|0
256,192,74335,12,4,75335
256,192,75669,12,4,76669
88,192,76891,5,0
88,192,77002,1,0
88,192,77224,1,0
424,192,77558,5,0
424,192,77669,1,0
424,192,77891,1,0
256,104,78224,5,0
256,104,78335,2,0,L|368:192,1,140
366,190,78669,2,0,L|256:280,1,140
88,192,79224,1,0
256,192,79669,12,4,80669
256,192,81002,12,4,82002
80,88,93002,6,0,L|304:88,1,210
416,88,93558,1,0
360,264,93891,2,0,L|136:264,2,210,0|0|0
136,64,95002,2,8,B|64:64,3,70
56,256,95669,6,0,L|272:256,1,210,0|0
392,256,96224,1,0
224,168,96558,1,0
64,64,96891,1,0
128,64,97002,5,0
128,64,97113,1,0
128,64,97224,1,0
128,64,97335,2,0,L|344:64,2,210
40,232,98335,5,0
144,144,98669,1,0
232,184,98891,1,0
96,240,99224,2,0,B|280:368,1,210
443,243,99891,2,0,L|268:359,1,210
80,360,100558,5,0
256,288,100891,1,0
256,96,101224,1,0
88,16,101558,1,0
160,192,101891,1,0
256,192,102169,12,8,103335
56,88,103669,6,0,L|112:88|48:152|128:152,1,210
56,88,104224,5,0
120,264,104558,1,0
200,88,104891,1,0
256,264,105224,1,0
408,64,105669,5,0
408,64,105780,1,0
408,64,105891,1,0
408,128,106002,5,0
408,128,106113,1,0
408,128,106224,1,0
408,184,106335,6,0,L|344:282|296:192,1,210
256,80,106891,1,0
104,192,107224,1,0
256,192,107558,12,0,108669
256,192,109002,6,0,L|256:48,1,140
256,52,109335,2,0,L|96:112,1,140
40,272,109891,1,0
216,344,110224,1,0
400,312,110558,2,0,B|392:192|248:192,1,210,0|0
256,192,119669,12,0,124335
256,88,125002,6,2,L|328:88|328:160|400:160|400:224|328:224|328:296,1,420
144,32,126002,1,0
216,160,126335,1,0
216,160,126447,1,0
216,160,126558,1,0
216,160,126669,1,0
352,320,127002,2,8,B|424:280|424:192|368:128,1,210
208,48,127669,5,0
208,48,127780,1,0
208,48,127891,1,0
208,48,128002,1,0
48,152,128335,2,8,B|120:264|200:152|256:184,1,210
216,344,129002,6,0,B|296:344,1,70
286,344,129224,2,0,B|360:344,1,70
356,344,129447,2,0,B|356:272,1,70
356,274,129669,2,0,B|142:274,2,210,0|0|4
256,192,130502,12,0,135669
40,56,136335,6,8,B|40:128,3,70
176,56,137002,5,0
232,56,137113,1,0
288,56,137224,1,0
344,56,137335,1,0
472,56,137669,6,8,B|472:128,3,70,8|8|8|8
344,128,138335,5,0
288,128,138446,1,0
232,128,138557,1,0
176,128,138668,1,0
48,128,139002,6,8,B|48:200,3,70
176,192,139669,5,0
232,192,139780,1,0
288,192,139891,1,0
344,192,140002,1,0
464,184,140335,6,8,B|464:256,3,70,8|8|8|12
176,128,146335,6,0,B|176:168,18,35
256,192,147669,12,0,148669
256,192,149002,5,0
256,80,149225,1,0
256,80,149336,1,0
144,80,149558,1,0
144,248,149891,1,0
256,368,150225,2,0,L|40:368,2,210,0|0|0
256,368,151002,1,0
256,224,151335,5,8
256,56,151669,6,0,B|256:104,18,35
256,192,153002,12,0,154002
256,224,154225,5,0
376,256,154558,1,0
376,256,154669,2,0,L|376:88,1,140
256,288,155224,1,0
256,288,155336,2,0,L|256:104,1,140
152,64,155891,2,0,L|152:296,1,210,0|0
256,144,156558,5,0
256,144,156669,5,8
256,192,157002,12,0,158002
256,192,158335,12,0,159335
424,192,159558,5,0
424,192,159669,1,0
424,192,159891,1,0
256,152,160224,1,0
256,152,160336,1,0
256,152,160558,1,0
88,192,160891,5,0
88,192,161002,2,0,L|88:296|136:296,1,140
124,296,161335,1,0
232,296,161558,1,0
400,296,161891,1,0
256,192,162335,12,0,163335
256,32,163669,5,0
160,88,163891,1,0
256,144,164113,1,0
352,192,164335,5,0
256,248,164558,1,0
160,304,164780,1,0
256,352,165002,5,4
392,216,169891,6,0,B|392:80|296:40,1,210
299,41,170335,1,8
184,40,170558,1,8
120,192,170891,1,0
120,192,171002,1,8
232,192,171224,1,8
352,304,171558,1,0
352,304,171669,1,8
240,304,171891,1,8
176,144,172224,1,0
176,144,172335,1,8
288,144,172558,1,8
256,192,173002,12,4,175335
376,360,175669,6,0,L|376:136,1,210
376,88,176225,1,0
248,24,176558,1,0
216,168,176891,2,0,L|216:392,1,210,0|0
216,378,177335,1,0
400,304,177669,2,8,B|400:376,3,70
296,264,178336,6,0,L|352:184|296:80,1,210,0|0
184,64,178891,1,0
40,144,179225,1,0
128,280,179558,1,0
184,280,179669,5,0
184,280,179780,1,0
184,280,179891,1,0
184,280,180002,1,0
352,280,180335,2,0,L|280:280,2,70
352,224,180669,2,0,L|424:224,2,70
352,168,181002,5,0
184,168,181336,1,0
296,168,181558,1,0
213,341,181891,2,2,B|64:192,1,210
209,40,182558,2,2,B|64:192,1,210
274,192,183225,2,0,B|64:192,2,210
416,288,184225,2,0,B|472:200|408:80,1,210
256,192,184836,12,8,186002
368,104,186336,6,0,L|312:104|376:168|304:168,1,210
368,104,186891,5,0
368,272,187225,1,0
216,192,187558,2,0,L|160:136|120:176|176:232,1,210
172,228,188002,1,0
296,344,188335,6,0,L|368:344,1,70
366,344,188558,1,0
368,288,188669,2,0,L|288:288,1,70
298,288,188891,1,0
296,232,189002,6,0,L|296:16,1,210
184,24,189558,1,0
16,24,189891,1,0
256,192,190225,12,8,191336
272,152,191558,5,0
272,152,191669,2,0,L|424:152,1,140
412,152,192002,2,0,L|412:300,1,140
256,352,192558,1,0
104,288,192891,1,0
112,120,193225,2,0,B|240:120|240:264,2,210
184,32,194224,6,0,B|312:32|312:176,2,210,0|0|0
256,192,195224,1,0
40,56,195669,6,2,L|152:56|40:184|192:184,1,420,2|8
232,216,196447,5,8
232,168,196558,1,8
232,120,196669,1,8
232,72,196780,1,8
232,24,196891,1,8
296,56,197002,6,2,L|408:56|296:184|440:184,1,420,2|8
256,272,198002,5,8
256,272,198113,1,8
256,272,198224,1,8
256,272,198335,1,8
256,192,198447,12,4,201002
