osu file format v14

[General]
AudioFilename: P.mp3
AudioLeadIn: 0
PreviewTime: 80328
Countdown: 0
SampleSet: Soft
StackLeniency: 0.7
Mode: 0
LetterboxInBreaks: 0
WidescreenStoryboard: 0

[Editor]
DistanceSpacing: 1
BeatDivisor: 4
GridSize: 4
TimelineZoom: 1.5

[Metadata]
Title:Yume Maboroshi
TitleUnicode:夢幻
Artist:DevilishP feat.GUMI
ArtistUnicode:ダルビッシュP feat.GUMI
Creator:Natsu
Version:Fantasy
Source:
Tags:GUMI kamishaku NETERO beriko Arisaka Ako Mie no Hito vocaloid megpoid -_t_e_n_n_y_a_- 10nya Mao Desperate-kun Xinely Fantasy
BeatmapID:722674
BeatmapSetID:325340

[Difficulty]
HPDrainRate:7
CircleSize:4
OverallDifficulty:9
ApproachRate:9
SliderMultiplier:1.7
SliderTickRate:1

[Events]
//Background and Video events
0,0,"NowCgzu.jpg",0,0
//Break Periods
2,185133,201386
//Storyboard Layer 0 (Background)
//Storyboard Layer 1 (Fail)
//Storyboard Layer 2 (Pass)
//Storyboard Layer 3 (Foreground)
//Storyboard Sound Samples

[TimingPoints]
20723,315.789473684211,4,2,1,60,1,0
40932,-111.111111111111,4,2,1,55,0,0
61143,-100,4,2,1,50,0,0
80407,-100,4,2,0,50,0,0
81354,-90.9090909090909,4,2,1,60,0,1
101565,-111.111111111111,4,2,1,55,0,0
121776,-111.111111111111,4,2,1,60,0,0
136933,-100,4,2,1,55,0,0
141986,-90.9090909090909,4,2,1,60,0,1
162196,-90.9090909090909,4,2,1,60,0,0
184933,-125,4,2,1,30,0,0
201986,-100,4,2,1,60,0,0
226933,-100,4,2,0,60,0,0
227880,-90.9090909090909,4,2,1,60,0,1
237986,-125,4,2,1,60,0,0
238301,-90.9090909090909,4,2,1,60,0,1
248091,-100,4,2,1,60,0,0
248170,-100,4,2,1,25,0,0

[Colours]
Combo1 : 255,72,164
Combo2 : 0,159,80
Combo3 : 0,96,191

[HitObjects]
180,280,20722,6,0,B|136:326|136:326|108:324,2,85,6|0|8,0:0|0:0|0:0,0:0:0:0:
256,196,21196,1,0,0:0:0:0:
332,104,21354,2,0,B|375:57|375:57|404:60,2,85,2|0|8,0:0|0:0|0:0,0:0:0:0:
256,196,21828,1,0,0:0:0:0:
332,280,21986,6,0,B|375:326|375:326|404:324,2,85,2|0|8,0:0|0:0|0:0,0:0:0:0:
256,196,22459,1,0,0:0:0:0:
180,104,22617,2,0,B|136:57|136:57|108:60,2,85,2|0|8,0:0|0:0|0:0,0:0:0:0:
256,196,23091,1,0,0:0:0:0:
355,360,23249,5,2,0:0:0:0:
223,328,23407,1,0,0:0:0:0:
256,196,23565,1,8,0:0:0:0:
387,228,23723,1,0,0:0:0:0:
223,328,23880,2,0,P|180:340|140:328,1,85,2|0,0:0|0:0,0:0:0:0:
387,228,24196,2,0,P|430:216|470:228,1,85,8|0,0:0|0:0,0:0:0:0:
184,260,24512,6,0,P|172:217|184:177,2,85,2|0|8,0:0|0:0|0:0,0:0:0:0:
304,288,24986,1,0,0:0:0:0:
428,296,25144,2,0,P|438:336|426:376,2,85,2|0|8,0:0|0:0|0:0,0:0:0:0:
304,288,25617,1,0,0:0:0:0:
184,260,25775,6,0,B|168:200|168:200|172:176,1,85,6|0,0:0|0:0,0:0:0:0:
328,124,26091,2,0,B|344:184|344:184|340:208,1,85,8|0,0:0|0:0,0:0:0:0:
184,260,26407,2,0,P|144:276|92:268,1,85,2|0,0:0|0:0,0:0:0:0:
40,196,26723,1,8,0:0:0:0:
256,92,26880,6,0,B|264:148|264:148|244:192|244:192|256:268,1,170,2|0,0:0|0:0,0:0:0:0:
312,336,27354,2,0,P|352:344|400:328,1,85,8|0,0:0|0:0,0:0:0:0:
200,336,27670,2,0,P|160:328|112:344,1,85,2|0,0:0|0:0,0:0:0:0:
256,268,27986,2,0,L|256:184,1,85,8|0,0:0|0:0,0:0:0:0:
172,92,28301,6,0,B|136:80|136:80|84:88,2,85,2|0|8,0:0|0:0|0:0,0:0:0:0:
256,183,28775,1,0,0:0:0:0:
340,92,28933,2,0,B|376:80|376:80|428:88,2,85,2|0|8,0:0|0:0|0:0,0:0:0:0:
256,183,29407,1,0,0:0:0:0:
136,212,29565,5,2,0:0:0:0:
172,92,29723,1,4,0:0:0:0:
256,183,29880,2,0,P|296:192|340:180,1,85,8|0,0:0|0:0,0:0:0:0:
296,96,30196,1,2,0:0:0:0:
304,276,30354,1,0,0:0:0:0:
307,318,30432,1,0,0:0:0:0:
311,360,30511,1,8,0:0:0:0:
188,296,30670,1,0,0:0:0:0:
184,253,30748,1,0,0:0:0:0:
180,211,30828,6,0,P|136:200|88:212,2,85,6|0|8,0:0|0:0|0:0,0:0:0:0:
304,276,31301,1,0,0:0:0:0:
360,148,31459,2,0,P|394:118|443:108,2,85,2|0|8,0:0|0:0|0:0,0:0:0:0:
304,276,31933,1,0,0:0:0:0:
256,144,32091,6,0,L|228:48,1,85,2|0,0:0|0:0,0:0:0:0:
360,148,32407,2,0,L|388:244,1,85,8|0,0:0|0:0,0:0:0:0:
464,280,32723,1,2,0:0:0:0:
304,276,32880,1,0,0:0:0:0:
360,148,33038,2,0,P|400:128|448:132,1,85,8|0,0:0|0:0,0:0:0:0:
304,276,33354,6,0,P|264:296|216:292,1,85,2|0,0:0|0:0,0:0:0:0:
384,272,33670,2,0,P|375:315|339:349,1,85,8|0,0:0|0:0,0:0:0:0:
431,206,33986,2,0,P|458:241|462:289,1,85,2|0,0:0|0:0,0:0:0:0:
408,128,34301,2,0,P|452:129|492:158,1,85,8|8,0:0|0:0,0:0:0:0:
348,72,34617,6,0,P|388:52|436:56,1,85,2|0,0:0|0:0,0:0:0:0:
268,76,34933,2,0,P|276:32|312:-1,1,85,8|0,0:0|0:0,0:0:0:0:
221,142,35249,2,0,P|193:106|189:58,1,85,2|0,0:0|0:0,0:0:0:0:
244,220,35565,2,0,P|199:218|159:189,1,85,8|0,0:0|0:0,0:0:0:0:
268,76,35880,5,6,0:0:0:0:
356,24,36038,1,0,0:0:0:0:
359,123,36196,2,0,L|373:207,1,85,8|0,0:0|0:0,0:0:0:0:
257,303,36512,2,0,L|241:207,1,85,2|0,0:0|0:0,0:0:0:0:
112,148,36828,2,0,L|125:231,1,85,8|0,0:0|0:0,0:0:0:0:
132,380,37144,5,2,0:0:0:0:
257,303,37301,1,0,0:0:0:0:
125,231,37459,2,0,P|80:228|40:244,1,85,8|0,0:0|0:0,0:0:0:0:
257,303,37775,2,0,P|302:306|342:290,1,85,2|0,0:0|0:0,0:0:0:0:
276,144,38091,2,0,P|273:189|289:229,1,85,8|0,0:0|0:0,0:0:0:0:
376,176,38407,5,2,0:0:0:0:
184,228,38565,1,0,0:0:0:0:
378,191,38723,1,8,0:0:0:0:
180,212,38881,1,0,0:0:0:0:
180,212,38959,1,0,0:0:0:0:
180,212,39038,2,0,P|168:168|176:120,1,85,2|0,0:0|0:0,0:0:0:0:
256,48,39354,1,8,0:0:0:0:
339,129,39512,2,0,P|343:171|332:212,1,85,2|0,0:0|0:0,0:0:0:0:
256,320,39828,6,0,L|256:236,1,85,6|8,0:0|0:0,0:0:0:0:
172,129,40144,1,0,0:0:0:0:
339,129,40301,1,2,0:0:0:0:
180,212,40459,1,0,0:0:0:0:
138,208,40537,1,0,0:0:0:0:
106,181,40616,1,8,0:0:0:0:
328,56,40775,1,0,0:0:0:0:
369,59,40853,1,0,0:0:0:0:
401,86,40933,6,0,L|420:184,1,76.4999976654053,6|0,0:0|0:0,0:0:0:0:
440,292,41249,1,8,0:0:0:0:
344,224,41407,2,0,P|308:216|264:228,1,76.4999976654053,2|0,0:0|0:0,0:0:0:0:
212,300,41723,1,0,0:0:0:0:
212,300,41880,1,8,0:0:0:0:
344,224,42038,6,0,L|364:120,1,76.4999976654053,2|0,0:0|0:0,0:0:0:0:
376,40,42354,1,0,0:0:0:0:
272,120,42512,2,0,P|212:140|136:92,1,152.999995330811,8|0,0:0|0:0,0:0:0:0:
216,36,42986,1,2,0:0:0:0:
216,36,43144,1,8,0:0:0:0:
212,300,43459,6,0,P|172:308|124:292,1,76.4999976654053,2|0,0:0|0:0,0:0:0:0:
60,236,43775,1,8,0:0:0:0:
176,208,43933,2,0,P|216:200|264:216,1,76.4999976654053
332,264,44249,1,0,0:0:0:0:
332,264,44407,1,8,0:0:0:0:
176,207,44565,2,0,P|135:145|157:74,1,152.999995330811,2|0,0:0|0:0,0:0:0:0:
232,132,45038,1,8,0:0:0:0:
232,132,45196,1,0,0:0:0:0:
328,248,45354,6,0,L|384:304,1,76.4999976654053,2|0,0:0|0:0,0:0:0:0:
256,296,45670,2,0,L|256:392,1,76.4999976654053,8|0,0:0|0:0,0:0:0:0:
184,248,45986,2,0,L|128:304,1,76.4999976654053,6|0,0:0|0:0,0:0:0:0:
184,136,46301,2,0,L|128:80,1,76.4999976654053,8|0,0:0|0:0,0:0:0:0:
256,88,46617,2,0,L|256:-8,1,76.4999976654053,2|0,0:0|0:0,0:0:0:0:
328,136,46933,2,0,L|384:80,1,76.4999976654053,8|0,0:0|0:0,0:0:0:0:
356,212,47249,6,0,P|312:216|268:188,1,76.4999976654053,2|0,0:0|0:0,0:0:0:0:
156,68,47565,2,0,P|200:64|244:92,1,76.4999976654053,8|0,0:0|0:0,0:0:0:0:
328,136,47880,1,2,0:0:0:0:
328,136,48038,1,0,0:0:0:0:
356,316,48196,6,0,P|320:328|272:316,1,76.4999976654053,8|0,0:0|0:0,0:0:0:0:
160,208,48512,2,0,P|196:196|244:208,1,76.4999976654053,2|0,0:0|0:0,0:0:0:0:
312,252,48828,1,8,0:0:0:0:
160,208,48986,2,0,L|148:120,2,76.4999976654053,2|0|0,0:0|0:0|0:0,0:0:0:0:
184,308,49459,1,8,0:0:0:0:
256,192,49617,6,0,B|288:136|256:84|256:84|300:92,1,152.999995330811,2|0,0:0|0:0,0:0:0:0:
380,144,50091,2,0,P|416:140|464:152,2,76.4999976654053,8|0|0,0:0|0:0|0:0,0:0:0:0:
188,136,50565,1,0,0:0:0:0:
150,137,50643,1,0,0:0:0:0:
115,122,50722,1,8,0:0:0:0:
256,84,50880,1,0,0:0:0:0:
274,116,50958,1,0,0:0:0:0:
275,154,51038,6,0,L|260:252,1,76.4999976654053,6|0,0:0|0:0,0:0:0:0:
248,328,51354,1,8,0:0:0:0:
376,204,51512,2,0,L|361:302,1,76.4999976654053,2|0,0:0|0:0,0:0:0:0:
349,378,51828,1,0,0:0:0:0:
349,378,51986,1,8,0:0:0:0:
484,172,52144,6,0,L|469:270,1,76.4999976654053,2|0,0:0|0:0,0:0:0:0:
457,346,52459,1,0,0:0:0:0:
349,378,52617,1,8,0:0:0:0:
349,378,52696,1,0,0:0:0:0:
349,378,52775,1,0,0:0:0:0:
248,328,52933,2,0,L|232:224,1,76.4999976654053,2|0,0:0|0:0,0:0:0:0:
152,200,53249,1,8,0:0:0:0:
152,200,53328,1,0,0:0:0:0:
152,200,53407,1,0,0:0:0:0:
320,256,53565,6,0,P|356:264|404:244,1,76.4999976654053,2|0,0:0|0:0,0:0:0:0:
500,192,53880,1,8,0:0:0:0:
393,131,54038,2,0,P|356:120|320:128,1,76.4999976654053,2|0,0:0|0:0,0:0:0:0:
224,192,54354,1,0,0:0:0:0:
224,192,54512,1,8,0:0:0:0:
164,288,54670,2,0,P|127:295|90:284,2,76.4999976654053,2|0|0,0:0|0:0|0:0,0:0:0:0:
224,192,55144,1,8,0:0:0:0:
224,192,55301,1,0,0:0:0:0:
336,80,55459,6,0,L|436:64,1,76.4999976654053,2|0,0:0|0:0,0:0:0:0:
176,80,55775,2,0,L|76:96,1,76.4999976654053,8|0,0:0|0:0,0:0:0:0:
256,136,56091,2,0,B|268:184|268:184|244:232|244:232|256:280,1,152.999995330811,6|8,0:0|0:0,0:0:0:0:
388,348,56565,2,0,P|424:356|468:340,2,76.4999976654053,2|0|0,0:0|0:0|0:0,0:0:0:0:
360,240,57038,1,8,0:0:0:0:
360,240,57196,1,0,0:0:0:0:
424,148,57354,6,0,P|432:108|420:60,1,76.4999976654053,2|0,0:0|0:0,0:0:0:0:
292,72,57670,2,0,P|285:109|293:146,1,76.4999976654053,8|0,0:0|0:0,0:0:0:0:
360,240,57986,1,2,0:0:0:0:
360,240,58144,1,0,0:0:0:0:
176,244,58301,6,0,L|96:256,1,76.4999976654053,8|0,0:0|0:0,0:0:0:0:
236,304,58617,2,0,P|260:236|212:164,1,152.999995330811,6|0,0:0|0:0,0:0:0:0:
80,120,59091,2,0,L|0:132,2,76.4999976654053,8|0|0,0:0|0:0|0:0,0:0:0:0:
221,170,59565,1,8,0:0:0:0:
80,194,59723,6,0,P|71:157|80:120,1,76.4999976654053,2|0,0:0|0:0,0:0:0:0:
168,28,60038,1,8,0:0:0:0:
221,170,60196,2,0,P|229:207|221:244,1,76.4999976654053,2|0,0:0|0:0,0:0:0:0:
128,288,60512,5,8,0:0:0:0:
221,170,60670,1,0,0:0:0:0:
257,158,60748,1,0,0:0:0:0:
295,162,60827,1,8,0:0:0:0:
328,180,60906,1,0,0:0:0:0:
352,209,60985,1,0,0:0:0:0:
363,246,61064,1,0,0:0:0:0:
380,284,61144,6,0,L|388:192,1,85,6|0,0:0|2:0,0:0:0:0:
256,24,61459,2,0,L|248:116,1,85,8|0,0:0|2:0,0:0:0:0:
260,319,61775,1,2,0:0:0:0:
260,319,61854,1,0,0:0:0:0:
260,319,61933,2,0,L|276:207,1,85
356,156,62249,1,0,0:0:0:0:
356,156,62328,1,0,0:0:0:0:
356,156,62407,1,2,0:0:0:0:
184,228,62565,5,0,0:0:0:0:
184,228,62723,2,0,L|172:140,1,85,8|0,0:0|0:0,0:0:0:0:
96,252,63038,1,8,0:0:0:0:
264,168,63196,1,0,0:0:0:0:
85,98,63354,1,8,0:0:0:0:
65,135,63432,1,0,0:0:0:0:
60,177,63511,1,0,0:0:0:0:
70,218,63590,1,0,0:0:0:0:
96,252,63670,6,0,L|184:264,1,85,6|0,0:0|2:0,0:0:0:0:
332,276,63986,1,8,0:0:0:0:
264,168,64144,1,0,0:0:0:0:
264,168,64301,1,8,0:0:0:0:
180,263,64459,2,0,P|168:304|176:352,1,85,2|0,0:0|0:0,0:0:0:0:
264,168,64775,6,0,P|276:127|268:79,1,85,8|0,0:0|0:0,0:0:0:0:
156,24,65091,1,2,0:0:0:0:
264,168,65249,2,0,P|306:168|350:147,1,85,8|0,0:0|0:0,0:0:0:0:
408,28,65565,1,0,0:0:0:0:
408,28,65723,1,0,0:0:0:0:
476,212,65880,6,0,P|484:252|476:296,1,85,8|0,0:0|2:0,0:0:0:0:
400,131,66196,2,0,P|392:91|400:47,1,85,6|0,0:0|2:0,0:0:0:0:
404,248,66512,1,8,0:0:0:0:
404,248,66670,2,0,P|364:256|320:248,1,85,2|8,0:0|0:0,0:0:0:0:
400,131,66986,2,0,P|440:123|484:131,1,85,2|8,0:0|0:0,0:0:0:0:
408,324,67301,1,0,0:0:0:0:
408,324,67459,6,0,P|368:332|324:324,1,85,2|0,0:0|0:0,0:0:0:0:
172,261,67775,2,0,B|160:195|160:195|168:176,1,85,8|0,0:0|0:0,0:0:0:0:
340,123,68091,2,0,B|351:188|351:188|344:208,1,85,2|0,0:0|0:0,0:0:0:0:
256,80,68407,1,8,0:0:0:0:
284,48,68485,1,0,0:0:0:0:
323,33,68564,1,0,0:0:0:0:
365,36,68643,1,0,0:0:0:0:
402,58,68723,6,0,B|432:164|432:164|456:180|504:156|444:124,1,170,6|8,0:0|0:0,0:0:0:0:
152,132,69354,2,0,L|64:124,1,85,2|0,0:0|0:0,0:0:0:0:
64,264,69670,2,0,L|152:256,1,85,8|0,0:0|0:0,0:0:0:0:
256,192,69986,5,2,0:0:0:0:
316,80,70144,1,0,0:0:0:0:
316,80,70223,1,0,0:0:0:0:
316,80,70301,2,0,P|356:72|400:84,1,85,8|0,0:0|0:0,0:0:0:0:
256,192,70617,1,2,0:0:0:0:
196,304,70775,1,0,0:0:0:0:
196,304,70854,1,0,0:0:0:0:
196,304,70933,2,0,P|156:312|112:300,1,85,8|0,0:0|0:0,0:0:0:0:
113,82,71249,6,0,P|154:72|196:80,1,85,6|0,0:0|2:0,0:0:0:0:
256,192,71565,1,8,0:0:0:0:
196,304,71723,1,0,0:0:0:0:
196,304,71880,1,2,0:0:0:0:
52,192,72038,2,0,P|92:181|134:189,1,85,8|0,0:0|2:0,0:0:0:0:
278,301,72354,6,0,P|238:312|196:304,1,85,2|0,0:0|0:0,0:0:0:0:
134,189,72670,2,0,L|132:88,1,85,0|8,0:0|0:0,0:0:0:0:
72,32,72986,1,0,0:0:0:0:
212,136,73144,2,0,P|248:144|304:124,1,85,2|0,0:0|0:0,0:0:0:0:
376,24,73459,1,8,1:0:0:0:
407,52,73537,1,0,1:0:0:0:
426,89,73616,1,0,1:0:0:0:
431,131,73695,1,0,1:0:0:0:
419,172,73775,6,0,B|404:184|404:184|332:160,1,85,6|0,0:0|2:0,0:0:0:0:
256,92,74091,1,8,0:0:0:0:
176,192,74249,2,0,P|168:232|180:280,2,85,2|0|8,0:0|0:0|0:0,0:0:0:0:
256,92,74723,1,8,0:0:0:0:
336,192,74880,2,0,P|344:232|332:280,1,85,2|0,0:0|0:0,0:0:0:0:
232,324,75196,5,2,0:0:0:0:
336,192,75354,2,0,L|420:184,1,85,8|0,0:0|0:0,0:0:0:0:
176,192,75670,2,0,L|92:200,1,85,2|0,0:0|0:0,0:0:0:0:
164,288,75986,1,8,0:0:0:0:
116,120,76144,1,0,0:0:0:0:
324,60,76301,6,0,P|368:120|352:212,1,170,6|8,0:0|0:0,0:0:0:0:
188,324,76775,2,0,P|144:264|160:172,1,170,2|0,0:0|0:0,0:0:0:0:
196,56,77249,1,2,0:0:0:0:
324,60,77407,2,0,P|368:56|400:24,2,85,8|0|0,0:0|0:0|0:0,0:0:0:0:
196,56,77880,6,0,L|176:152,1,85,8|0,0:0|0:0,0:0:0:0:
144,264,78196,1,2,0:0:0:0:
144,264,78354,1,0,0:0:0:0:
97,140,78512,2,0,P|137:128|181:140,1,85,8|0,0:0|0:0,0:0:0:0:
256,296,78828,5,12,0:0:0:0:
256,87,78986,1,8,0:0:0:0:
182,267,79144,1,8,0:0:0:0:
328,115,79302,1,8,0:0:0:0:
151,190,79459,1,8,0:0:0:0:
360,190,79617,1,8,0:0:0:0:
182,115,79775,1,8,0:0:0:0:
328,267,79933,1,8,0:0:0:0:
256,87,80091,1,8,0:0:0:0:
256,296,80249,1,8,0:0:0:0:
256,87,80407,5,2,2:2:0:0:
241,73,80723,1,2,2:2:0:0:
256,59,81038,1,2,2:2:0:0:
273,74,81354,6,0,P|299:117|295:178,1,93.5000028533936,6|0,0:0|2:0,0:0:0:0:
224,272,81670,1,8,0:0:0:0:
384,192,81828,1,0,0:0:0:0:
208,148,81986,2,0,L|96:160,1,93.5000028533936,2|0,0:0|2:0,0:0:0:0:
304,236,82301,5,8,0:0:0:0:
304,236,82459,2,0,L|416:224,1,93.5000028533936,2|0,0:0|2:0,0:0:0:0:
484,276,82775,1,0,0:0:0:0:
452,136,82933,1,8,0:0:0:0:
408,328,83091,1,0,0:0:0:0:
360,136,83249,2,0,P|360:88|344:36,1,93.5000028533936,2|0,0:0|0:0,0:0:0:0:
152,248,83565,6,0,P|152:296|168:348,1,93.5000028533936,8|0,0:0|2:0,0:0:0:0:
256,192,83880,2,0,P|256:144|240:92,1,93.5000028533936,2|0,0:0|2:0,0:0:0:0:
136,28,84196,1,8,0:0:0:0:
104,140,84354,1,0,0:0:0:0:
243,100,84512,2,0,P|288:84|340:88,1,93.5000028533936,2|0,0:0|2:0,0:0:0:0:
420,192,84828,1,8,0:0:0:0:
269,284,84986,6,0,P|224:300|172:296,1,93.5000028533936,2|0,0:0|2:0,0:0:0:0:
52,248,85301,1,0,0:0:0:0:
160,192,85459,1,8,0:0:0:0:
96,328,85617,1,0,0:0:0:0:
104,140,85775,2,0,P|96:92|108:36,1,93.5000028533936,2|0,0:0|0:0,0:0:0:0:
319,244,86091,6,0,P|363:256|415:240,1,93.5000028533936,8|0,0:0|2:0,0:0:0:0:
193,140,86407,2,0,P|149:128|97:144,1,93.5000028533936,6|0,0:0|2:0,0:0:0:0:
308,129,86723,1,8,0:0:0:0:
308,129,86880,2,0,P|320:85|304:33,1,93.5000028533936,2|0,0:0|0:0,0:0:0:0:
204,255,87196,2,0,P|192:299|208:351,1,93.5000028533936,0|8,0:0|0:0,0:0:0:0:
260,196,87512,6,0,P|224:176|168:184,1,93.5000028533936,2|0,0:0|2:0,0:0:0:0:
9,228,87828,1,0,0:0:0:0:
166,283,87986,1,8,0:0:0:0:
71,147,88144,1,0,0:0:0:0:
68,312,88301,2,0,B|36:384|36:384|24:356,1,93.5000028533936,2|0,0:0|0:0,0:0:0:0:
71,147,88617,6,0,B|103:75|103:75|115:103,1,93.5000028533936,8|0,0:0|0:0,0:0:0:0:
166,283,88933,2,0,P|224:332|336:308,1,187.000005706787,6|0,0:0|2:0,0:0:0:0:
346,101,89407,2,0,P|288:52|176:76,1,187.000005706787,2|0,0:0|2:0,0:0:0:0:
166,283,89880,1,8,0:0:0:0:
166,283,90038,2,0,P|232:246|250:133,1,187.000005706787,2|8,0:0|0:0,0:0:0:0:
64,24,90512,6,0,L|80:128,1,93.5000028533936,8|0,0:0|2:0,0:0:0:0:
168,176,90828,1,8,0:0:0:0:
92,256,90986,1,0,0:0:0:0:
49,275,91064,1,0,0:0:0:0:
3,271,91143,1,2,0:0:0:0:
78,116,91301,1,0,0:0:0:0:
120,96,91379,1,0,0:0:0:0:
166,100,91459,6,0,P|200:124|216:172,1,93.5000028533936,6|0,0:0|2:0,0:0:0:0:
168,304,91775,1,8,0:0:0:0:
72,204,91933,1,0,0:0:0:0:
215,171,92091,2,0,L|320:164,1,93.5000028533936,2|0,0:0|0:0,0:0:0:0:
448,44,92407,1,8,0:0:0:0:
448,44,92565,2,0,L|343:51,1,93.5000028533936,0|0,0:0|2:0,0:0:0:0:
215,171,92880,5,2,0:0:0:0:
168,304,93038,1,8,0:0:0:0:
72,204,93196,1,0,0:0:0:0:
215,171,93354,2,0,P|256:156|304:160,1,93.5000028533936,2|0,0:0|0:0,0:0:0:0:
280,348,93670,6,0,P|265:307|269:259,1,93.5000028533936,8|0,0:0|0:0,0:0:0:0:
392,108,93986,2,0,P|407:149|403:197,1,93.5000028533936,2|0,0:0|2:0,0:0:0:0:
280,348,94301,1,8,0:0:0:0:
168,304,94459,1,0,0:0:0:0:
104,200,94617,2,0,P|92:156|104:100,1,93.5000028533936,2|0,0:0|2:0,0:0:0:0:
192,40,94933,1,8,0:0:0:0:
296,148,95091,6,0,P|252:160|196:148,1,93.5000028533936,2|0,0:0|2:0,0:0:0:0:
112,56,95407,1,0,0:0:0:0:
17,152,95565,1,8,0:0:0:0:
112,247,95723,1,0,0:0:0:0:
205,152,95880,2,0,P|248:140|296:148,1,93.5000028533936,2|0,0:0|0:0,0:0:0:0:
380,320,96196,6,0,P|337:332|289:324,1,93.5000028533936,8|0,0:0|0:0,0:0:0:0:
205,152,96512,2,0,B|144:92|140:16|192:0|220:40|188:56,1,187.000005706787,6|8,0:0|0:0,0:0:0:0:
92,192,96986,2,0,P|52:216|0:208,2,93.5000028533936,2|0|0,0:0|0:0|0:0,0:0:0:0:
32,104,97459,1,8,0:0:0:0:
72,320,97617,2,0,B|150:344|219:312|209:259|160:253|162:284,1,187.000005706787,2|0,0:0|0:0,0:0:0:0:
296,344,98091,6,0,P|308:304|300:248,1,93.5000028533936,8|0,0:0|0:0,0:0:0:0:
216,40,98407,2,0,P|204:80|212:136,1,93.5000028533936,2|0,0:0|0:0,0:0:0:0:
301,253,98723,2,0,B|384:248|384:248|372:224,1,93.5000028533936,8|0,0:0|0:0,0:0:0:0:
211,131,99038,6,0,B|128:136|128:136|140:160,2,93.5000028533936,8|0|0,0:0|0:0|0:0,0:0:0:0:
301,253,99512,1,0,0:0:0:0:
129,235,99670,2,0,P|120:189|132:145,1,93.5000028533936,2|0,0:0|2:0,0:0:0:0:
256,48,99986,1,8,0:0:0:0:
379,144,100144,6,0,P|391:189|382:235,1,93.5000028533936,2|0,0:0|0:0,0:0:0:0:
212,188,100459,2,0,P|256:176|302:185,1,93.5000028533936,8|0,0:0|0:0,0:0:0:0:
260,352,100775,2,0,P|248:307|257:261,1,93.5000028533936,2|8,0:0|0:0,0:0:0:0:
304,96,101091,1,0,0:0:0:0:
339,66,101169,1,0,0:0:0:0:
385,58,101248,1,8,0:0:0:0:
428,73,101327,1,0,0:0:0:0:
458,108,101406,1,0,0:0:0:0:
467,154,101485,1,0,0:0:0:0:
453,198,101565,6,0,L|396:256,1,76.4999976654053,6|0,0:0|0:0,0:0:0:0:
320,316,101881,1,8,0:0:0:0:
304,169,102039,2,0,P|312:133|300:89,1,76.4999976654053,2|0,0:0|0:0,0:0:0:0:
220,20,102355,1,0,0:0:0:0:
220,20,102512,1,8,0:0:0:0:
268,240,102670,6,0,P|304:248|348:236,1,76.4999976654053,2|0,0:0|0:0,0:0:0:0:
400,156,102986,1,0,0:0:0:0:
220,164,103144,2,0,P|178:225|196:297,1,152.999995330811,8|0,0:0|0:0,0:0:0:0:
296,356,103618,1,0,0:0:0:0:
296,356,103775,2,0,L|384:364,1,76.4999976654053,8|0,0:0|1:0,0:0:0:0:
484,212,104091,6,0,L|396:204,1,76.4999976654053,2|0,0:0|0:0,0:0:0:0:
304,192,104407,1,8,0:0:0:0:
184,96,104565,2,0,P|224:88|272:104,1,76.4999976654053,2|0,0:0|0:0,0:0:0:0:
304,192,104880,1,0,0:0:0:0:
304,192,105039,1,8,0:0:0:0:
144,168,105197,2,0,P|103:106|125:35,1,152.999995330811,2|0,0:0|0:0,0:0:0:0:
228,8,105670,1,8,0:0:0:0:
228,8,105828,1,0,0:0:0:0:
304,192,105986,6,0,L|324:272,1,76.4999976654053,2|0,0:0|0:0,0:0:0:0:
208,192,106301,2,0,L|188:112,1,76.4999976654053,8|0,0:0|0:0,0:0:0:0:
374,173,106618,2,0,P|341:192|304:192,1,76.4999976654053,6|0,0:0|0:0,0:0:0:0:
137,210,106933,2,0,P|170:191|208:192,1,76.4999976654053,8|0,0:0|0:0,0:0:0:0:
256,284,107249,2,0,L|256:360,1,76.4999976654053,2|0,0:0|0:0,0:0:0:0:
256,100,107565,2,0,L|256:23,1,76.4999976654053,8|0,0:0|0:0,0:0:0:0:
340,92,107880,6,0,L|340:169,1,76.4999976654053,2|0,0:0|0:0,0:0:0:0:
172,292,108196,2,0,L|172:215,1,76.4999976654053,8|0,0:0|0:0,0:0:0:0:
176,104,108512,1,2,0:0:0:0:
176,104,108670,1,0,0:0:0:0:
304,192,108828,6,0,P|336:200|376:188,1,76.4999976654053,8|0,0:0|0:0,0:0:0:0:
208,192,109144,2,0,P|176:184|136:196,1,76.4999976654053,2|0,0:0|0:0,0:0:0:0:
80,280,109460,1,8,0:0:0:0:
208,192,109618,2,0,L|220:112,2,76.4999976654053,2|0|0,0:0|0:0|0:0,0:0:0:0:
180,296,110091,1,8,0:0:0:0:
156,72,110249,6,0,P|220:40|292:88,1,152.999995330811,2|0,0:0|0:0,0:0:0:0:
248,208,110723,1,8,0:0:0:0:
226,176,110801,1,0,0:0:0:0:
218,139,110880,1,0,0:0:0:0:
360,64,111038,1,8,0:0:0:0:
382,96,111116,1,0,0:0:0:0:
390,133,111195,1,0,0:0:0:0:
248,208,111354,2,0,P|216:228|160:228,1,76.4999976654053,8|0,0:0|0:0,0:0:0:0:
56,136,111670,6,0,P|88:116|144:116,1,76.4999976654053,6|0,0:0|0:0,0:0:0:0:
248,208,111986,1,8,0:0:0:0:
248,208,112144,2,0,P|257:244|241:298,1,76.4999976654053,2|0,0:0|0:0,0:0:0:0:
176,352,112459,1,0,0:0:0:0:
176,352,112618,1,8,0:0:0:0:
188,140,112775,6,0,P|220:120|268:120,1,76.4999976654053,2|0,0:0|0:0,0:0:0:0:
392,192,113092,1,0,0:0:0:0:
392,192,113249,2,0,L|416:100,1,76.4999976654053,8|0,0:0|0:0,0:0:0:0:
277,43,113565,2,0,L|253:135,1,76.4999976654053,2|0,0:0|0:0,0:0:0:0:
220,228,113880,1,8,0:0:0:0:
220,228,114038,1,0,0:0:0:0:
304,340,114197,6,0,P|340:348|388:328,1,76.4999976654053,2|0,0:0|0:0,0:0:0:0:
336,256,114512,1,8,0:0:0:0:
220,228,114670,2,0,P|184:220|136:240,1,76.4999976654053,2|0,0:0|0:0,0:0:0:0:
100,320,114986,1,0,0:0:0:0:
100,320,115144,1,8,0:0:0:0:
292,264,115301,2,0,P|300:228|280:180,1,76.4999976654053,2|0,0:0|0:0,0:0:0:0:
164,68,115617,1,0,0:0:0:0:
164,68,115775,2,0,P|156:104|176:152,1,76.4999976654053,8|0,0:0|0:0,0:0:0:0:
292,264,116091,6,0,L|380:280,1,76.4999976654053,2|0,0:0|0:0,0:0:0:0:
220,120,116407,2,0,L|132:104,1,76.4999976654053,8|0,0:0|0:0,0:0:0:0:
288,68,116723,2,0,P|308:140|252:200,1,152.999995330811,6|8,0:0|0:0,0:0:0:0:
112,196,117196,1,2,0:0:0:0:
112,196,117354,2,0,P|104:232|120:276,1,76.4999976654053
204,324,117670,1,8,0:0:0:0:
204,324,117828,1,0,0:0:0:0:
320,176,117986,6,0,P|328:136|316:88,1,76.4999976654053,2|0,0:0|0:0,0:0:0:0:
192,176,118301,2,0,P|184:216|196:264,1,76.4999976654053,8|0,0:0|0:0,0:0:0:0:
260,336,118618,1,2,0:0:0:0:
260,336,118776,1,0,0:0:0:0:
192,176,118933,6,0,L|112:164,1,76.4999976654053,8|0,0:0|0:0,0:0:0:0:
232,252,119249,2,0,P|276:188|244:108,1,152.999995330811,2|8,0:0|0:0,0:0:0:0:
160,280,119723,2,0,P|176:308|228:328,2,76.4999976654053,2|0|0,0:0|0:0|0:0,0:0:0:0:
180,92,120196,6,0,P|228:44|320:68,1,152.999995330811,8|0,0:0|0:0,0:0:0:0:
384,168,120670,1,8,0:0:0:0:
260,132,120828,1,8,0:0:0:0:
384,88,120986,1,0,0:0:0:0:
418,72,121064,1,0,0:0:0:0:
456,72,121143,1,8,0:0:0:0:
304,200,121301,1,0,0:0:0:0:
269,215,121379,1,0,0:0:0:0:
231,215,121458,1,8,0:0:0:0:
112,124,121617,1,0,0:0:0:0:
112,124,121775,6,0,P|92:156|92:204,1,76.4999976654053,6|0,0:0|0:0,0:0:0:0:
132,284,122091,1,2,0:0:0:0:
192,104,122249,2,0,P|175:70|134:44,1,76.4999976654053,8|0,0:0|0:0,0:0:0:0:
176,180,122565,1,0,0:0:0:0:
176,180,122723,2,0,P|213:180|254:154,1,76.4999976654053,8|0,0:0|0:0,0:0:0:0:
336,20,123038,5,2,0:0:0:0:
336,20,123196,2,0,L|352:112,1,76.4999976654053
368,192,123512,1,0,0:0:0:0:
384,292,123670,2,0,P|424:292|464:268,1,76.4999976654053,2|0,0:0|0:0,0:0:0:0:
368,192,123986,2,0,P|328:192|288:216,1,76.4999976654053,8|0,0:0|0:0,0:0:0:0:
140,312,124301,6,0,P|180:312|220:288,1,76.4999976654053,8|0,0:0|0:0,0:0:0:0:
296,208,124617,1,2,0:0:0:0:
312,64,124775,2,0,P|272:64|232:88,1,76.4999976654053
156,168,125091,1,0,0:0:0:0:
296,208,125249,2,0,P|368:228|452:188,1,152.999995330811,8|0,0:0|0:0,0:0:0:0:
480,44,125723,6,0,P|440:36|396:48,1,76.4999976654053
312,64,126038,1,8,0:0:0:0:
216,96,126196,2,0,P|178:103|141:95,1,76.4999976654053,2|0,0:0|0:0,0:0:0:0:
52,48,126512,2,0,P|40:88|48:132,1,76.4999976654053,8|0,0:0|0:0,0:0:0:0:
144,344,126828,6,0,P|156:304|148:260,1,76.4999976654053,6|0,0:0|0:0,0:0:0:0:
76,208,127144,1,2,0:0:0:0:
144,344,127301,2,0,P|180:356|236:340,1,76.4999976654053
332,280,127617,1,0,0:0:0:0:
214,207,127775,2,0,P|191:279|217:350,1,152.999995330811,8|2,0:0|0:0,0:0:0:0:
288,168,128249,6,0,P|262:138|212:124,1,76.4999976654053
128,132,128565,2,0,P|88:140|44:124,1,76.4999976654053
92,40,128880,1,0,0:0:0:0:
88,228,129038,2,0,L|84:308,1,76.4999976654053,8|0,0:0|0:0,0:0:0:0:
256,340,129354,6,0,P|328:336|384:276,1,152.999995330811,2|8,0:0|0:0,0:0:0:0:
256,44,129828,2,0,P|184:48|128:108,1,152.999995330811,8|0,0:0|0:0,0:0:0:0:
284,256,130301,2,0,P|280:184|220:128,1,152.999995330811,8|0,0:0|0:0,0:0:0:0:
124,244,130775,6,0,P|160:244|208:208,1,76.4999976654053,8|0,0:0|0:0,0:0:0:0:
224,129,131091,1,8,0:0:0:0:
284,48,131249,2,0,P|316:29|354:28,1,76.4999976654053,2|0,0:0|0:0,0:0:0:0:
388,124,131565,2,0,P|355:142|317:143,1,76.4999976654053
64,100,131880,6,0,P|97:82|135:81,1,76.4999976654053,6|0,0:0|0:0,0:0:0:0:
224,129,132196,1,2,0:0:0:0:
188,288,132354,2,0,P|170:255|169:217,1,76.4999976654053,8|0,0:0|0:0,0:0:0:0:
224,129,132670,1,0,0:0:0:0:
268,296,132828,2,0,P|224:364|148:360,1,152.999995330811,8|0,0:0|0:0,0:0:0:0:
140,120,133301,6,0,P|184:52|260:56,1,152.999995330811,2|0,0:0|0:0,0:0:0:0:
312,128,133775,2,0,P|348:136|392:120,1,76.4999976654053,2|0,0:0|0:0,0:0:0:0:
224,129,134091,2,0,P|228:164|252:196,1,76.4999976654053,8|0,0:0|0:0,0:0:0:0:
440,308,134407,6,0,P|364:308|296:360,1,152.999995330811,12|0,0:0|0:0,0:0:0:0:
124,248,134880,2,0,P|124:172|72:104,1,152.999995330811,8|0,0:0|0:0,0:0:0:0:
284,80,135354,2,0,P|360:80|428:28,1,152.999995330811,10|0,0:0|0:0,0:0:0:0:
456,184,135828,6,0,P|452:219|464:268,1,76.4999976654053,8|0,0:0|0:0,0:0:0:0:
480,356,136144,1,8,0:0:0:0:
388,316,136301,2,0,P|350:307|312:311,1,76.4999976654053,2|0,0:0|0:0,0:0:0:0:
128,364,136617,2,0,P|165:372|203:368,1,76.4999976654053,8|0,0:0|0:0,0:0:0:0:
256,216,136933,6,0,L|256:40,1,170,6|0,0:0|0:0,0:0:0:0:
110,184,137407,2,0,P|175:234|256:216,1,170,2|0,0:0|0:0,0:0:0:0:
401,77,137880,2,0,P|335:26|255:45,1,170,8|0,0:0|0:0,0:0:0:0:
255,216,138354,5,0,0:0:0:0:
255,216,138512,2,0,L|256:316,1,85,2|0,0:0|0:0,0:0:0:0:
176,364,138828,2,0,P|128:372|92:360,1,85,2|0,0:0|0:0,0:0:0:0:
255,300,139144,2,0,P|303:292|339:304,1,85,8|0,0:0|0:0,0:0:0:0:
176,364,139459,5,6,0:0:0:0:
153,328,139537,1,0,0:0:0:0:
148,286,139616,1,0,0:0:0:0:
160,246,139695,1,0,0:0:0:0:
188,214,139774,5,8,0:0:0:0:
227,197,139854,1,0,0:0:0:0:
262,175,139932,1,0,0:0:0:0:
284,138,140011,1,0,0:0:0:0:
286,96,140090,5,8,0:0:0:0:
269,58,140169,1,0,0:0:0:0:
237,31,140248,1,0,0:0:0:0:
195,23,140328,1,0,0:0:0:0:
154,21,140407,5,8,0:0:0:0:
125,51,140485,1,0,0:0:0:0:
128,92,140565,1,0,0:0:0:0:
160,117,140643,1,0,0:0:0:0:
201,111,140723,6,0,L|296:104,1,85,6|0,0:0|0:0,0:0:0:0:
200,240,141038,2,0,L|105:247,1,85,8|0,0:0|0:0,0:0:0:0:
240,348,141354,2,0,L|335:341,1,85,2|0,0:0|2:0,0:0:0:0:
456,308,141670,1,8,0:0:0:0:
473,269,141748,1,0,0:0:0:0:
474,227,141827,1,0,0:0:0:0:
458,188,141906,1,0,0:0:0:0:
428,158,141986,6,0,P|376:172|324:156,1,93.5000028533936,6|0,0:0|2:0,0:0:0:0:
256,56,142301,1,8,0:0:0:0:
252,232,142459,1,0,0:0:0:0:
380,88,142617,2,0,P|432:74|484:90,1,93.5000028533936,2|0,0:0|0:0,0:0:0:0:
469,301,142932,5,8,0:0:0:0:
469,301,143091,2,0,P|424:309|380:296,1,93.5000028533936,2|0,0:0|2:0,0:0:0:0:
225,169,143407,1,0,0:0:0:0:
421,180,143565,1,8,0:0:0:0:
256,287,143723,1,0,0:0:0:0:
327,104,143880,2,0,P|332:60|312:4,1,93.5000028533936,2|0,0:0|0:0,0:0:0:0:
148,132,144196,6,0,P|143:176|163:232,1,93.5000028533936,8|0,0:0|2:0,0:0:0:0:
344,328,144512,2,0,P|349:284|329:228,1,93.5000028533936,6|0,0:0|2:0,0:0:0:0:
256,120,144828,1,8,0:0:0:0:
157,222,144986,1,0,0:0:0:0:
334,237,145143,2,0,P|376:224|428:236,1,93.5000028533936,2|0,0:0|2:0,0:0:0:0:
476,324,145459,1,8,0:0:0:0:
488,164,145617,6,0,L|496:56,1,93.5000028533936,2|0,0:0|2:0,0:0:0:0:
344,20,145932,1,0,0:0:0:0:
376,176,146091,1,8,0:0:0:0:
494,70,146248,1,0,0:0:0:0:
364,96,146407,2,0,P|316:100|276:128,1,93.5000028533936,2|0,0:0|0:0,0:0:0:0:
194,226,146722,6,0,P|148:240|112:276,1,93.5000028533936,8|0,0:0|2:0,0:0:0:0:
285,256,147038,2,0,P|296:300|325:339,1,93.5000028533936,6|0,0:0|2:0,0:0:0:0:
317,157,147354,1,8,0:0:0:0:
317,157,147512,2,0,P|360:144|399:112,1,93.5000028533936,2|0,0:0|0:0,0:0:0:0:
226,127,147828,2,0,P|212:80|185:42,1,93.5000028533936,2|8,0:0|0:0,0:0:0:0:
194,226,148144,6,0,P|208:273|235:311,1,93.5000028533936,2|0,0:0|2:0,0:0:0:0:
364,352,148459,1,0,0:0:0:0:
336,216,148617,1,8,0:0:0:0:
233,309,148775,1,0,0:0:0:0:
396,276,148933,2,0,P|440:272|480:244,1,93.5000028533936,2|0,0:0|0:0,0:0:0:0:
480,52,149249,6,0,P|436:56|396:84,1,93.5000028533936,8|0,0:0|2:0,0:0:0:0:
336,216,149564,2,0,B|246:227|215:142|215:142|262:153,1,187.000005706787,6|0,0:0|2:0,0:0:0:0:
424,282,150038,2,0,B|456:289|456:289|425:204|336:216,1,187.000005706787,2|0,0:0|2:0,0:0:0:0:
208,276,150511,1,8,0:0:0:0:
76,236,150670,2,0,P|36:152|80:64,1,187.000005706787,2|8,0:0|0:0,0:0:0:0:
264,116,151143,6,0,P|276:164|264:208,1,93.5000028533936,2|0,0:0|2:0,0:0:0:0:
180,276,151459,1,2,0:0:0:0:
196,64,151617,1,0,0:0:0:0:
233,37,151695,1,0,0:0:0:0:
279,32,151774,1,8,0:0:0:0:
416,160,151933,1,0,0:0:0:0:
379,187,152011,1,0,0:0:0:0:
333,192,152091,6,0,P|296:208|240:200,1,93.5000028533936,6|0,0:0|2:0,0:0:0:0:
196,64,152407,1,8,0:0:0:0:
132,176,152564,1,0,0:0:0:0:
280,120,152723,2,0,P|317:104|373:112,1,93.5000028533936,2|0,0:0|2:0,0:0:0:0:
232,264,153038,1,8,0:0:0:0:
232,264,153196,2,0,P|195:280|139:272,1,93.5000028533936,2|0,0:0|2:0,0:0:0:0:
19,227,153512,5,2,0:0:0:0:
63,105,153670,1,8,0:0:0:0:
187,150,153828,1,0,0:0:0:0:
143,273,153986,2,0,P|136:316|144:364,1,93.5000028533936,2|0,0:0|2:0,0:0:0:0:
304,260,154301,6,0,P|311:217|303:169,1,93.5000028533936,8|0,0:0|0:0,0:0:0:0:
268,336,154617,2,0,P|316:344|368:312,1,93.5000028533936,6|0,0:0|2:0,0:0:0:0:
416,232,154932,1,8,0:0:0:0:
388,124,155090,1,0,0:0:0:0:
284,80,155249,2,0,P|240:92|184:80,1,93.5000028533936,2|0,0:0|0:0,0:0:0:0:
108,12,155564,1,8,0:0:0:0:
104,160,155722,6,0,L|104:264,1,93.5000028533936,2|0,0:0|2:0,0:0:0:0:
48,348,156038,1,0,0:0:0:0:
196,256,156196,1,8,0:0:0:0:
37,322,156354,1,0,0:0:0:0:
208,280,156512,2,0,P|252:268|300:284,1,93.5000028533936,2|0,0:0|0:0,0:0:0:0:
136,349,156828,6,0,P|92:361|44:345,1,93.5000028533936,8|0,0:0|2:0,0:0:0:0:
100,216,157144,2,0,B|140:148|136:96|124:68|92:68|68:92|84:124|116:108,1,187.000005706787,6|8,0:0|0:0,0:0:0:0:
256,84,157617,2,0,L|256:-12,2,93.5000028533936,2|8|0,0:0|0:0|0:0,0:0:0:0:
416,112,158090,1,8,0:0:0:0:
416,112,158249,2,0,B|429:125|445:93|421:69|389:69|377:97|373:149|413:217,1,187.000005706787,2|0,0:0|0:0,0:0:0:0:
480,344,158722,6,0,P|436:364|380:352,1,93.5000028533936,8|0,0:0|2:0,0:0:0:0:
216,292,159038,2,0,P|260:272|316:284,1,93.5000028533936,2|0,0:0|2:0,0:0:0:0:
160,360,159354,2,0,P|132:320|140:260,1,93.5000028533936,8|0,0:0|2:0,0:0:0:0:
212,140,159670,6,0,P|211:93|184:56,2,93.5000028533936,2|0|0,0:0|0:0|0:0,0:0:0:0:
112,128,160143,1,8,0:0:0:0:
304,84,160301,2,0,P|350:75|394:87,1,93.5000028533936,2|0,0:0|0:0,0:0:0:0:
344,176,160617,1,8,0:0:0:0:
208,300,160775,6,0,P|162:309|118:297,2,93.5000028533936,2|0|8,0:0|0:0|0:0,0:0:0:0:
344,176,161249,2,0,P|390:167|434:179,1,93.5000028533936,8|0,0:0|0:0,0:0:0:0:
280,240,161565,2,0,P|256:192|264:136,1,93.5000028533936,8|0,0:0|0:0,0:0:0:0:
284,116,161801,1,0,0:0:0:0:
290,70,161879,1,8,0:0:0:0:
267,30,161958,1,0,0:0:0:0:
224,13,162037,1,0,0:0:0:0:
180,25,162116,1,0,0:0:0:0:
153,62,162196,6,0,P|142:103|152:160,1,93.5000028533936,6|0,0:0|0:0,0:0:0:0:
359,322,162512,2,0,P|369:280|360:224,1,93.5000028533936,8|0,0:0|0:0,0:0:0:0:
126,295,162828,2,0,P|167:305|224:296,1,93.5000028533936,2|0,0:0|0:0,0:0:0:0:
386,89,163144,2,0,P|344:78|288:88,1,93.5000028533936,8|0,0:0|0:0,0:0:0:0:
54,162,163459,5,2,0:0:0:0:
113,295,163617,1,0,0:0:0:0:
246,236,163775,1,8,0:0:0:0:
186,103,163933,1,0,0:0:0:0:
55,240,164091,5,2,0:0:0:0:
192,292,164249,1,0,0:0:0:0:
244,157,164407,1,8,0:0:0:0:
107,104,164565,1,0,0:0:0:0:
192,292,164723,6,0,P|232:300|296:280,1,93.5000028533936,6|0,0:0|0:0,0:0:0:0:
407,199,165038,1,8,0:0:0:0:
478,84,165196,1,0,0:0:0:0:
343,79,165354,1,2,0:0:0:0:
438,205,165512,1,0,0:0:0:0:
467,53,165670,1,8,0:0:0:0:
321,104,165828,1,0,0:0:0:0:
480,196,165986,6,0,P|496:240|492:288,1,93.5000028533936,2|0,0:0|0:0,0:0:0:0:
352,188,166301,2,0,P|336:144|340:96,1,93.5000028533936,8|0,0:0|0:0,0:0:0:0:
404,256,166617,2,0,P|360:276|304:260,1,93.5000028533936,2|0,0:0|0:0,0:0:0:0:
256,120,166933,1,8,0:0:0:0:
140,256,167091,1,8,0:0:0:0:
352,188,167249,6,0,B|376:144|376:144|352:100|352:100|350:48|392:12,2,187.000005706787,6|8|0,0:0|0:0|0:0,0:0:0:0:
256,320,168038,1,2,0:0:0:0:
120,136,168196,2,0,P|160:120|212:124,1,93.5000028533936,8|0,0:0|0:0,0:0:0:0:
392,248,168512,6,0,P|352:264|300:260,1,93.5000028533936,2|0,0:0|0:0,0:0:0:0:
312,56,168828,2,0,P|328:96|324:148,1,93.5000028533936,8|0,0:0|0:0,0:0:0:0:
200,328,169144,1,8,0:0:0:0:
200,328,169301,2,0,P|184:288|188:236,1,93.5000028533936,2|8,0:0|0:0,0:0:0:0:
324,145,169617,2,0,L|452:132,1,93.5000028533936,2|0,0:0|0:0,0:0:0:0:
480,280,169933,5,0,0:0:0:0:
313,360,170091,1,8,0:0:0:0:
493,311,170249,1,0,0:0:0:0:
297,328,170407,1,2,0:0:0:0:
490,340,170565,1,0,0:0:0:0:
301,299,170723,1,8,0:0:0:0:
480,359,170880,1,0,0:0:0:0:
313,280,171038,6,0,P|313:228|345:180,1,93.5000028533936,2|0,0:0|0:0,0:0:0:0:
505,57,171354,1,8,0:0:0:0:
326,94,171512,1,0,0:0:0:0:
492,168,171670,1,2,0:0:0:0:
402,12,171828,1,0,0:0:0:0:
384,194,171986,1,8,0:0:0:0:
353,229,172064,1,0,0:0:0:0:
311,248,172143,1,0,0:0:0:0:
265,249,172222,1,0,0:0:0:0:
223,229,172301,6,0,P|200:184|200:128,1,93.5000028533936,6|0,0:0|0:0,0:0:0:0:
384,194,172617,2,0,P|407:239|407:295,1,93.5000028533936,8|0,0:0|0:0,0:0:0:0:
252,332,172933,1,2,0:0:0:0:
136,366,173091,1,0,0:0:0:0:
102,249,173249,1,8,0:0:0:0:
219,215,173407,1,0,0:0:0:0:
136,366,173565,6,0,P|84:376|32:352,1,93.5000028533936,2|0,0:0|0:0,0:0:0:0:
219,215,173880,2,0,P|271:205|323:229,1,93.5000028533936,8|0,0:0|0:0,0:0:0:0:
392,324,174196,1,2,0:0:0:0:
440,200,174354,1,0,0:0:0:0:
308,217,174512,1,8,0:0:0:0:
448,276,174670,1,0,0:0:0:0:
368,160,174828,6,0,P|352:112|360:56,1,93.5000028533936,6|0,0:0|0:0,0:0:0:0:
448,4,175144,1,8,0:0:0:0:
508,96,175301,1,0,0:0:0:0:
368,160,175459,2,0,B|340:172|340:172|268:168,1,93.5000028533936,2|0,0:0|0:0,0:0:0:0:
128,72,175775,2,0,B|156:60|156:60|228:64,1,93.5000028533936,8|0,0:0|0:0,0:0:0:0:
368,160,176091,5,2,0:0:0:0:
436,248,176249,1,0,0:0:0:0:
392,352,176407,2,0,P|344:360|292:340,1,93.5000028533936,8|0,0:0|0:0,0:0:0:0:
120,256,176723,2,0,P|168:248|220:268,1,93.5000028533936,2|0,0:0|0:0,0:0:0:0:
302,346,177038,1,8,0:0:0:0:
368,160,177196,1,8,0:0:0:0:
209,261,177354,6,0,P|196:304|204:356,1,93.5000028533936,6|0,0:0|0:0,0:0:0:0:
328,228,177670,1,8,0:0:0:0:
328,228,177828,2,0,P|341:185|333:133,1,93.5000028533936,2|0,0:0|0:0,0:0:0:0:
212,32,178144,1,2,0:0:0:0:
212,32,178301,2,0,P|199:75|207:127,1,93.5000028533936,8|0,0:0|0:0,0:0:0:0:
328,228,178617,6,0,P|348:268|340:320,1,93.5000028533936,2|0,0:0|0:0,0:0:0:0:
308,144,178933,2,0,P|352:145|394:176,1,93.5000028533936,8|0,0:0|0:0,0:0:0:0:
228,120,179249,2,0,P|251:81|299:61,1,93.5000028533936,2|0,0:0|0:0,0:0:0:0:
196,196,179565,2,0,P|161:167|147:116,1,93.5000028533936,8|0,0:0|0:0,0:0:0:0:
386,27,179880,5,6,0:0:0:0:
472,133,180038,1,2,0:0:0:0:
419,336,180196,1,8,0:0:0:0:
332,230,180354,1,2,0:0:0:0:
386,27,180512,1,8,0:0:0:0:
472,133,180670,1,2,0:0:0:0:
419,336,180828,1,8,0:0:0:0:
332,230,180986,2,0,P|274:215|216:230,1,93.5000028533936,2|0,0:0|0:0,0:0:0:0:
125,356,181301,5,2,0:0:0:0:
39,250,181459,1,8,0:0:0:0:
92,47,181617,1,2,0:0:0:0:
179,153,181775,1,8,0:0:0:0:
125,356,181933,1,2,0:0:0:0:
39,250,182091,1,8,0:0:0:0:
92,47,182249,1,2,0:0:0:0:
179,153,182407,1,8,0:0:0:0:
327,195,182565,5,2,0:0:0:0:
446,88,182723,1,8,0:0:0:0:
349,0,182880,1,2,0:0:0:0:
327,195,183038,1,8,0:0:0:0:
422,285,183196,1,2,0:0:0:0:
446,88,183353,1,8,0:0:0:0:
327,195,183512,2,0,L|213:217,1,93.5000028533936,2|0,0:0|0:0,0:0:0:0:
125,356,183828,5,2,0:0:0:0:
39,250,183986,1,8,0:0:0:0:
92,47,184144,1,2,0:0:0:0:
179,153,184302,1,8,0:0:0:0:
125,356,184460,1,2,0:0:0:0:
39,250,184618,1,8,0:0:0:0:
92,47,184776,1,2,0:0:0:0:
179,153,184933,5,2,0:0:0:0:
112,136,201986,37,8,0:0:0:0:
400,248,202301,1,8,0:0:0:0:
112,136,202617,2,0,P|80:216|124:288,1,170,8|0,0:0|2:0,0:0:0:0:
256,332,203091,5,8,0:0:0:0:
372,364,203249,1,2,0:0:0:0:
496,192,203565,1,8,0:0:0:0:
512,72,203723,1,2,0:0:0:0:
256,28,204038,1,8,0:0:0:0:
136,8,204196,1,2,0:0:0:0:
16,192,204512,5,8,0:0:0:0:
88,288,204670,1,0,0:0:0:0:
122,312,204748,1,0,0:0:0:0:
163,313,204827,1,8,0:0:0:0:
199,291,204907,1,0,0:0:0:0:
233,267,204985,1,0,0:0:0:0:
275,265,205064,1,0,0:0:0:0:
311,286,205144,6,0,P|356:296|404:276,1,85,6|0,0:0|2:0,0:0:0:0:
421,84,205459,2,0,P|353:130|348:212,1,170,8|8,0:0|0:0,0:0:0:0:
440,184,205933,1,0,0:0:0:0:
288,76,206091,1,2,0:0:0:0:
288,76,206249,2,0,P|240:72|208:88,1,85,8|0,0:0|2:0,0:0:0:0:
184,284,206565,5,2,0:0:0:0:
184,284,206723,2,0,P|252:238|257:156,1,170,8|8,0:0|0:0,0:0:0:0:
168,188,207196,1,0,0:0:0:0:
344,272,207354,1,8,0:0:0:0:
386,273,207432,1,0,0:0:0:0:
424,256,207511,1,0,0:0:0:0:
451,224,207590,1,0,0:0:0:0:
460,184,207670,6,0,L|468:72,1,85,6|0,0:0|2:0,0:0:0:0:
330,23,207986,2,0,L|324:108,1,85,8|0,0:0|2:0,0:0:0:0:
192,192,208301,2,0,P|148:200|96:180,1,85,2|0,0:0|0:0,0:0:0:0:
324,108,208617,2,0,P|368:100|420:120,1,85,8|0,0:0|0:0,0:0:0:0:
379,263,208933,5,2,0:0:0:0:
360,226,209011,1,0,0:0:0:0:
360,183,209090,1,0,0:0:0:0:
444,328,209249,1,8,0:0:0:0:
406,347,209327,1,0,0:0:0:0:
364,347,209406,1,0,0:0:0:0:
256,288,209565,2,0,P|216:276|156:300,1,85,8|0,0:0|2:0,0:0:0:0:
48,344,209880,5,2,0:0:0:0:
28,244,210038,1,0,0:0:0:0:
92,164,210196,2,0,P|104:120|88:68,1,85,2|0,0:0|0:0,0:0:0:0:
28,244,210512,2,0,P|68:265|122:261,1,85,8|0,0:0|0:0,0:0:0:0:
264,216,210828,2,0,P|223:194|169:198,1,85,8|0,0:0|0:0,0:0:0:0:
28,244,211144,5,2,0:0:0:0:
28,244,211301,2,0,P|16:200|24:148,1,85,12|0,0:0|2:0,0:0:0:0:
152,32,211617,1,0,0:0:0:0:
152,32,211775,2,0,P|188:116|140:196,1,170,8|8,0:0|0:0,0:0:0:0:
88,112,212249,1,0,0:0:0:0:
304,64,212407,5,8,0:0:0:0:
344,52,212485,1,0,0:0:0:0:
386,59,212564,1,0,0:0:0:0:
420,84,212643,1,0,0:0:0:0:
440,121,212723,5,8,0:0:0:0:
445,162,212801,1,0,0:0:0:0:
425,199,212880,1,0,0:0:0:0:
387,217,212959,1,0,0:0:0:0:
346,209,213038,5,8,0:0:0:0:
317,179,213117,1,0,0:0:0:0:
286,151,213195,1,0,0:0:0:0:
245,139,213274,1,0,0:0:0:0:
204,140,213354,5,8,0:0:0:0:
163,150,213432,1,0,0:0:0:0:
135,181,213511,1,0,0:0:0:0:
129,222,213591,1,0,0:0:0:0:
140,262,213669,5,8,0:0:0:0:
172,289,213749,1,0,0:0:0:0:
214,295,213827,1,0,0:0:0:0:
252,277,213906,1,0,0:0:0:0:
274,242,213986,2,0,P|284:196|272:148,1,85,6|0,0:0|0:0,0:0:0:0:
184,44,214301,5,8,0:0:0:0:
142,41,214379,1,0,0:0:0:0:
104,60,214458,1,0,0:0:0:0:
81,95,214538,1,0,0:0:0:0:
70,136,214616,5,8,0:0:0:0:
85,175,214695,1,0,0:0:0:0:
119,199,214774,1,0,0:0:0:0:
161,199,214854,1,0,0:0:0:0:
194,173,214932,5,8,0:0:0:0:
234,161,215011,1,0,0:0:0:0:
277,163,215090,1,0,0:0:0:0:
316,179,215169,1,0,0:0:0:0:
346,208,215249,6,0,L|356:312,1,85,6|0,0:0|2:0,0:0:0:0:
256,356,215565,2,0,L|248:272,1,85,8|0,0:0|2:0,0:0:0:0:
444,168,215880,2,0,L|452:252,1,85,2|0,0:0|0:0,0:0:0:0:
380,352,216196,1,8,0:0:0:0:
256,356,216354,2,0,P|212:348|160:364,1,85,0|0,0:0|2:0,0:0:0:0:
44,372,216670,5,2,0:0:0:0:
104,280,216828,2,0,P|132:200|88:112,1,170,8|8,0:0|0:0,0:0:0:0:
16,28,217301,1,2,0:0:0:0:
101,124,217459,1,8,0:0:0:0:
136,146,217537,1,0,0:0:0:0:
178,151,217616,1,0,0:0:0:0:
218,139,217695,1,0,0:0:0:0:
250,111,217775,6,0,P|288:96|336:104,1,85,6|0,0:0|2:0,0:0:0:0:
262,273,218091,2,0,P|224:288|176:280,1,85,8|0,0:0|2:0,0:0:0:0:
330,101,218407,2,0,P|345:139|337:187,1,85,8|0,0:0|0:0,0:0:0:0:
181,282,218723,2,0,P|166:244|174:196,1,85,8|0,0:0|0:0,0:0:0:0:
330,101,219038,5,2,0:0:0:0:
370,88,219116,1,0,0:0:0:0:
412,91,219195,1,0,0:0:0:0:
496,252,219354,1,8,0:0:0:0:
455,264,219432,1,0,0:0:0:0:
413,261,219511,1,0,0:0:0:0:
280,192,219670,1,8,0:0:0:0:
296,320,219828,1,8,0:0:0:0:
372,188,219986,6,0,P|380:144|372:96,1,85,2|0,0:0|0:0,0:0:0:0:
140,196,220301,2,0,P|132:240|140:288,1,85,6|0,0:0|0:0,0:0:0:0:
296,320,220617,2,0,L|388:344,1,85,8|0,0:0|0:0,0:0:0:0:
372,188,220933,2,0,L|280:164,1,85,6|0,0:0|0:0,0:0:0:0:
124,120,221249,5,8,0:0:0:0:
124,120,221407,2,0,P|88:200|120:276,1,170,6|0,0:0|0:0,0:0:0:0:
296,244,221880,2,0,P|304:200|284:148,1,85,8|0,0:0|2:0,0:0:0:0:
240,308,222196,1,2,0:0:0:0:
276,328,222274,1,0,0:0:0:0:
318,323,222353,1,0,0:0:0:0:
372,124,222512,1,8,0:0:0:0:
344,92,222590,1,0,0:0:0:0:
305,76,222669,1,0,0:0:0:0:
263,81,222748,1,0,0:0:0:0:
228,104,222828,6,0,P|192:120|128:104,1,85,6|0,0:0|0:0,0:0:0:0:
32,40,223144,2,0,L|20:124,1,85,8|0,0:0|0:0,0:0:0:0:
92,240,223459,2,0,P|132:248|184:236,1,85,2|0,0:0|0:0,0:0:0:0:
256,128,223775,1,8,0:0:0:0:
328,236,223933,1,8,0:0:0:0:
220,305,224091,5,8,0:0:0:0:
150,197,224249,1,8,0:0:0:0:
256,128,224407,1,8,0:0:0:0:
328,236,224565,1,8,0:0:0:0:
146,276,224723,5,8,0:0:0:0:
179,124,224881,1,8,0:0:0:0:
329,155,225039,1,8,0:0:0:0:
298,309,225197,1,10,0:0:0:0:
146,276,225354,5,8,0:0:0:0:
109,255,225432,1,0,0:0:0:0:
86,220,225511,1,0,0:0:0:0:
82,178,225590,1,0,0:0:0:0:
108,144,225670,1,8,0:0:0:0:
147,160,225748,1,0,0:0:0:0:
189,157,225827,1,0,0:0:0:0:
226,138,225906,1,0,0:0:0:0:
251,104,225985,1,8,0:0:0:0:
344,28,226144,2,0,P|384:16|432:28,1,85,8|8,0:0|0:0,0:0:0:0:
496,180,226459,2,0,P|456:236|420:164,1,170,6|0,0:0|2:0,0:0:0:0:
456,68,226933,5,2,2:2:0:0:
440,60,227249,1,2,2:2:0:0:
424,56,227565,1,2,2:2:0:0:
408,56,227880,6,0,L|296:64,1,93.5000028533936,6|0,0:0|2:0,0:0:0:0:
192,140,228196,1,8,0:0:0:0:
256,16,228354,1,0,0:0:0:0:
284,168,228512,2,0,P|292:216|272:272,1,93.5000028533936,2|0,0:0|0:0,0:0:0:0:
152,332,228827,5,8,0:0:0:0:
280,258,228986,2,0,P|320:248|384:264,1,93.5000028533936,2|0,0:0|2:0,0:0:0:0:
484,352,229301,1,0,0:0:0:0:
488,172,229459,1,8,0:0:0:0:
440,284,229617,1,0,0:0:0:0:
424,112,229775,2,0,L|424:8,1,93.5000028533936,2|0,0:0|2:0,0:0:0:0:
256,128,230091,6,0,L|256:232,1,93.5000028533936,8|0,0:0|2:0,0:0:0:0:
200,348,230407,2,0,P|148:356|104:340,1,93.5000028533936,6|0,0:0|2:0,0:0:0:0:
48,216,230722,1,8,0:0:0:0:
16,360,230880,1,0,0:0:0:0:
160,268,231038,2,0,P|212:260|256:276,1,93.5000028533936,2|0,0:0|2:0,0:0:0:0:
340,364,231354,1,8,0:0:0:0:
352,204,231512,6,0,P|360:156|344:100,1,93.5000028533936,2|0,0:0|2:0,0:0:0:0:
256,24,231827,1,0,0:0:0:0:
224,152,231985,1,8,0:0:0:0:
350,112,232143,1,0,0:0:0:0:
156,80,232301,2,0,P|108:80|48:84,1,93.5000028533936,2|0,0:0|2:0,0:0:0:0:
180,248,232617,6,0,P|227:247|288:244,1,93.5000028533936,8|0,0:0|2:0,0:0:0:0:
424,232,232933,2,0,P|436:188|416:136,1,93.5000028533936,6|0,0:0|2:0,0:0:0:0:
273,245,233249,1,8,0:0:0:0:
273,245,233407,2,0,P|261:289|281:341,1,93.5000028533936,2|0,0:0|0:0,0:0:0:0:
316,160,233722,2,0,P|271:148|220:164,1,93.5000028533936,2|8,0:0|0:0,0:0:0:0:
44,252,234038,6,0,P|89:264|140:248,1,93.5000028533936,2|0,0:0|2:0,0:0:0:0:
226,159,234354,1,0,0:0:0:0:
216,312,234512,1,8,0:0:0:0:
144,124,234670,1,0,0:0:0:0:
216,312,234828,2,0,P|260:324|312:312,1,93.5000028533936,2|0,0:0|2:0,0:0:0:0:
296,72,235144,2,0,P|252:60|200:72,1,93.5000028533936,8|0,0:0|0:0,0:0:0:0:
149,234,235459,5,2,0:0:0:0:
183,202,235537,1,0,0:0:0:0:
205,161,235616,1,0,0:0:0:0:
213,115,235695,1,0,0:0:0:0:
205,69,235774,1,8,0:0:0:0:
303,191,235933,5,2,0:0:0:0:
295,236,236011,1,0,0:0:0:0:
302,282,236090,1,8,0:0:0:0:
325,323,236169,1,0,0:0:0:0:
359,355,236248,1,0,0:0:0:0:
448,228,236406,1,8,0:0:0:0:
372,100,236565,1,0,0:0:0:0:
372,100,236644,1,0,0:0:0:0:
372,100,236723,2,0,P|328:80|276:84,1,93.5000028533936,6|0,0:0|0:0,0:0:0:0:
120,188,237038,6,0,P|164:208|216:204,1,93.5000028533936,8|0,0:0|2:0,0:0:0:0:
316,164,237354,2,0,L|316:268,1,93.5000028533936,8|0,0:0|0:0,0:0:0:0:
232,332,237670,1,8,0:0:0:0:
180,132,237827,1,0,0:0:0:0:
180,132,237907,1,0,0:0:0:0:
180,132,237986,6,0,L|180:32,1,68,6|0,0:0|2:0,0:0:0:0:
84,192,238301,5,8,0:0:0:0:
232,264,238459,1,0,0:0:0:0:
108,368,238617,2,0,P|101:322|116:279,1,93.5000028533936,2|0,0:0|2:0,0:0:0:0:
232,264,238933,1,8,0:0:0:0:
384,352,239091,2,0,P|338:359|295:344,1,93.5000028533936,2|0,0:0|2:0,0:0:0:0:
256,192,239406,5,2,0:0:0:0:
348,88,239564,1,8,0:0:0:0:
392,220,239722,1,0,0:0:0:0:
248,96,239880,2,0,P|233:55|237:7,1,93.5000028533936,2|2,0:0|0:0,0:0:0:0:
412,40,240196,6,0,P|427:81|423:129,1,93.5000028533936,8|0,0:0|2:0,0:0:0:0:
256,192,240512,2,0,P|209:187|166:202,1,93.5000028533936,6|0,0:0|2:0,0:0:0:0:
108,304,240827,1,8,0:0:0:0:
96,136,240985,1,0,0:0:0:0:
224,272,241144,2,0,P|270:276|313:261,1,93.5000028533936,2|0,0:0|2:0,0:0:0:0:
416,192,241459,1,8,0:0:0:0:
313,122,241617,6,0,P|270:107|224:112,1,93.5000028533936,2|0,0:0|2:0,0:0:0:0:
96,136,241933,1,0,0:0:0:0:
168,212,242091,1,8,0:0:0:0:
164,40,242249,1,0,0:0:0:0:
168,212,242407,2,0,P|160:256|168:304,1,93.5000028533936,2|0,0:0|2:0,0:0:0:0:
344,172,242723,6,0,P|352:128|344:80,1,93.5000028533936,8|0,0:0|2:0,0:0:0:0:
115,130,243038,2,0,P|87:205|168:212,1,187.000005706787,6|8,0:0|0:0,0:0:0:0:
343,172,243512,2,0,P|424:177|397:254,1,187.000005706787,2|0,0:0|2:0,0:0:0:0:
256,192,243985,1,8,0:0:0:0:
256,192,244144,2,0,B|212:96|308:96|256:12,1,187.000005706787,2|0,0:0|0:0,0:0:0:0:
328,148,244617,6,0,P|368:156|420:136,1,93.5000028533936,8|0,0:0|2:0,0:0:0:0:
188,56,244933,2,0,P|148:48|96:68,1,93.5000028533936,2|0,0:0|2:0,0:0:0:0:
164,220,245249,2,0,P|172:180|152:128,1,93.5000028533936,8|0,0:0|0:0,0:0:0:0:
0,192,245565,6,0,P|40:200|92:180,1,93.5000028533936,2|0,0:0|2:0,0:0:0:0:
188,56,245880,2,0,P|231:39|276:46,1,93.5000028533936,2|0,0:0|0:0,0:0:0:0:
368,192,246196,2,0,P|324:208|279:201,1,93.5000028533936,2|0,0:0|0:0,0:0:0:0:
192,148,246512,1,8,0:0:0:0:
188,280,246670,6,0,L|176:380,1,93.5000028533936,2|0,0:0|0:0,0:0:0:0:
356,284,246986,1,8,0:0:0:0:
356,284,247144,2,0,L|368:184,1,93.5000028533936,2|0,0:0|2:0,0:0:0:0:
224,56,247459,2,0,L|212:156,1,93.5000028533936,8|0,0:0|2:0,0:0:0:0:
188,280,247775,1,8,0:0:0:0:
288,220,247933,1,2,0:0:0:0:
96,192,248091,5,6,0:0:0:0:
256,192,248170,12,2,251249,0:0:0:0:
