osu file format v12

[General]
AudioFilename: Ninja Ryukenden 116.mp3
AudioLeadIn: 0
PreviewTime: 3259
Countdown: 0
SampleSet: Soft
StackLeniency: 0.7
Mode: 3
LetterboxInBreaks: 0
SpecialStyle: 0
WidescreenStoryboard: 0

[Editor]
DistanceSpacing: 0.9
BeatDivisor: 4
GridSize: 8

[Metadata]
Title:Senretsu no ryu
TitleUnicode:Senretsu no ryu
Artist:Deuce
ArtistUnicode:Deuce
Creator:Mashiro-Fang
Version:Hard
Source:Ninja Ryukenden
Tags:Spy Simple_Star
BeatmapID:319390
BeatmapSetID:125464

[Difficulty]
HPDrainRate:7
CircleSize:4
OverallDifficulty:8
ApproachRate:5
SliderMultiplier:1.4
SliderTickRate:1

[Events]
//Background and Video events
0,0,"GX6]ZYZ[T6EXDWITE%0UTG3.jpg",0,0
//Break Periods
//Storyboard Layer 0 (Background)
//Storyboard Layer 1 (Fail)
//Storyboard Layer 2 (Pass)
//Storyboard Layer 3 (Foreground)
//Storyboard Sound Samples
//Background Colour Transformations
3,100,163,162,255

[TimingPoints]
163,387.096774193548,4,2,0,35,1,0
31130,-100,4,2,0,35,0,1
43517,-100,4,2,0,35,0,0
71388,-100,4,2,0,35,0,1
83775,-100,4,2,0,35,0,0

[HitObjects]
192,192,163,1,0,0:0:0:0:
448,192,163,1,4,0:0:0:0:
448,192,356,1,0,0:0:0:0:
64,192,550,1,0,0:0:0:0:
320,192,550,1,4,0:0:0:0:
320,192,743,1,0,0:0:0:0:
448,192,937,1,0,0:0:0:0:
192,192,937,1,4,0:0:0:0:
192,192,1130,1,0,0:0:0:0:
64,192,1324,1,4,0:0:0:0:
320,192,1324,1,0,0:0:0:0:
64,192,1517,1,0,0:0:0:0:
192,192,1711,1,4,0:0:0:0:
320,192,1711,1,0,0:0:0:0:
64,192,1905,1,0,0:0:0:0:
192,192,2098,1,0,0:0:0:0:
320,192,2098,1,0,0:0:0:0:
448,192,2292,1,0,0:0:0:0:
64,192,2485,1,0,0:0:0:0:
320,192,2485,1,0,0:0:0:0:
192,192,2679,1,8,0:3:0:0:
448,192,2775,1,8,0:3:0:0:
64,192,2872,1,0,0:0:0:0:
320,192,2872,1,8,0:3:0:0:
448,192,2969,1,8,0:3:0:0:
192,192,3066,1,8,0:3:0:0:
64,192,3260,1,4,0:0:0:0:
320,192,3260,1,4,0:0:0:0:
448,192,3260,1,0,0:0:0:30:VEC3 Bassdrums Clubby 004.wav
320,192,3453,1,0,0:0:0:0:
192,192,3647,1,0,0:0:0:80:Hat Basic.wav
448,192,3647,1,0,0:0:0:0:
320,192,3840,1,0,0:0:0:0:
64,192,4034,1,0,0:0:0:0:
448,192,4034,1,0,0:0:0:0:
192,192,4130,1,0,0:0:0:0:
320,192,4324,1,0,0:0:0:0:
64,192,4421,1,0,0:0:0:0:
448,192,4421,1,0,0:0:0:80:Hat Basic.wav
192,192,4614,1,0,0:0:0:0:
320,192,4808,1,0,0:0:0:0:
448,192,4808,128,0,5969:0:0:0:0:
192,192,5001,1,0,0:0:0:0:
64,192,5195,1,0,0:0:0:80:Hat Basic.wav
320,192,5389,1,0,0:0:0:0:
192,192,5582,1,0,0:0:0:0:
320,192,5776,1,0,0:0:0:0:
192,192,5969,1,0,0:0:0:80:Hat Basic.wav
64,192,5969,128,0,6356:0:0:0:0:
192,192,6356,1,0,0:0:0:0:
320,192,6356,1,0,0:0:0:0:
64,192,6550,1,0,0:0:0:0:
320,192,6743,1,0,0:0:0:80:Hat Basic.wav
448,192,6743,1,0,0:0:0:0:
192,192,6937,1,0,0:0:0:0:
64,192,7130,1,0,0:0:0:0:
320,192,7130,1,0,0:0:0:0:
192,192,7227,1,0,0:0:0:0:
320,192,7421,1,0,0:0:0:0:
192,192,7518,1,0,0:0:0:80:Hat Basic.wav
448,192,7518,1,0,0:0:0:0:
320,192,7711,1,0,0:0:0:0:
192,192,7905,1,0,0:0:0:0:
64,192,7905,128,0,9066:0:0:0:0:
320,192,8098,1,0,0:0:0:0:
448,192,8292,1,0,0:0:0:80:Hat Basic.wav
320,192,8485,1,0,0:0:0:0:
192,192,8679,1,0,0:0:0:0:
448,192,8872,1,0,0:0:0:0:
320,192,9066,1,0,0:0:0:80:Hat Basic.wav
192,192,9066,1,0,0:0:0:0:
192,192,9453,1,4,0:0:0:0:
448,192,9453,1,4,0:0:0:0:
64,192,9453,1,0,0:0:0:30:VEC3 Bassdrums Clubby 004.wav
320,192,9647,1,0,0:0:0:0:
64,192,9840,1,0,0:0:0:0:
448,192,9840,1,0,0:0:0:80:Hat Basic.wav
320,192,10034,1,0,0:0:0:0:
192,192,10227,1,0,0:0:0:0:
448,192,10227,1,0,0:0:0:0:
320,192,10324,1,0,0:0:0:0:
192,192,10518,1,0,0:0:0:0:
320,192,10615,1,0,0:0:0:80:Hat Basic.wav
64,192,10615,1,0,0:0:0:0:
192,192,10808,1,0,0:0:0:0:
320,192,11001,128,0,12163:0:0:0:0:
64,192,11001,1,0,0:0:0:0:
448,192,11195,1,0,0:0:0:0:
192,192,11388,1,0,0:0:0:80:Hat Basic.wav
448,192,11582,128,0,11776:0:0:0:0:
192,192,11776,128,0,11969:0:0:0:0:
64,192,11969,128,0,12163:0:0:0:0:
192,192,12163,1,0,0:0:0:80:Hat Basic.wav
448,192,12163,1,0,0:0:0:0:
448,192,12550,1,0,0:0:0:0:
192,192,12550,1,0,0:0:0:0:
64,192,12743,1,0,0:0:0:0:
320,192,12937,1,0,0:0:0:80:Hat Basic.wav
192,192,12937,1,0,0:0:0:0:
448,192,13130,1,0,0:0:0:0:
64,192,13324,1,0,0:0:0:0:
320,192,13324,1,0,0:0:0:0:
448,192,13421,1,0,0:0:0:0:
64,192,13614,1,0,0:0:0:0:
192,192,13711,1,0,0:0:0:80:Hat Basic.wav
448,192,13711,1,0,0:0:0:0:
64,192,13905,1,0,0:0:0:0:
320,192,14098,1,0,0:0:0:0:
192,192,14098,128,0,15259:0:0:0:0:
64,192,14292,1,0,0:0:0:0:
448,192,14485,1,0,0:0:0:80:Hat Basic.wav
320,192,14679,128,0,14872:0:0:0:0:
448,192,14872,128,0,15066:0:0:0:0:
64,192,15066,128,0,15259:0:0:0:0:
320,192,15259,1,0,0:0:0:80:Hat Basic.wav
448,192,15259,1,0,0:0:0:0:
192,192,15453,1,0,0:0:0:0:
64,192,15646,1,4,1:0:0:0:
320,192,15647,1,4,0:0:0:0:
448,192,15647,1,0,0:0:0:0:
448,192,15840,1,0,0:0:0:0:
192,192,16034,1,0,0:0:0:0:
64,192,16034,1,0,0:0:0:0:
448,192,16034,1,0,0:0:0:0:
320,192,16227,1,0,0:0:0:0:
320,192,16421,1,0,0:0:0:0:
448,192,16421,1,0,0:0:0:0:
64,192,16421,1,0,0:0:0:0:
192,192,16614,1,0,0:0:0:0:
64,192,16808,1,0,0:0:0:0:
192,192,16808,1,0,0:0:0:0:
448,192,16808,1,0,0:0:0:0:
64,192,17001,1,0,0:0:0:0:
320,192,17195,1,0,0:0:0:0:
448,192,17195,1,0,0:0:0:0:
64,192,17195,1,0,0:0:0:0:
64,192,17389,1,0,0:0:0:15:VEC3 Bassdrums Clubby 004.wav
192,192,17389,1,8,3:0:0:15:VEC3 Bassdrums Clubby 004.wav
448,192,17389,1,8,3:0:0:15:VEC3 Bassdrums Clubby 004.wav
64,192,17582,1,0,0:0:0:15:VEC3 Bassdrums Clubby 004.wav
320,192,17582,1,8,3:0:0:15:VEC3 Bassdrums Clubby 004.wav
448,192,17582,1,8,3:0:0:15:VEC3 Bassdrums Clubby 004.wav
64,192,17776,1,0,0:0:0:15:VEC3 Bassdrums Clubby 004.wav
192,192,17776,1,8,3:0:0:15:VEC3 Bassdrums Clubby 004.wav
320,192,17776,1,8,3:0:0:15:VEC3 Bassdrums Clubby 004.wav
448,192,17776,1,8,3:0:0:15:VEC3 Bassdrums Clubby 004.wav
448,192,17969,1,8,3:0:0:15:VEC3 Bassdrums Clubby 004.wav
320,192,17969,1,8,3:0:0:15:VEC3 Bassdrums Clubby 004.wav
192,192,17969,1,8,3:0:0:15:VEC3 Bassdrums Clubby 004.wav
64,192,17969,1,0,0:0:0:15:VEC3 Bassdrums Clubby 004.wav
448,192,18163,128,0,18743:0:0:0:0:
320,192,18356,128,0,18743:0:0:0:0:
192,192,18550,128,0,18743:0:0:0:0:
64,192,18743,1,4,0:2:0:0:
320,192,18937,1,0,0:0:0:0:
64,192,19130,1,0,0:0:0:0:
448,192,19130,1,0,0:0:0:80:Hat Basic.wav
192,192,19324,128,0,19711:0:0:0:0:
64,192,19517,1,0,0:0:0:0:
448,192,19711,1,0,0:0:0:0:
64,192,19905,1,0,0:0:0:0:
320,192,19905,1,0,0:0:0:80:Hat Basic.wav
448,192,20098,1,0,0:0:0:0:
192,192,20292,1,0,0:0:0:0:
320,192,20292,1,0,0:0:0:0:
64,192,20485,1,0,0:0:0:0:
320,192,20679,1,0,0:0:0:80:Hat Basic.wav
448,192,20679,1,0,0:0:0:0:
64,192,20872,128,0,21259:0:0:0:0:
192,192,21066,1,0,0:0:0:0:
320,192,21259,1,0,0:0:0:0:
192,192,21453,1,0,0:0:0:80:Hat Basic.wav
448,192,21453,1,0,0:0:0:0:
320,192,21647,1,0,0:0:0:0:
64,192,21840,1,0,0:0:0:0:
448,192,21840,1,0,0:0:0:0:
192,192,22034,1,0,0:0:0:0:
320,192,22227,1,0,0:0:0:80:Hat Basic.wav
64,192,22227,1,0,0:0:0:0:
448,192,22421,128,0,22808:0:0:0:0:
192,192,22614,1,0,0:0:0:0:
64,192,22808,1,0,0:0:0:0:
192,192,23001,1,0,0:0:0:0:
320,192,23001,1,0,0:0:0:80:Hat Basic.wav
448,192,23195,1,0,0:0:0:0:
192,192,23389,1,0,0:0:0:0:
448,192,23389,1,0,0:0:0:0:
320,192,23389,128,0,24356:0:0:0:0:
64,192,23775,1,0,0:0:0:80:Hat Basic.wav
448,192,24162,1,0,0:0:0:0:
64,192,24356,1,0,0:0:0:0:
192,192,24550,1,0,0:0:0:0:
448,192,24550,1,0,0:0:0:80:Hat Basic.wav
320,192,24743,1,0,0:0:0:0:
64,192,24937,1,0,0:0:0:0:
192,192,24937,1,4,0:0:0:0:
448,192,24937,1,4,0:0:0:0:
320,192,25130,1,0,0:0:0:0:
192,192,25324,1,0,0:0:0:0:
320,192,25324,1,0,0:0:0:80:Hat Basic.wav
64,192,25518,128,0,25905:0:0:0:0:
448,192,25711,1,0,0:0:0:0:
320,192,25905,1,0,0:0:0:0:
192,192,26098,1,0,0:0:0:0:
448,192,26098,1,0,0:0:0:80:Hat Basic.wav
320,192,26292,1,0,0:0:0:0:
64,192,26485,1,0,0:0:0:0:
320,192,26485,1,0,0:0:0:0:
192,192,26679,1,0,0:0:0:0:
192,192,26872,1,0,0:0:0:0:
320,192,26872,1,0,0:0:0:80:Hat Basic.wav
64,192,27066,128,0,27453:0:0:0:0:
448,192,27259,1,0,0:0:0:0:
192,192,27453,1,0,0:0:0:0:
64,192,27647,1,0,0:0:0:0:
448,192,27647,1,0,0:0:0:80:Hat Basic.wav
192,192,27840,1,0,0:0:0:0:
192,192,28034,1,0,0:0:0:0:
448,192,28034,1,0,0:0:0:0:
320,192,28227,1,0,0:0:0:0:
64,192,28421,1,0,0:0:0:0:
448,192,28421,1,0,0:0:0:80:Hat Basic.wav
448,192,28614,128,0,29001:0:0:0:0:
320,192,28808,1,0,0:0:0:0:
192,192,29001,1,0,0:0:0:0:
64,192,29195,1,0,0:0:0:0:
320,192,29195,1,0,0:0:0:80:Hat Basic.wav
448,192,29389,1,0,0:0:0:0:
192,192,29582,128,0,30550:0:0:0:0:
64,192,29582,1,0,0:0:0:0:
320,192,29582,1,0,0:0:0:0:
448,192,29969,1,0,0:0:0:80:Hat Basic.wav
64,192,30356,1,0,0:0:0:0:
320,192,30550,1,0,0:0:0:0:
448,192,30647,1,0,0:0:0:0:
320,192,30743,1,0,0:0:0:80:Hat Basic.wav
192,192,30840,1,0,0:0:0:0:
64,192,30937,1,0,0:0:0:0:
192,192,31034,1,0,0:0:0:0:
64,192,31130,1,4,0:0:0:0:
448,192,31130,1,0,0:0:0:0:
320,192,31130,1,4,0:0:0:0:
320,192,31324,1,0,0:0:0:0:
192,192,31421,1,0,0:0:0:0:
448,192,31614,1,0,0:0:0:0:
320,192,31711,1,0,0:0:0:0:
64,192,31904,1,0,0:0:0:0:
448,192,32001,1,0,0:0:0:0:
320,192,32098,1,0,0:0:0:0:
192,192,32195,1,0,0:0:0:0:
320,192,32292,1,0,0:0:0:80:Hat Basic.wav
448,192,32388,1,0,0:0:0:0:
320,192,32485,1,0,0:0:0:0:
192,192,32582,1,0,0:0:0:0:
64,192,32679,1,0,0:0:0:0:
192,192,32872,1,0,0:0:0:0:
320,192,32969,1,0,0:0:0:0:
64,192,33163,1,0,0:0:0:0:
192,192,33259,1,0,0:0:0:0:
192,192,33453,1,0,0:0:0:0:
64,192,33550,1,0,0:0:0:0:
192,192,33646,1,0,0:0:0:0:
320,192,33743,1,0,0:0:0:0:
448,192,33840,1,0,0:0:0:80:Hat Basic.wav
320,192,33937,1,0,0:0:0:0:
192,192,34033,1,0,0:0:0:0:
64,192,34130,1,0,0:0:0:0:
448,192,34227,1,0,0:0:0:0:
192,192,34421,1,0,0:0:0:0:
64,192,34518,1,0,0:0:0:0:
320,192,34711,1,0,0:0:0:0:
448,192,34808,1,0,0:0:0:0:
64,192,35001,1,0,0:0:0:0:
192,192,35098,1,0,0:0:0:0:
320,192,35195,1,0,0:0:0:0:
192,192,35292,1,0,0:0:0:0:
448,192,35388,1,0,0:0:0:80:Hat Basic.wav
320,192,35485,1,0,0:0:0:0:
192,192,35582,1,0,0:0:0:0:
64,192,35679,1,0,0:0:0:0:
192,192,35776,1,0,0:0:0:0:
448,192,35872,1,0,0:0:0:0:
64,192,35969,1,0,0:0:0:0:
320,192,36066,1,0,0:0:0:0:
448,192,36163,1,0,0:0:0:80:Hat Basic.wav
192,192,36259,1,0,0:0:0:0:
64,192,36356,1,0,0:0:0:0:
320,192,36453,1,0,0:0:0:0:
448,192,36550,1,0,0:0:0:0:
192,192,36647,1,0,0:0:0:0:
320,192,36743,1,0,0:0:0:0:
64,192,36840,1,0,0:0:0:0:
448,192,36937,128,0,37130:0:0:0:80:Hat Basic.wav
320,192,37130,128,0,37324:0:0:0:0:
192,192,37324,1,4,0:0:0:0:
64,192,37324,1,4,0:0:0:0:
448,192,37324,1,0,0:0:0:0:
64,192,37518,1,0,0:0:0:0:
192,192,37614,1,0,0:0:0:0:
448,192,37808,1,0,0:0:0:0:
320,192,37905,1,0,0:0:0:0:
192,192,38098,1,0,0:0:0:0:
320,192,38195,1,0,0:0:0:0:
448,192,38292,1,0,0:0:0:0:
320,192,38389,1,0,0:0:0:0:
448,192,38485,1,0,0:0:0:80:Hat Basic.wav
320,192,38582,1,0,0:0:0:0:
192,192,38679,1,0,0:0:0:0:
64,192,38775,1,0,0:0:0:0:
192,192,38872,1,0,0:0:0:0:
448,192,39066,1,0,0:0:0:0:
320,192,39163,1,0,0:0:0:0:
64,192,39356,1,0,0:0:0:0:
192,192,39453,1,0,0:0:0:0:
320,192,39647,1,0,0:0:0:0:
192,192,39743,1,0,0:0:0:0:
64,192,39840,1,0,0:0:0:0:
192,192,39937,1,0,0:0:0:0:
64,192,40034,1,0,0:0:0:80:Hat Basic.wav
192,192,40130,1,0,0:0:0:0:
320,192,40227,1,0,0:0:0:0:
448,192,40324,1,0,0:0:0:0:
320,192,40421,1,0,0:0:0:0:
192,192,40614,1,0,0:0:0:0:
320,192,40711,1,0,0:0:0:0:
64,192,40905,1,0,0:0:0:0:
448,192,41001,1,0,0:0:0:0:
192,192,41195,1,0,0:0:0:0:
64,192,41292,1,0,0:0:0:0:
448,192,41389,1,0,0:0:0:0:
192,192,41485,1,0,0:0:0:0:
64,192,41582,1,0,0:0:0:80:Hat Basic.wav
320,192,41679,1,0,0:0:0:0:
64,192,41776,1,0,0:0:0:0:
448,192,41872,1,0,0:0:0:0:
192,192,41969,1,0,0:0:0:0:
320,192,42066,1,0,0:0:0:0:
64,192,42163,1,0,0:0:0:0:
192,192,42259,1,0,0:0:0:0:
448,192,42356,1,0,0:0:0:80:Hat Basic.wav
192,192,42453,1,0,0:0:0:0:
320,192,42550,1,0,0:0:0:0:
64,192,42647,1,0,0:0:0:0:
192,192,42743,1,0,0:0:0:0:
448,192,42840,1,0,0:0:0:0:
320,192,42937,1,0,0:0:0:0:
192,192,43034,1,0,0:0:0:0:
448,192,43130,128,0,43324:0:0:0:80:Hat Basic.wav
320,192,43130,1,0,0:0:0:0:
192,192,43324,1,0,0:0:0:0:
64,192,43518,1,4,0:0:0:0:
320,192,43518,1,0,0:0:0:0:
448,192,43518,1,4,0:0:0:0:
192,192,43711,1,0,0:0:0:0:
320,192,43905,1,0,0:0:0:80:Hat Basic.wav
64,192,43905,1,0,0:0:0:0:
192,192,44098,1,0,0:0:0:0:
448,192,44292,1,0,0:0:0:0:
64,192,44292,1,0,0:0:0:0:
320,192,44388,1,0,0:0:0:0:
192,192,44582,1,0,0:0:0:0:
448,192,44679,1,0,0:0:0:80:Hat Basic.wav
64,192,44679,1,0,0:0:0:0:
320,192,44872,1,0,0:0:0:0:
192,192,45066,1,0,0:0:0:0:
320,192,45066,128,0,46227:0:0:0:0:
448,192,45259,1,0,0:0:0:0:
192,192,45453,1,0,0:0:0:80:Hat Basic.wav
64,192,45647,1,0,0:0:0:0:
192,192,45840,1,0,0:0:0:0:
448,192,46034,1,0,0:0:0:0:
64,192,46227,1,0,0:0:0:0:
192,192,46227,1,0,0:0:0:80:Hat Basic.wav
448,192,46421,1,0,0:0:0:0:
192,192,46614,1,0,0:0:0:0:
320,192,46614,1,0,0:0:0:0:
64,192,46808,1,0,0:0:0:0:
192,192,47001,1,0,0:0:0:0:
448,192,47001,1,0,0:0:0:80:Hat Basic.wav
320,192,47195,1,0,0:0:0:0:
448,192,47388,1,0,0:0:0:0:
192,192,47388,1,0,0:0:0:0:
320,192,47485,1,0,0:0:0:0:
192,192,47679,1,0,0:0:0:0:
320,192,47776,1,0,0:0:0:80:Hat Basic.wav
64,192,47776,1,0,0:0:0:0:
448,192,47969,1,0,0:0:0:0:
192,192,48163,1,0,0:0:0:0:
64,192,48163,128,0,49324:0:0:0:0:
320,192,48356,1,0,0:0:0:0:
448,192,48550,1,0,0:0:0:80:Hat Basic.wav
320,192,48743,1,0,0:0:0:0:
192,192,48937,1,0,0:0:0:0:
320,192,49130,1,0,0:0:0:0:
192,192,49324,1,0,0:0:0:80:Hat Basic.wav
448,192,49324,1,0,0:0:0:0:
320,192,49711,1,0,0:0:0:0:
64,192,49711,1,4,0:0:0:0:
448,192,49711,1,4,0:0:0:0:
192,192,49905,1,0,0:0:0:0:
448,192,50098,1,0,0:0:0:80:Hat Basic.wav
64,192,50098,1,0,0:0:0:0:
192,192,50292,1,0,0:0:0:0:
320,192,50485,1,0,0:0:0:0:
64,192,50485,1,0,0:0:0:0:
192,192,50582,1,0,0:0:0:0:
320,192,50776,1,0,0:0:0:0:
192,192,50873,1,0,0:0:0:0:
448,192,50873,1,0,0:0:0:80:Hat Basic.wav
448,192,51066,1,0,0:0:0:0:
320,192,51259,128,0,52421:0:0:0:0:
64,192,51259,1,0,0:0:0:0:
448,192,51453,1,0,0:0:0:0:
192,192,51646,1,0,0:0:0:80:Hat Basic.wav
64,192,51840,128,0,52034:0:0:0:0:
448,192,52033,128,0,52227:0:0:0:0:
192,192,52227,128,0,52421:0:0:0:0:
448,192,52421,1,0,0:0:0:80:Hat Basic.wav
64,192,52421,1,0,0:0:0:0:
448,192,52808,1,0,0:0:0:0:
192,192,52808,1,0,0:0:0:0:
64,192,53001,1,0,0:0:0:0:
320,192,53195,1,0,0:0:0:80:Hat Basic.wav
192,192,53195,1,0,0:0:0:0:
448,192,53388,1,0,0:0:0:0:
64,192,53582,1,0,0:0:0:0:
320,192,53582,1,0,0:0:0:0:
448,192,53679,1,0,0:0:0:0:
64,192,53872,1,0,0:0:0:0:
192,192,53969,1,0,0:0:0:80:Hat Basic.wav
448,192,53969,1,0,0:0:0:0:
64,192,54163,1,0,0:0:0:0:
320,192,54356,1,0,0:0:0:0:
192,192,54356,128,0,55517:0:0:0:0:
64,192,54550,1,0,0:0:0:0:
448,192,54743,1,0,0:0:0:80:Hat Basic.wav
320,192,54937,128,0,55130:0:0:0:0:
448,192,55130,128,0,55324:0:0:0:0:
64,192,55324,128,0,55517:0:0:0:0:
320,192,55517,1,0,0:0:0:80:Hat Basic.wav
448,192,55517,1,0,0:0:0:0:
64,192,55905,1,4,0:0:0:0:
320,192,55905,1,4,0:0:0:0:
448,192,55905,1,0,0:0:0:0:
448,192,56098,1,0,0:0:0:0:
192,192,56292,1,0,0:0:0:0:
64,192,56292,1,0,0:0:0:0:
448,192,56292,1,0,0:0:0:0:
320,192,56485,1,0,0:0:0:0:
320,192,56679,1,0,0:0:0:0:
448,192,56679,1,0,0:0:0:0:
64,192,56679,1,0,0:0:0:0:
192,192,56872,1,0,0:0:0:0:
64,192,57066,1,0,0:0:0:0:
192,192,57066,1,0,0:0:0:0:
448,192,57066,1,0,0:0:0:0:
64,192,57259,1,0,0:0:0:0:
320,192,57453,1,0,0:0:0:0:
448,192,57453,1,0,0:0:0:0:
64,192,57453,1,0,0:0:0:0:
64,192,57647,1,0,0:0:0:15:VEC3 Bassdrums Clubby 004.wav
192,192,57647,1,8,3:0:0:15:VEC3 Bassdrums Clubby 004.wav
448,192,57647,1,8,3:0:0:15:VEC3 Bassdrums Clubby 004.wav
64,192,57840,1,0,0:0:0:15:VEC3 Bassdrums Clubby 004.wav
320,192,57840,1,8,3:0:0:15:VEC3 Bassdrums Clubby 004.wav
448,192,57840,1,8,3:0:0:15:VEC3 Bassdrums Clubby 004.wav
64,192,58034,1,0,0:0:0:15:VEC3 Bassdrums Clubby 004.wav
192,192,58034,1,8,3:0:0:15:VEC3 Bassdrums Clubby 004.wav
320,192,58034,1,8,3:0:0:15:VEC3 Bassdrums Clubby 004.wav
448,192,58034,1,8,3:0:0:15:VEC3 Bassdrums Clubby 004.wav
448,192,58227,1,8,3:0:0:15:VEC3 Bassdrums Clubby 004.wav
320,192,58227,1,8,3:0:0:15:VEC3 Bassdrums Clubby 004.wav
192,192,58227,1,8,3:0:0:15:VEC3 Bassdrums Clubby 004.wav
64,192,58227,1,0,0:0:0:15:VEC3 Bassdrums Clubby 004.wav
64,192,58421,128,0,59001:0:0:0:0:
192,192,58614,128,0,59001:0:0:0:0:
320,192,58808,128,0,59001:0:0:0:0:
448,192,59001,1,4,0:2:0:0:
320,192,59195,1,0,0:0:0:0:
64,192,59388,1,0,0:0:0:0:
448,192,59388,1,0,0:0:0:30:VEC3 Bassdrums Clubby 004.wav
192,192,59582,128,0,59969:0:0:0:0:
448,192,59775,1,0,0:0:0:30:VEC3 Bassdrums Clubby 004.wav
320,192,59969,1,0,0:0:0:0:
448,192,60163,1,0,0:0:0:30:VEC3 Bassdrums Clubby 004.wav
192,192,60163,1,0,0:0:0:0:
64,192,60356,1,0,0:0:0:0:
320,192,60550,1,0,0:0:0:30:VEC3 Bassdrums Clubby 004.wav
192,192,60550,1,0,0:0:0:0:
448,192,60743,1,0,0:0:0:0:
192,192,60937,1,0,0:0:0:30:VEC3 Bassdrums Clubby 004.wav
64,192,60937,1,0,0:0:0:0:
320,192,61130,128,0,61518:0:0:0:0:
64,192,61324,1,0,0:0:0:30:VEC3 Bassdrums Clubby 004.wav
448,192,61517,1,0,0:0:0:0:
192,192,61711,1,0,0:0:0:30:VEC3 Bassdrums Clubby 004.wav
448,192,61711,1,0,0:0:0:0:
320,192,61905,1,0,0:0:0:0:
64,192,62098,1,0,0:0:0:30:VEC3 Bassdrums Clubby 004.wav
448,192,62098,1,0,0:0:0:0:
192,192,62292,1,0,0:0:0:0:
320,192,62485,1,0,0:0:0:30:VEC3 Bassdrums Clubby 004.wav
64,192,62485,1,0,0:0:0:0:
192,192,62679,128,0,63066:0:0:0:0:
448,192,62872,1,0,0:0:0:30:VEC3 Bassdrums Clubby 004.wav
64,192,63066,1,0,0:0:0:0:
192,192,63259,1,0,0:0:0:0:
320,192,63259,1,0,0:0:0:30:VEC3 Bassdrums Clubby 004.wav
448,192,63453,1,0,0:0:0:0:
448,192,63647,1,0,0:0:0:30:VEC3 Bassdrums Clubby 004.wav
320,192,63647,128,0,64614:0:0:0:0:
64,192,63840,1,8,0:0:0:0:
192,192,63840,1,8,0:0:0:0:
448,192,64033,1,0,0:0:0:0:
64,192,64227,1,8,0:0:0:0:
192,192,64227,1,8,0:0:0:0:
64,192,64421,1,8,0:0:0:0:
192,192,64421,1,8,0:0:0:0:
64,192,64614,1,8,0:0:0:0:
192,192,64614,1,8,0:0:0:0:
192,192,64808,1,0,0:0:0:0:
448,192,64808,1,0,0:0:0:80:Hat Basic.wav
320,192,65001,1,0,0:0:0:0:
448,192,65001,1,0,0:0:0:80:Hat Basic.wav
64,192,65195,1,0,0:0:0:0:
192,192,65195,1,4,0:0:0:0:
448,192,65195,1,4,0:0:0:0:
320,192,65388,1,0,0:0:0:0:
192,192,65582,1,0,0:0:0:0:
320,192,65582,1,0,0:0:0:80:Hat Basic.wav
64,192,65776,128,0,66163:0:0:0:0:
448,192,65969,1,0,0:0:0:0:
320,192,66163,1,0,0:0:0:0:
192,192,66356,1,0,0:0:0:0:
448,192,66356,1,0,0:0:0:80:Hat Basic.wav
448,192,66550,1,0,0:0:0:0:
64,192,66743,1,0,0:0:0:0:
320,192,66743,1,0,0:0:0:0:
64,192,66937,1,0,0:0:0:0:
192,192,67130,1,0,0:0:0:0:
320,192,67130,1,0,0:0:0:80:Hat Basic.wav
192,192,67324,128,0,67711:0:0:0:0:
448,192,67517,1,0,0:0:0:0:
320,192,67711,1,0,0:0:0:0:
64,192,67905,1,0,0:0:0:0:
448,192,67905,1,0,0:0:0:80:Hat Basic.wav
192,192,68098,1,0,0:0:0:0:
192,192,68292,1,0,0:0:0:0:
448,192,68292,1,0,0:0:0:0:
320,192,68485,1,0,0:0:0:0:
64,192,68679,1,0,0:0:0:80:Hat Basic.wav
448,192,68679,1,0,0:0:0:0:
448,192,68872,128,0,69259:0:0:0:0:
192,192,69066,1,0,0:0:0:0:
64,192,69259,1,0,0:0:0:0:
64,192,69453,1,0,0:0:0:0:
320,192,69453,1,0,0:0:0:80:Hat Basic.wav
448,192,69647,1,0,0:0:0:0:
320,192,69840,128,0,70808:0:0:0:0:
64,192,69840,1,0,0:0:0:0:
192,192,69840,1,0,0:0:0:0:
192,192,70227,1,0,0:0:0:80:Hat Basic.wav
448,192,70614,1,0,0:0:0:0:
192,192,70808,1,0,0:0:0:0:
64,192,70905,1,0,0:0:0:0:
192,192,71001,1,0,0:0:0:80:Hat Basic.wav
320,192,71098,1,0,0:0:0:0:
448,192,71195,1,0,0:0:0:0:
320,192,71292,1,0,0:0:0:0:
448,192,71388,1,4,0:0:0:0:
64,192,71388,1,0,0:0:0:0:
192,192,71389,1,4,1:0:0:0:
192,192,71582,1,0,0:0:0:0:
320,192,71679,1,0,0:0:0:0:
192,192,71775,1,0,0:0:0:0:
448,192,71775,1,0,0:0:0:80:Hat Basic.wav
64,192,71872,1,0,0:0:0:0:
192,192,71969,1,0,0:0:0:0:
64,192,72162,1,0,0:0:0:0:
448,192,72163,1,0,0:0:0:0:
320,192,72259,1,0,0:0:0:0:
448,192,72356,1,0,0:0:0:0:
320,192,72453,1,0,0:0:0:0:
448,192,72550,1,0,0:0:0:80:Hat Basic.wav
64,192,72550,1,0,0:0:0:0:
320,192,72646,1,0,0:0:0:0:
192,192,72743,1,0,0:0:0:0:
64,192,72840,1,0,0:0:0:0:
192,192,72937,1,0,0:0:0:0:
320,192,72937,1,0,0:0:0:0:
192,192,73130,1,0,0:0:0:0:
320,192,73227,1,0,0:0:0:0:
448,192,73324,1,0,0:0:0:0:
192,192,73324,1,0,0:0:0:80:Hat Basic.wav
64,192,73421,1,0,0:0:0:0:
192,192,73517,1,0,0:0:0:0:
192,192,73711,1,0,0:0:0:0:
320,192,73711,1,0,0:0:0:0:
64,192,73808,1,0,0:0:0:0:
448,192,73905,1,0,0:0:0:0:
64,192,74001,1,0,0:0:0:0:
192,192,74098,1,0,0:0:0:0:
448,192,74098,1,0,0:0:0:80:Hat Basic.wav
320,192,74195,1,0,0:0:0:0:
192,192,74292,1,0,0:0:0:0:
64,192,74388,1,0,0:0:0:0:
320,192,74485,1,0,0:0:0:0:
448,192,74485,1,0,0:0:0:0:
192,192,74679,1,0,0:0:0:0:
64,192,74776,1,0,0:0:0:0:
192,192,74872,1,0,0:0:0:80:Hat Basic.wav
448,192,74872,1,0,0:0:0:0:
320,192,74969,1,0,0:0:0:0:
448,192,75066,1,0,0:0:0:0:
64,192,75259,1,0,0:0:0:0:
320,192,75259,1,0,0:0:0:0:
192,192,75356,1,0,0:0:0:0:
320,192,75453,1,0,0:0:0:0:
448,192,75550,1,0,0:0:0:0:
192,192,75646,1,0,0:0:0:0:
320,192,75647,1,0,0:0:0:80:Hat Basic.wav
64,192,75743,1,0,0:0:0:0:
192,192,75840,1,0,0:0:0:0:
448,192,75937,1,0,0:0:0:0:
192,192,76033,1,0,0:0:0:0:
320,192,76034,1,0,0:0:0:0:
64,192,76130,1,0,0:0:0:0:
448,192,76227,1,0,0:0:0:0:
192,192,76324,1,0,0:0:0:0:
64,192,76421,1,0,0:0:0:0:
320,192,76421,1,0,0:0:0:80:Hat Basic.wav
192,192,76517,1,0,0:0:0:0:
448,192,76614,1,0,0:0:0:0:
192,192,76711,1,0,0:0:0:0:
64,192,76808,1,0,0:0:0:0:
448,192,76808,1,0,0:0:0:0:
320,192,76905,1,0,0:0:0:0:
192,192,77001,1,0,0:0:0:0:
448,192,77098,1,0,0:0:0:0:
64,192,77195,1,0,0:0:0:0:
192,192,77195,1,0,0:0:0:80:Hat Basic.wav
320,192,77292,1,0,0:0:0:0:
192,192,77389,128,0,77582:0:0:0:0:
448,192,77582,1,0,0:0:0:0:
320,192,77582,1,4,0:0:0:0:
64,192,77582,1,4,0:0:0:0:
192,192,77775,1,0,0:0:0:0:
64,192,77872,1,0,0:0:0:0:
192,192,77969,1,0,0:0:0:80:Hat Basic.wav
448,192,77969,1,0,0:0:0:0:
320,192,78066,1,0,0:0:0:0:
448,192,78162,1,0,0:0:0:0:
448,192,78356,1,0,0:0:0:0:
320,192,78356,1,0,0:0:0:0:
192,192,78453,1,0,0:0:0:0:
64,192,78550,1,0,0:0:0:0:
192,192,78647,1,0,0:0:0:0:
64,192,78743,1,0,0:0:0:0:
448,192,78743,1,0,0:0:0:80:Hat Basic.wav
192,192,78840,1,0,0:0:0:0:
320,192,78937,1,0,0:0:0:0:
448,192,79033,1,0,0:0:0:0:
192,192,79130,1,0,0:0:0:0:
64,192,79130,1,0,0:0:0:0:
64,192,79324,1,0,0:0:0:0:
192,192,79421,1,0,0:0:0:0:
320,192,79517,1,0,0:0:0:80:Hat Basic.wav
64,192,79517,1,0,0:0:0:0:
448,192,79614,1,0,0:0:0:0:
320,192,79711,1,0,0:0:0:0:
448,192,79904,1,0,0:0:0:0:
64,192,79905,1,0,0:0:0:0:
320,192,80001,1,0,0:0:0:0:
192,192,80098,1,0,0:0:0:0:
320,192,80195,1,0,0:0:0:0:
448,192,80292,1,0,0:0:0:80:Hat Basic.wav
64,192,80292,1,0,0:0:0:0:
320,192,80388,1,0,0:0:0:0:
192,192,80485,1,0,0:0:0:0:
64,192,80582,1,0,0:0:0:0:
448,192,80679,1,0,0:0:0:0:
192,192,80679,1,0,0:0:0:0:
192,192,80872,1,0,0:0:0:0:
320,192,80969,1,0,0:0:0:0:
192,192,81066,1,0,0:0:0:80:Hat Basic.wav
448,192,81066,1,0,0:0:0:0:
64,192,81163,1,0,0:0:0:0:
448,192,81259,1,0,0:0:0:0:
192,192,81453,1,0,0:0:0:0:
320,192,81453,1,0,0:0:0:0:
448,192,81550,1,0,0:0:0:0:
64,192,81647,1,0,0:0:0:0:
320,192,81743,1,0,0:0:0:0:
448,192,81840,1,0,0:0:0:80:Hat Basic.wav
64,192,81840,1,0,0:0:0:0:
192,192,81937,1,0,0:0:0:0:
448,192,82034,1,0,0:0:0:0:
64,192,82130,1,0,0:0:0:0:
320,192,82227,1,0,0:0:0:0:
448,192,82227,1,0,0:0:0:0:
192,192,82324,1,0,0:0:0:0:
448,192,82421,1,0,0:0:0:0:
320,192,82517,1,0,0:0:0:0:
64,192,82614,1,0,0:0:0:0:
192,192,82614,1,0,0:0:0:80:Hat Basic.wav
320,192,82711,1,0,0:0:0:0:
192,192,82808,1,0,0:0:0:0:
448,192,82905,1,0,0:0:0:0:
320,192,83001,1,0,0:0:0:0:
192,192,83001,1,0,0:0:0:0:
64,192,83098,1,0,0:0:0:0:
192,192,83195,1,0,0:0:0:80:Hat Basic.wav
448,192,83195,1,0,0:0:0:80:Hat Basic.wav
320,192,83292,1,0,0:0:0:0:
64,192,83388,1,0,0:0:0:80:Hat Basic.wav
448,192,83388,1,0,0:0:0:80:Hat Basic.wav
192,192,83485,1,0,0:0:0:0:
320,192,83582,1,0,0:0:0:80:Hat Basic.wav
64,192,83582,1,0,0:0:0:80:Hat Basic.wav
448,192,83679,1,0,0:0:0:0:
320,192,83775,1,4,0:0:0:0:
192,192,83775,1,4,0:0:0:0:
64,192,83776,128,0,86872:0:0:0:0:
320,192,85324,128,0,86872:0:0:0:0:
192,192,86872,128,0,88421:0:0:0:0:
448,192,88421,128,0,94614:0:0:0:0:
192,192,89969,128,0,94614:0:0:0:0:
