osu file format v12

[General]
AudioFilename: Ninja Ryukenden 116.mp3
AudioLeadIn: 0
PreviewTime: 3259
Countdown: 0
SampleSet: Soft
StackLeniency: 0.7
Mode: 3
LetterboxInBreaks: 0
SpecialStyle: 0
WidescreenStoryboard: 1

[Editor]
DistanceSpacing: 0.9
BeatDivisor: 4
GridSize: 8

[Metadata]
Title:Senretsu no ryu
TitleUnicode:Senretsu no ryu
Artist:Deuce
ArtistUnicode:Deuce
Creator:Mashiro-Fang
Version:Easy
Source:Ninja Ryukenden
Tags:Spy Simple_Star
BeatmapID:320800
BeatmapSetID:125464

[Difficulty]
HPDrainRate:6
CircleSize:4
OverallDifficulty:7
ApproachRate:5
SliderMultiplier:1.4
SliderTickRate:1

[Events]
//Background and Video events
0,0,"GX6]ZYZ[T6EXDWITE%0UTG3.jpg",0,0
//Break Periods
//Storyboard Layer 0 (Background)
//Storyboard Layer 1 (Fail)
//Storyboard Layer 2 (Pass)
//Storyboard Layer 3 (Foreground)
//Storyboard Sound Samples
//Background Colour Transformations
3,100,163,162,255

[TimingPoints]
163,387.096774193548,4,2,0,35,1,0
31130,-100,4,2,0,35,0,1
43517,-100,4,2,0,35,0,0
71388,-100,4,2,0,35,0,1
83775,-100,4,2,0,35,0,0

[HitObjects]
320,192,163,1,4,0:0:0:0:
192,192,550,1,4,0:0:0:0:
64,192,937,1,4,0:0:0:0:
320,192,1324,1,4,0:0:0:0:
448,192,1711,1,4,0:0:0:0:
192,192,2098,1,0,3:0:0:0:
64,192,2485,1,0,3:0:0:0:
448,192,2679,128,0,3259:3:0:0:0:
320,192,3259,1,4,1:2:0:0:
64,192,3647,1,0,0:0:0:80:Hat Basic.wav
448,192,4034,1,0,0:0:0:0:
192,192,4421,1,0,0:0:0:80:Hat Basic.wav
320,192,4808,128,0,5195:0:0:0:0:
64,192,5195,1,0,0:0:0:80:Hat Basic.wav
192,192,5388,1,0,0:0:0:0:
448,192,5582,1,0,0:0:0:0:
320,192,5775,1,0,0:0:0:0:
192,192,5969,1,0,0:0:0:80:Hat Basic.wav
320,192,6356,1,0,0:0:0:0:
64,192,6743,1,0,0:0:0:80:Hat Basic.wav
192,192,7130,1,0,0:0:0:0:
320,192,7517,1,0,0:0:0:80:Hat Basic.wav
448,192,7904,128,0,8292:0:0:0:0:
64,192,8292,1,0,0:0:0:80:Hat Basic.wav
192,192,8485,1,0,0:0:0:0:
320,192,8679,1,0,0:0:0:0:
192,192,8872,1,0,0:0:0:0:
64,192,9066,1,0,0:0:0:80:Hat Basic.wav
192,192,9453,1,4,0:0:0:0:
320,192,9453,1,4,0:0:0:0:
448,192,9840,1,0,0:0:0:80:Hat Basic.wav
64,192,10227,1,0,0:0:0:0:
448,192,10614,1,0,0:0:0:80:Hat Basic.wav
192,192,11001,128,0,11388:0:0:0:0:
320,192,11388,1,0,0:0:0:80:Hat Basic.wav
448,192,11582,1,0,0:0:0:0:
320,192,11775,1,0,0:0:0:0:
192,192,11969,1,0,0:0:0:0:
64,192,12162,1,0,0:0:0:80:Hat Basic.wav
64,192,12550,1,0,0:0:0:0:
448,192,12937,1,0,0:0:0:80:Hat Basic.wav
320,192,13324,1,0,0:0:0:0:
192,192,13711,1,0,0:0:0:80:Hat Basic.wav
64,192,14098,128,0,14485:0:0:0:0:
192,192,14485,1,0,0:0:0:80:Hat Basic.wav
320,192,14679,1,0,0:0:0:0:
448,192,14872,1,0,0:0:0:0:
192,192,15066,1,0,0:0:0:0:
64,192,15259,1,0,0:0:0:80:Hat Basic.wav
192,192,15647,1,4,0:0:0:0:
320,192,15647,1,4,0:0:0:0:
448,192,16033,1,0,0:0:0:0:
320,192,16421,1,0,0:0:0:0:
192,192,16808,1,0,0:0:0:0:
64,192,17195,1,0,0:0:0:0:
64,192,17388,1,0,0:0:0:15:VEC3 Bassdrums Clubby 004.wav
448,192,17582,1,0,0:0:0:15:VEC3 Bassdrums Clubby 004.wav
320,192,17775,1,0,0:0:0:15:VEC3 Bassdrums Clubby 004.wav
192,192,17969,1,0,0:0:0:15:VEC3 Bassdrums Clubby 004.wav
320,192,18743,1,4,0:0:0:0:
448,192,18743,1,4,0:0:0:0:
64,192,19130,1,0,0:0:0:80:Hat Basic.wav
320,192,19518,1,0,0:0:0:0:
192,192,19905,1,0,0:0:0:80:Hat Basic.wav
448,192,20292,1,0,0:0:0:0:
64,192,20679,1,0,0:0:0:80:Hat Basic.wav
320,192,21066,1,0,0:0:0:0:
192,192,21453,1,0,0:0:0:80:Hat Basic.wav
320,192,21840,1,0,0:0:0:0:
64,192,22227,1,0,0:0:0:80:Hat Basic.wav
448,192,22614,1,0,0:0:0:0:
192,192,23001,1,0,0:0:0:80:Hat Basic.wav
192,192,23389,128,0,24550:0:0:0:0:
320,192,24550,1,0,0:0:0:80:Hat Basic.wav
64,192,24937,1,4,0:0:0:0:
448,192,24937,1,4,0:0:0:0:
192,192,25324,1,0,0:0:0:80:Hat Basic.wav
64,192,25711,1,0,0:0:0:0:
320,192,26098,1,0,0:0:0:80:Hat Basic.wav
448,192,26485,1,0,0:0:0:0:
320,192,26872,1,0,0:0:0:80:Hat Basic.wav
192,192,27259,1,0,0:0:0:0:
320,192,27647,1,0,0:0:0:80:Hat Basic.wav
192,192,28034,1,0,0:0:0:0:
64,192,28421,1,0,0:0:0:80:Hat Basic.wav
192,192,28808,1,0,0:0:0:0:
448,192,29195,1,0,0:0:0:80:Hat Basic.wav
320,192,29582,128,0,30743:0:0:0:0:
192,192,30743,1,0,0:0:0:80:Hat Basic.wav
64,192,31130,1,4,0:0:0:0:
320,192,31130,1,4,0:0:0:0:
192,192,31518,1,0,0:0:0:80:Hat Basic.wav
448,192,31905,1,0,0:0:0:0:
192,192,32292,1,0,0:0:0:80:Hat Basic.wav
64,192,32679,1,0,0:0:0:0:
320,192,33066,1,0,0:0:0:80:Hat Basic.wav
192,192,33453,1,0,0:0:0:0:
448,192,33840,1,0,0:0:0:80:Hat Basic.wav
320,192,34227,1,0,0:0:0:0:
192,192,34614,1,0,0:0:0:80:Hat Basic.wav
64,192,35001,1,0,0:0:0:0:
320,192,35388,1,0,0:0:0:80:Hat Basic.wav
192,192,35776,1,0,0:0:0:0:
448,192,36163,1,0,0:0:0:80:Hat Basic.wav
320,192,36550,1,0,0:0:0:0:
448,192,36937,1,0,0:0:0:80:Hat Basic.wav
64,192,37324,1,4,0:0:0:0:
320,192,37324,1,4,0:0:0:0:
448,192,37711,1,0,0:0:0:80:Hat Basic.wav
192,192,38098,1,0,0:0:0:0:
320,192,38485,1,0,0:0:0:80:Hat Basic.wav
64,192,38872,1,0,0:0:0:0:
192,192,39259,1,0,0:0:0:80:Hat Basic.wav
320,192,39646,1,0,0:0:0:0:
448,192,40034,1,0,0:0:0:80:Hat Basic.wav
320,192,40421,1,0,0:0:0:0:
64,192,40808,1,0,0:0:0:80:Hat Basic.wav
192,192,41195,1,0,0:0:0:0:
64,192,41582,1,0,0:0:0:80:Hat Basic.wav
320,192,41969,1,0,0:0:0:0:
192,192,42356,1,0,0:0:0:80:Hat Basic.wav
448,192,42743,1,0,0:0:0:0:
320,192,43130,1,0,0:0:0:80:Hat Basic.wav
448,192,43517,1,4,0:0:0:0:
64,192,43517,1,4,0:0:0:0:
192,192,43904,1,0,0:0:0:80:Hat Basic.wav
64,192,44292,1,0,0:0:0:0:
448,192,44679,1,0,0:0:0:80:Hat Basic.wav
320,192,45066,128,0,45453:0:0:0:0:
64,192,45453,1,0,0:0:0:80:Hat Basic.wav
192,192,45646,1,0,0:0:0:0:
320,192,45840,1,0,0:0:0:0:
448,192,46033,1,0,0:0:0:0:
320,192,46227,1,0,0:0:0:80:Hat Basic.wav
448,192,46614,1,0,0:0:0:0:
192,192,47001,1,0,0:0:0:80:Hat Basic.wav
448,192,47389,1,0,0:0:0:0:
64,192,47776,1,0,0:0:0:80:Hat Basic.wav
320,192,48162,128,0,48550:0:0:0:0:
64,192,48550,1,0,0:0:0:80:Hat Basic.wav
192,192,48743,1,0,0:0:0:0:
448,192,48937,1,0,0:0:0:0:
320,192,49130,1,0,0:0:0:0:
192,192,49324,1,0,0:0:0:80:Hat Basic.wav
64,192,49711,1,4,0:0:0:0:
448,192,49711,1,4,0:0:0:0:
320,192,50098,1,0,0:0:0:80:Hat Basic.wav
448,192,50485,1,0,0:0:0:0:
192,192,50872,1,0,0:0:0:80:Hat Basic.wav
64,192,51259,128,0,51646:0:0:0:0:
192,192,51646,1,0,0:0:0:80:Hat Basic.wav
320,192,51840,1,0,0:0:0:0:
448,192,52033,1,0,0:0:0:0:
192,192,52227,1,0,0:0:0:0:
64,192,52421,1,0,0:0:0:80:Hat Basic.wav
320,192,52808,1,0,0:0:0:0:
64,192,53195,1,0,0:0:0:80:Hat Basic.wav
192,192,53582,1,0,0:0:0:0:
448,192,53969,1,0,0:0:0:80:Hat Basic.wav
320,192,54356,128,0,54743:0:0:0:0:
64,192,54743,1,0,0:0:0:80:Hat Basic.wav
192,192,54937,1,0,0:0:0:0:
320,192,55130,1,0,0:0:0:0:
192,192,55324,1,0,0:0:0:0:
64,192,55517,1,0,0:0:0:80:Hat Basic.wav
448,192,55904,1,4,0:0:0:0:
192,192,55905,1,4,0:0:0:0:
320,192,56292,1,0,0:0:0:0:
192,192,56679,1,0,0:0:0:0:
64,192,57066,1,0,0:0:0:0:
64,192,57453,1,0,0:0:0:0:
192,192,57646,1,0,0:0:0:15:VEC3 Bassdrums Clubby 004.wav
448,192,57840,1,0,0:0:0:15:VEC3 Bassdrums Clubby 004.wav
320,192,58033,1,0,0:0:0:15:VEC3 Bassdrums Clubby 004.wav
192,192,58227,1,0,0:0:0:15:VEC3 Bassdrums Clubby 004.wav
64,192,59001,1,4,0:0:0:0:
320,192,59001,1,4,0:0:0:0:
192,192,59195,1,0,0:0:0:0:
192,192,59582,1,0,0:0:0:0:
448,192,59969,1,0,0:0:0:0:
448,192,60356,1,0,0:0:0:0:
320,192,60743,1,0,0:0:0:0:
320,192,61130,1,0,0:0:0:0:
192,192,61517,1,0,0:0:0:0:
192,192,61904,1,0,0:0:0:0:
64,192,62292,1,0,0:0:0:0:
64,192,62679,1,0,0:0:0:0:
448,192,63066,1,0,0:0:0:0:
192,192,63453,1,0,0:0:0:0:
320,192,63647,128,0,64808:0:0:0:0:
192,192,64808,1,0,0:0:0:60:Hat Basic.wav
320,192,65001,1,0,0:0:0:0:
64,192,65195,1,4,0:0:0:0:
448,192,65195,1,4,0:0:0:0:
320,192,65582,1,0,0:0:0:80:Hat Basic.wav
64,192,65969,1,0,0:0:0:0:
448,192,66356,1,0,0:0:0:80:Hat Basic.wav
192,192,66743,1,0,0:0:0:0:
64,192,67130,1,0,0:0:0:80:Hat Basic.wav
320,192,67518,1,0,0:0:0:0:
448,192,67905,1,0,0:0:0:80:Hat Basic.wav
192,192,68292,1,0,0:0:0:0:
448,192,68679,1,0,0:0:0:80:Hat Basic.wav
192,192,69066,1,0,0:0:0:0:
64,192,69453,1,0,0:0:0:80:Hat Basic.wav
320,192,69840,128,0,70808:0:0:0:0:
448,192,70808,128,0,71388:0:0:0:0:
64,192,71389,1,4,0:0:0:0:
320,192,71389,1,4,0:0:0:0:
192,192,71776,1,0,0:0:0:80:Hat Basic.wav
448,192,72163,1,0,0:0:0:0:
64,192,72550,1,0,0:0:0:80:Hat Basic.wav
320,192,72937,1,0,0:0:0:0:
64,192,73324,1,0,0:0:0:80:Hat Basic.wav
192,192,73711,1,0,0:0:0:0:
448,192,74098,1,0,0:0:0:80:Hat Basic.wav
320,192,74485,1,0,0:0:0:0:
64,192,74872,1,0,0:0:0:80:Hat Basic.wav
192,192,75259,1,0,0:0:0:0:
64,192,75647,1,0,0:0:0:80:Hat Basic.wav
320,192,76034,1,0,0:0:0:0:
192,192,76421,1,0,0:0:0:80:Hat Basic.wav
448,192,76808,1,0,0:0:0:0:
320,192,77195,1,0,0:0:0:80:Hat Basic.wav
192,192,77582,1,4,0:0:0:0:
64,192,77582,1,4,0:0:0:0:
320,192,77969,1,0,0:0:0:80:Hat Basic.wav
448,192,78356,1,0,0:0:0:0:
320,192,78743,1,0,0:0:0:80:Hat Basic.wav
64,192,79130,1,0,0:0:0:0:
320,192,79518,1,0,0:0:0:80:Hat Basic.wav
448,192,79904,1,0,0:0:0:0:
192,192,80292,1,0,0:0:0:80:Hat Basic.wav
448,192,80679,1,0,0:0:0:0:
320,192,81066,1,0,0:0:0:80:Hat Basic.wav
64,192,81453,1,0,0:0:0:0:
192,192,81840,1,0,0:0:0:80:Hat Basic.wav
448,192,82227,1,0,0:0:0:0:
320,192,82614,1,0,0:0:0:80:Hat Basic.wav
192,192,83001,1,0,0:0:0:0:
448,192,83195,1,0,0:0:0:80:Hat Basic.wav
64,192,83389,1,0,0:0:0:80:Hat Basic.wav
320,192,83582,1,0,0:0:0:80:Hat Basic.wav
192,192,83776,128,4,85324:0:0:0:0:
320,192,85324,128,0,86872:0:0:0:0:
64,192,86872,128,0,88421:0:0:0:0:
192,192,88421,128,0,89969:0:0:0:0:
448,192,89969,128,0,94614:0:0:0:0:
