osu file format v5

[General]
AudioFilename: lz-bml.mp3
AudioLeadIn: 0
PreviewTime: -1
Countdown: 1
SampleSet: Normal
StackLeniency: 0.7
Mode: 0
LetterboxInBreaks: 1
EditorBookmarks: 27066,54112,67635,135248,148771
EditorDistanceSpacing: 0.899999976158142

[Metadata]
Title:Better Metal Link
Artist:Dethklok ft Link
Creator:awp
Version:Easy (NES)
Source:
Tags:

[Difficulty]
HPDrainRate:4
CircleSize:3
OverallDifficulty:3
SliderMultiplier:1.2
SliderTickRate:1

[Events]
//Background and Video events
0,0,"bml.jpg"
//Break Periods
2,54312,66195
2,135448,147331
//Storyboard Layer 0 (Background)
//Storyboard Layer 1 (Fail)
//Storyboard Layer 2 (Pass)
//Storyboard Layer 3 (Foreground)
//Storyboard Sound Samples
//Background Colour Transformations
3,100,163,162,255

[TimingPoints]
10,422.594731652345,4,1,0,80,1,0

[HitObjects]
256,80,27056,1,0
112,224,28323,1,0
112,336,28746,1,0
272,336,29380,1,0
272,160,30014,1,0
384,160,30436,1,0
384,320,31070,1,0
208,320,31704,1,0
208,208,32127,1,0
112,128,32549,6,0,C|304:128,1,180
256,80,33817,5,0
400,224,35084,1,0
400,336,35507,1,0
240,336,36141,1,0
240,160,36775,1,0
128,160,37197,1,0
128,320,37831,1,0
304,320,38465,1,0
304,208,38888,1,0
400,128,39310,6,0,C|208:128,1,180
96,224,40579,6,0,C|183:263|256:224,1,180
176,160,41846,1,0
256,224,42269,6,0,C|343:263|416:224,1,180
336,160,43536,1,0
416,96,43959,6,0,C|329:57|256:96,1,180
336,160,45226,1,0
256,96,45650,6,0,C|169:57|96:96,1,180
176,160,46917,1,0
80,192,47340,5,0
80,320,47974,2,0,C|288:320,1,180
416,320,49030,5,0
416,192,49664,2,0,C|208:192,1,180
256,96,50721,5,0
256,96,50932,1,0
256,192,51355,1,4
256,288,52411,5,0
256,288,52623,1,0
256,192,53045,1,0
256,192,53468,1,0
256,192,53890,1,0
256,192,54102,1,4
256,112,67625,5,0
80,288,68681,5,0
200,288,69104,1,0
200,288,69315,1,0
288,288,69632,2,0,L|408:288|408:95|304:96,1,390
112,72,72062,5,0
104,192,72484,1,0
144,232,72696,2,0,L|416:232|416:136|272:136,1,480
256,64,75443,5,0
128,192,76077,1,0
248,192,76499,1,0
368,192,76922,1,0
432,288,77344,1,0
312,288,77767,1,4
56,264,78823,5,0
64,80,79457,1,0
184,80,79880,1,0
304,80,80302,1,0
424,80,80725,2,0,L|424:208,1,120,0|4
424,200,81359,1,0
304,200,81782,1,0
184,200,82204,1,0
184,200,82415,1,0
48,312,83261,6,0,L|168:312,2,120
56,192,84528,5,4
56,192,84740,1,0
176,192,85162,1,0
296,192,85585,1,0
296,192,85796,1,0
160,48,86641,6,0,L|160:184,2,120
424,192,87909,6,0,L|360:192,1,60,4|0
240,192,88543,1,0
120,192,88966,2,0,L|200:192,1,60
256,56,90022,5,0
256,176,90445,1,0
256,56,90867,1,0
360,120,91290,6,0,L|360:184,1,60,4|0
352,296,91924,2,0,L|224:296,1,120
232,296,92558,1,0
112,56,93614,5,0
288,56,94248,1,0
256,328,94671,5,4
72,88,95727,2,0,L|72:152,3,60
240,88,96995,1,0
416,88,97629,1,0
416,208,98051,1,0
232,208,98685,2,0,L|40:208,1,180
128,304,99742,1,0
248,304,100164,2,0,L|352:304,1,60
424,304,100798,1,0
256,328,101432,5,4
440,88,102488,2,0,L|440:152,3,60
272,88,103756,1,0
96,88,104390,1,0
96,208,104812,1,0
280,208,105446,2,0,L|472:208,1,180
384,304,106503,1,0
264,304,106925,2,0,L|160:304,1,60
88,304,107559,1,0
256,64,108194,5,4
256,64,108405,1,0
256,184,108828,1,0
256,304,109250,2,0,L|256:232,1,60
72,88,110307,6,0,L|72:216,2,120
192,88,111575,5,4
192,88,111786,1,0
256,192,112208,1,0
344,112,112631,2,0,L|272:88,1,60
192,312,113687,6,0,L|320:312,2,120
256,208,114955,5,4
256,208,115167,1,0
256,88,115589,1,0
360,144,116012,1,0
296,144,116223,1,0
88,304,117068,5,0
208,304,117491,1,0
328,304,117913,1,0
376,192,118336,6,0,L|288:192,1,60,4|0
192,192,118970,1,0
72,192,119393,2,0,L|152:192,1,60
256,64,120660,1,0
256,192,121294,1,0
256,328,121717,5,4
72,56,122773,5,0
120,96,122985,1,0
72,128,123196,1,0
112,168,123407,1,0
288,192,124041,1,0
464,192,124675,1,0
352,192,125098,1,0
160,192,125731,1,0
256,40,126365,1,0
256,160,126788,1,0
256,280,127211,6,0,L|360:280,1,60
432,280,127844,1,0
440,96,128478,6,0,B|342:36|264:88,1,180,4|0
176,160,129535,2,0,B|120:208,3,60
296,264,130803,2,0,B|488:264,1,180
424,152,131859,2,0,B|232:152,1,180
88,56,133127,1,0
88,176,133549,1,0
176,256,133972,2,0,B|256:256,1,60
344,256,134606,1,0
256,112,135240,1,4
256,192,148763,12,0,152144
256,192,153200,12,0,155524
256,192,156581,12,0,158905
256,80,159962,5,0
256,200,160384,2,0,B|328:200,1,60
256,200,160912,1,0
256,320,161229,2,0,B|184:320,1,60
256,320,161758,1,0
256,200,162075,1,0
256,200,162286,5,0
456,192,163342,1,0
336,192,163765,1,0
336,192,163976,2,0,B|248:192|248:80|120:80|120:80|112:320,1,480
424,304,166723,5,0
424,184,167146,2,0,B|424:104,1,60
424,184,167674,1,0
304,184,167991,2,0,B|224:184,1,60
304,184,168519,1,0
168,184,168836,1,0
168,184,169047,1,0
384,72,170104,5,0
264,64,170526,1,0
264,64,170738,2,0,B|80:72|120:240|424:312,1,480
256,72,173485,5,0
144,112,173907,2,0,B|80:200,1,60
128,288,174435,2,0,B|152:344|384:352|472:312,1,330
442,322,175809,1,4
472,144,176443,1,0
352,144,176865,1,0
352,144,177077,1,0
128,88,177922,6,0,B|80:152|128:224,2,120
256,88,179190,1,4
256,88,179401,1,0
256,208,179824,1,0
256,328,180246,1,0
256,328,180457,1,0
400,136,181303,6,0,B|343:90|272:136,2,120
344,240,182570,6,0,B|272:240,1,60,4|0
160,240,183204,1,0
40,240,183627,2,0,B|112:240,1,60
336,248,184683,6,0,B|376:192|328:136,2,120
216,256,185951,5,4
216,256,186162,2,0,B|112:256|112:168,2,120
216,256,187219,1,0
360,96,188275,6,0,B|168:96,1,180
256,192,189332,12,4,202432
