osu file format v12

[General]
AudioFilename: Destinee & Paris - True Love (Nightcore Mix).mp3
AudioLeadIn: 0
PreviewTime: 32240
Countdown: 0
SampleSet: Normal
StackLeniency: 0.7
Mode: 0
LetterboxInBreaks: 1

[Editor]
DistanceSpacing: 1
BeatDivisor: 4
GridSize: 4

[Metadata]
Title:True Love (Nightcore Mix)
TitleUnicode:True Love (Nightcore Mix)
Artist:Destinee & Paris
ArtistUnicode:Destinee & Paris
Creator:Lally
Version:Our Love
Source:
Tags:ShadowSoul Byakugan249 Andrea osuplayer111 trance remix Monroe Collab
BeatmapID:238687
BeatmapSetID:87367

[Difficulty]
HPDrainRate:6
CircleSize:4
OverallDifficulty:6
ApproachRate:7
SliderMultiplier:1.6
SliderTickRate:1

[Events]
//Background and Video events
0,0,"owo.jpg",0,0
//Break Periods
2,58031,60128
2,112431,122528
//Storyboard Layer 0 (Background)
//Storyboard Layer 1 (Fail)
//Storyboard Layer 2 (Pass)
//Storyboard Layer 3 (Foreground)
Sprite,Foreground,Centre,"SB names\SS.png",150,420 L,32240,32 S,0,0,60,0.6,0.63 S,0,60,170,0.63,0.6 S,0,170,400,0.6 F,0,6840,7240,0,1 S,0,6840,19440,0.6 F,0,19040,19440,1,0 F,0,32240,32640,0,1 F,0,44640,45040,1,0 F,0,61040,61440,0,1 S,0,61040,86640,0.6 F,0,86240,86640,1,0 F,0,125040,125440,0,1 F,0,137440,137840,1,0
Sprite,Foreground,Centre,"SB names\SS.png",150,420 L,32240,32 S,0,0,60,0.6,0.63 S,0,60,170,0.63,0.6 S,0,170,400,0.6 L,125040,32 S,0,0,60,0.6,0.63 S,0,60,170,0.63,0.6 S,0,170,400,0.6 L,150640,32 S,0,0,60,0.6,0.63 S,0,60,170,0.63,0.6 S,0,170,400,0.6 F,0,6840,7240,0,1 S,0,6840,19440,0.6 F,0,19040,19440,1,0 F,0,32240,32640,0,1 F,0,44640,45040,1,0 F,0,61040,61440,0,1 S,0,61040,86640,0.6 F,0,86240,86640,1,0 F,0,125040,125440,0,1 F,0,137440,137840,1,0 F,0,150640,151040,0,1 F,0,163040,163440,1,0
Sprite,Foreground,Centre,"SB names\Lally.png",530,420 L,45040,32 S,0,0,60,0.6,0.63 S,0,60,170,0.63,0.6 S,0,170,400,0.6 L,86640,64 S,0,0,60,0.6,0.63 S,0,60,170,0.63,0.6 S,0,170,400,0.6 L,137840,32 S,0,0,60,0.6,0.63 S,0,60,170,0.63,0.6 S,0,170,400,0.6 F,0,19840,20240,0,1 S,0,19840,32240,0.6 F,0,31840,32240,1,0 F,0,45040,45440,0,1 F,0,57440,57840,1,0 F,0,86640,87040,0,1 F,0,111840,112240,1,0 F,0,137840,138240,0,1 F,0,150240,150640,1,0
//Storyboard Sound Samples
//Background Colour Transformations
3,100,163,162,255

[TimingPoints]
6628,400,4,2,1,60,1,0
19428,-100,4,2,1,70,0,0
32228,-100,4,1,1,80,0,1
44828,-100,4,1,1,80,0,0
45028,-100,4,1,1,80,0,1
57828,-100,4,2,1,70,0,0
86628,-100,4,1,1,80,0,1
99228,-100,4,1,1,80,0,0
99428,-100,4,1,1,80,0,1
112228,-100,4,2,1,40,0,0
123428,-100,4,2,1,50,0,0
125028,-100,4,1,1,80,0,1
137728,-100,4,2,1,80,0,0
137828,-100,4,1,1,80,0,1
150628,-100,4,1,1,70,0,0
163428,-100,4,2,1,50,0,0
165028,-100,4,2,1,25,0,0
166628,-100,4,2,1,5,0,0

[Colours]
Combo1 : 201,215,26
Combo2 : 85,225,88
Combo3 : 242,96,106
Combo4 : 24,202,211

[HitObjects]
124,44,6828,2,0,P|144:84|180:100,1,80,0|2,0:0|0:0,0:0:0:0:
256,100,7228,1,0,0:0:0:0:
336,108,7428,2,0,P|297:175|216:172,2,160,0|2|0,0:0|0:0|0:0,0:0:0:0:
186,267,8628,6,0,P|256:300|328:268,1,160,2|0,0:0|0:0,0:0:0:0:
368,112,9428,1,2,0:0:0:0:
224,44,9828,1,0,0:0:0:0:
152,80,10028,6,0,P|176:116|168:156,1,80,0|2,0:0|0:0,0:0:0:0:
92,132,10428,1,0,0:0:0:0:
124,204,10628,2,0,P|52:200|12:120,2,160,0|2|0,0:0|0:0|0:0,0:0:0:0:
192,160,11628,6,0,P|216:116|212:88,1,80,0|2,0:0|0:0,0:0:0:0:
300,88,12028,2,0,P|296:116|320:160,1,80
256,308,12628,1,2,0:0:0:0:
208,244,12828,2,0,P|180:284|180:320,1,80
104,292,13228,5,0,0:0:0:0:
64,224,13428,1,2,0:0:0:0:
84,148,13628,1,0,0:0:0:0:
136,88,13828,2,0,P|208:40|270:64,2,160,0|2|0,0:0|0:0|0:0,0:0:0:0:
212,116,14828,5,0,0:0:0:0:
264,176,15028,2,0,P|240:224|236:264,1,80,2|0,0:0|0:0,0:0:0:0:
312,276,15428,2,0,P|264:344|192:332,2,160,0|2|0,0:0|0:0|0:0,0:0:0:0:
232,264,16428,5,0,0:0:0:0:
152,256,16628,1,2,0:0:0:0:
80,288,16828,1,0,0:0:0:0:
20,344,17028,2,0,P|0:272|52:208,1,160,0|2,0:0|0:0,0:0:0:0:
116,164,17628,1,0,0:0:0:0:
176,112,17828,6,0,P|208:76|212:40,1,80
299,45,18228,2,0,P|304:76|336:112,1,80,2|0,0:0|0:0,0:0:0:0:
256,192,18628,12,4,19428,0:0:0:0:
208,144,19828,6,0,P|204:96|164:56,1,80,8|0,0:0|0:0,0:0:0:0:
304,144,20228,2,0,P|308:96|348:56,2,80,0|0|8,0:0|0:0|0:0,0:0:0:0:
464,200,21028,5,0,0:0:0:0:
416,264,21228,1,0,0:0:0:0:
356,316,21428,2,0,P|276:324|232:232,1,160,8|0,0:0|0:0,0:0:0:0:
252,188,22028,1,0,0:0:0:0:
312,240,22228,1,8,0:0:0:0:
188,344,22628,6,0,P|128:340|100:244,1,160,0|8,0:0|0:0,0:0:0:0:
172,264,23228,1,0,0:0:0:0:
172,264,23428,2,0,P|133:178|77:178,1,160,0|8,0:0|0:0,0:0:0:0:
200,76,24228,6,0,P|208:128|220:160,1,80
312,76,24628,2,0,P|304:128|292:160,1,80,8|0,0:0|0:0,0:0:0:0:
256,224,25028,2,0,L|256:316,2,80,0|0|8,0:0|0:0|0:0,0:0:0:0:
412,192,25828,6,0,P|380:124|304:72,1,160,0|8,0:0|0:0,0:0:0:0:
100,192,26628,2,0,P|132:124|208:72,2,160,0|8|0,0:0|0:0|0:0,0:0:0:0:
124,268,27628,1,0,0:0:0:0:
188,312,27828,1,8,0:0:0:0:
256,268,28028,1,0,0:0:0:0:
256,188,28228,2,0,L|256:92,2,80,0|0|8,0:0|0:0|0:0,0:0:0:0:
324,312,29028,5,0,0:0:0:0:
388,268,29228,1,0,0:0:0:0:
444,212,29428,2,0,P|476:160|476:140,1,80,8|0,0:0|0:0,0:0:0:0:
428,80,29828,2,0,P|396:132|396:152,2,80,0|0|8,0:0|0:0|0:0,0:0:0:0:
84,80,30628,6,0,P|116:132|116:152,2,80,0|0|2,0:0|0:0|0:0,0:0:0:0:
35,142,31228,2,0,P|36:160|68:212,1,80
196,308,31828,1,2,0:0:0:0:
440,192,32228,6,0,P|360:192|320:128,1,160,4|8,0:0|0:0,0:0:0:0:
72,192,33028,2,0,P|152:192|192:128,1,160,0|8,0:0|0:0,0:0:0:0:
112,112,33628,1,0,0:0:0:0:
256,44,34028,6,0,B|288:80|312:88|312:88|344:48|392:48,1,160
452,184,34628,1,0,0:0:0:0:
408,327,34828,1,0,0:0:0:0:
312,212,35028,1,8,0:0:0:0:
148,328,35428,6,0,P|160:240|104:192,1,160,0|8,0:0|0:0,0:0:0:0:
364,56,36228,2,0,P|352:144|408:192,1,160,0|8,0:0|0:0,0:0:0:0:
424,112,36828,1,0,0:0:0:0:
328,292,37228,6,0,B|256:328|256:328|184:292,1,160
256,228,37828,1,0,0:0:0:0:
172,92,38028,1,0,0:0:0:0:
340,92,38228,1,8,0:0:0:0:
172,304,38628,6,0,P|92:264|108:200,1,160,4|8,0:0|0:0,0:0:0:0:
340,304,39228,2,0,P|420:264|404:200,1,160
300,80,39828,2,0,P|256:136|212:80,1,160,8|0,0:0|0:0,0:0:0:0:
148,176,40428,2,0,P|144:216|116:248,1,80,0|8,0:0|0:0,0:0:0:0:
216,292,40828,2,0,P|256:284|296:296,1,80
392,245,41228,2,0,P|368:216|364:176,1,80,0|8,0:0|0:0,0:0:0:0:
188,204,41828,6,0,P|132:268|64:248,1,160,0|8,0:0|0:0,0:0:0:0:
324,204,42428,2,0,P|380:268|448:248,1,160
312,72,43028,2,0,P|256:120|200:72,1,160,8|0,0:0|0:0,0:0:0:0:
124,100,43628,5,0,0:0:0:0:
100,132,43728,1,0,0:0:0:0:
60,144,43828,1,8,0:0:0:0:
80,216,44028,2,0,P|112:256|140:260,1,80
216,248,44428,1,0,0:0:0:0:
272,188,44628,1,8,0:0:0:0:
280,108,44828,1,0,0:0:0:0:
256,32,45028,6,0,P|336:52|352:136,1,160,4|8,0:0|0:0,0:0:0:0:
340,196,45628,1,0,0:0:0:0:
404,244,45828,2,0,P|356:300|272:292,1,160,0|8,0:0|0:0,0:0:0:0:
216,240,46428,1,0,0:0:0:0:
152,288,46628,1,0,0:0:0:0:
64,156,47028,6,0,P|76:84|160:56,1,160,8|0,0:0|0:0,0:0:0:0:
200,116,47628,1,0,0:0:0:0:
200,116,47828,2,0,P|216:172|208:224,1,80,8|0,0:0|0:0,0:0:0:0:
136,204,48228,6,0,P|135:225|151:281,1,80
176,360,48628,2,0,P|216:312|220:272,1,80,8|0,0:0|0:0,0:0:0:0:
292,296,49028,2,0,P|296:312|336:360,1,80,0|0,0:0|0:0,0:0:0:0:
360,281,49428,2,0,P|376:225|376:204,1,80,8|0,0:0|0:0,0:0:0:0:
304,168,49828,6,0,P|380:120|440:152,2,160,0|8|0,0:0|0:0|0:0,0:0:0:0:
256,232,50828,1,0,0:0:0:0:
208,168,51028,2,0,P|132:120|72:152,1,160,8|4,0:0|0:0,0:0:0:0:
40,220,51628,1,0,0:0:0:0:
80,308,51828,5,8,0:0:0:0:
80,308,52028,1,0,0:0:0:0:
432,308,52428,1,0,0:0:0:0:
432,308,52628,1,8,0:0:0:0:
404,68,53028,5,0,0:0:0:0:
404,68,53228,1,0,0:0:0:0:
404,68,53428,2,0,P|316:100|296:168,1,160,8|0,0:0|0:0,0:0:0:0:
324,232,54028,1,0,0:0:0:0:
256,276,54228,1,8,0:0:0:0:
188,232,54428,1,0,0:0:0:0:
216,156,54628,6,0,P|196:100|108:68,2,160,0|8|0,0:0|0:0|0:0,0:0:0:0:
80,240,55828,1,8,0:0:0:0:
256,332,56228,1,0,0:0:0:0:
256,332,56428,1,0,0:0:0:0:
432,240,56828,1,0,0:0:0:0:
432,240,57028,1,0,0:0:0:0:
256,144,57428,2,8,L|256:52,2,80,0|0|2,0:0|0:0|0:0,0:0:0:0:
368,124,61028,5,4,0:0:0:0:
324,192,61228,1,0,0:0:0:0:
404,192,61428,1,8,0:0:0:0:
364,260,61628,1,0,0:0:0:0:
444,260,61828,2,0,B|464:300|464:300|448:344|408:360|368:336,1,160,0|8,0:0|0:0,0:0:0:0:
184,232,62628,5,0,0:0:0:0:
104,232,62828,1,0,0:0:0:0:
60,164,63028,1,8,0:0:0:0:
104,96,63228,1,0,0:0:0:0:
152,32,63428,2,0,P|188:104|144:168,1,160,0|8,0:0|0:0,0:0:0:0:
464,128,64228,5,0,0:0:0:0:
452,208,64428,1,0,0:0:0:0:
416,280,64628,1,8,0:0:0:0:
344,320,64828,1,0,0:0:0:0:
264,308,65028,2,0,P|288:264|320:244,1,80
256,192,65428,1,8,0:0:0:0:
80,116,65828,5,0,0:0:0:0:
36,184,66028,1,0,0:0:0:0:
116,188,66228,1,8,0:0:0:0:
72,256,66428,1,0,0:0:0:0:
152,256,66628,2,0,P|108:332|40:336,2,160,0|8|0,0:0|0:0|0:0,0:0:0:0:
316,240,67628,5,0,0:0:0:0:
388,276,67828,2,0,L|468:236,1,80,8|0,0:0|0:0,0:0:0:0:
416,172,68228,1,0,0:0:0:0:
444,96,68428,1,0,0:0:0:0:
492,32,68628,2,0,P|400:28|368:80,1,160,8|0,0:0|0:0,0:0:0:0:
196,48,69228,5,0,0:0:0:0:
152,116,69428,2,0,P|112:144|72:140,1,80,8|0,0:0|0:0,0:0:0:0:
92,64,69828,2,0,P|16:104|12:176,1,160,0|8,0:0|0:0,0:0:0:0:
56,236,70428,1,0,0:0:0:0:
128,268,70628,1,0,0:0:0:0:
208,256,70828,6,0,P|188:216|192:180,1,80,0|8,0:0|0:0,0:0:0:0:
304,256,71228,2,0,P|324:216|320:180,1,80
256,136,71628,1,0,0:0:0:0:
256,56,71828,1,8,0:0:0:0:
412,100,72228,5,2,0:0:0:0:
432,176,72428,1,0,0:0:0:0:
416,252,72628,2,0,L|348:312,1,80,2|0,0:0|0:0,0:0:0:0:
320,232,73028,2,0,P|256:268|184:228,1,160,2|2,0:0|3:0,0:0:0:0:
48,48,73828,5,4,0:0:0:0:
112,100,74028,1,0,0:0:0:0:
148,172,74228,1,8,0:0:0:0:
128,248,74428,1,0,0:0:0:0:
84,316,74628,2,0,P|168:320|204:252,2,160,0|8|0,0:0|0:0|0:0,0:0:0:0:
203,262,75628,5,0,0:0:0:0:
272,304,75828,1,8,0:0:0:0:
348,280,76028,1,0,0:0:0:0:
400,220,76228,2,0,P|432:296|384:352,2,160,0|8|0,0:0|0:0|0:0,0:0:0:0:
352,72,77228,5,0,0:0:0:0:
304,136,77428,1,8,0:0:0:0:
228,164,77628,1,0,0:0:0:0:
152,144,77828,2,0,P|120:108|116:72,1,80
48,232,78228,2,0,P|80:268|84:304,1,80,8|0,0:0|0:0,0:0:0:0:
448,240,78828,5,0,0:0:0:0:
448,240,79028,1,8,0:0:0:0:
448,240,79228,1,0,0:0:0:0:
448,240,79428,1,0,0:0:0:0:
320,140,79828,1,8,0:0:0:0:
296,308,80228,5,0,0:0:0:0:
280,228,80428,1,0,0:0:0:0:
200,208,80628,1,8,0:0:0:0:
144,268,80828,1,0,0:0:0:0:
104,336,81028,2,0,P|172:348|220:276,1,160,0|8,0:0|0:0,0:0:0:0:
448,48,81828,1,0,0:0:0:0:
424,124,82028,5,0,0:0:0:0:
352,160,82228,1,8,0:0:0:0:
272,152,82428,1,0,0:0:0:0:
212,100,82628,2,0,P|172:164|72:188,1,160,0|8,0:0|0:0,0:0:0:0:
280,296,83428,1,0,0:0:0:0:
360,296,83628,5,0,0:0:0:0:
432,260,83828,1,8,0:0:0:0:
480,196,84028,2,0,P|452:156|452:124,1,80
388,76,84428,1,0,0:0:0:0:
320,120,84628,2,0,P|256:164|192:116,1,160,8|0,0:0|0:0,0:0:0:0:
120,100,85228,5,0,0:0:0:0:
136,180,85428,1,2,0:0:0:0:
128,260,85628,1,0,0:0:0:0:
88,328,85828,2,0,P|40:264|72:192,1,160,0|2,0:0|0:0,0:0:0:0:
336,104,86628,6,0,P|282:55|200:62,1,160,4|8,0:0|0:0,0:0:0:0:
120,100,87228,1,0,0:0:0:0:
192,144,87428,1,0,0:0:0:0:
136,204,87628,2,0,P|100:240|84:276,1,80,0|8,0:0|0:0,0:0:0:0:
120,340,88028,2,0,P|156:304|172:268,1,80
228,224,88428,6,0,B|284:264|284:264|312:248|352:236|392:272,1,160
336,332,89028,1,0,0:0:0:0:
456,280,89228,1,0,0:0:0:0:
360,176,89428,1,8,0:0:0:0:
416,40,89828,6,0,P|332:36|260:72,1,160,0|8,0:0|0:0,0:0:0:0:
228,224,90628,2,0,P|312:228|384:192,1,160,0|8,0:0|0:0,0:0:0:0:
444,152,91228,1,0,0:0:0:0:
432,72,91428,6,0,P|388:56|340:56,1,80
376,132,91828,2,0,P|336:132|300:112,1,80,8|0,0:0|0:0,0:0:0:0:
224,92,92228,1,0,0:0:0:0:
168,220,92428,1,0,0:0:0:0:
300,208,92628,1,8,0:0:0:0:
320,368,93028,6,0,P|368:328|360:220,1,160,4|8,0:0|0:0,0:0:0:0:
300,208,93628,2,0,P|296:112|347:75,1,160
364,156,94228,2,0,P|256:128|216:100,1,160,8|0,0:0|0:0,0:0:0:0:
152,56,94828,6,0,P|100:56|60:76,1,80,0|8,0:0|0:0,0:0:0:0:
20,124,95228,1,0,0:0:0:0:
20,124,95328,1,0,0:0:0:0:
20,124,95428,2,0,P|56:152|84:196,1,80
124,244,95828,1,8,0:0:0:0:
204,104,96228,6,0,P|220:168|204:260,1,160,0|8,0:0|0:0,0:0:0:0:
148,316,96828,2,0,P|216:340|280:284,1,160
205,260,97428,2,0,P|260:216|340:244,1,160,8|0,0:0|0:0,0:0:0:0:
352,320,98028,6,0,P|392:304|408:244,1,80,0|8,0:0|0:0,0:0:0:0:
412,192,98428,1,0,0:0:0:0:
412,192,98528,1,0,0:0:0:0:
412,192,98628,2,0,P|400:144|296:128,1,160,0|8,0:0|0:0,0:0:0:0:
100,192,99428,6,0,P|112:144|216:128,1,160,4|8,0:0|0:0,0:0:0:0:
204,204,100028,1,0,0:0:0:0:
280,232,100228,1,0,0:0:0:0:
324,168,100428,1,0,0:0:0:0:
288,96,100628,2,0,P|324:48|420:52,1,160,8|0,0:0|0:0,0:0:0:0:
468,112,101228,5,0,0:0:0:0:
468,112,101428,1,8,0:0:0:0:
436,256,101628,1,0,0:0:0:0:
436,256,101828,1,0,0:0:0:0:
324,168,102028,1,0,0:0:0:0:
324,168,102228,2,0,B|300:216|304:256,1,80,8|0,0:0|0:0,0:0:0:0:
188,168,102628,6,0,B|212:216|208:256,1,80
132,224,103028,2,0,P|80:232|52:248,1,80,8|0,0:0|0:0,0:0:0:0:
112,300,103428,2,0,P|144:336|176:356,1,80
207,282,103828,2,0,P|256:230|306:284,1,160,8|0,0:0|0:0,0:0:0:0:
341,353,104428,6,0,P|368:336|400:300,1,80,0|8,0:0|0:0,0:0:0:0:
444,236,104828,1,0,0:0:0:0:
472,160,105028,2,0,P|464:104|368:76,1,160,0|8,0:0|0:0,0:0:0:0:
352,148,105628,1,0,0:0:0:0:
352,148,105828,6,0,P|352:232|288:272,1,160,4|8,0:0|0:0,0:0:0:0:
160,148,106428,2,0,P|160:232|224:272,1,160
256,200,107028,2,0,L|256:36,1,160,8|0,0:0|0:0,0:0:0:0:
180,68,107628,6,0,P|136:52|100:160,1,160
116,204,108228,2,0,P|188:252|204:324,1,160,0|8,0:0|0:0,0:0:0:0:
256,380,108828,1,0,0:0:0:0:
307,319,109028,6,0,P|324:252|396:204,1,160,0|8,0:0|0:0,0:0:0:0:
431,131,109628,2,0,P|376:52|332:68,1,160
256,100,110228,2,0,L|256:188,2,80,8|0|0,0:0|0:0|0:0,0:0:0:0:
256,20,110828,1,0,0:0:0:0:
256,192,111028,12,4,112228,0:0:0:0:
256,192,123428,12,2,124628,0:0:0:0:
336,52,125028,6,0,P|360:132|432:144,1,160,4|8,0:0|0:0,0:0:0:0:
456,219,125628,1,0,0:0:0:0:
392,268,125828,1,0,0:0:0:0:
328,320,126028,1,0,0:0:0:0:
251,354,126228,2,0,P|215:369|176:362,2,80,8|0|0,0:0|0:0|0:0,0:0:0:0:
205,291,126828,5,0,0:0:0:0:
132,272,127028,2,0,P|112:224|120:184,1,80,8|0,0:0|0:0,0:0:0:0:
188,216,127428,2,0,P|208:264|200:304,1,80
188,216,127828,1,8,0:0:0:0:
220,144,128028,1,0,0:0:0:0:
228,64,128228,6,0,P|296:112|288:188,1,160,0|8,0:0|0:0,0:0:0:0:
184,336,129028,2,0,L|256:288,1,80
316,336,129428,1,8,0:0:0:0:
384,296,129628,2,0,P|340:232|372:156,1,160
316,100,130228,5,8,0:0:0:0:
256,44,130428,1,0,0:0:0:0:
196,100,130628,1,0,0:0:0:0:
136,156,130828,1,0,0:0:0:0:
60,140,131028,1,8,0:0:0:0:
112,292,131428,6,0,P|172:232|244:240,1,160,4|8,0:0|0:0,0:0:0:0:
196,308,132028,2,0,P|288:304|320:240,1,160
288,180,132628,2,0,P|376:200|392:264,1,160,8|0,0:0|0:0,0:0:0:0:
456,312,133228,1,0,0:0:0:0:
456,312,133328,1,0,0:0:0:0:
456,312,133428,1,8,0:0:0:0:
480,188,133628,2,0,P|448:152|444:112,2,80
316,76,134228,1,8,0:0:0:0:
316,76,134428,1,0,0:0:0:0:
224,176,134628,6,0,P|172:236|96:224,1,160,0|8,0:0|0:0,0:0:0:0:
144,160,135228,2,0,P|64:156|24:220,1,160
60,296,135828,2,0,L|208:360,1,160,8|0,0:0|0:0,0:0:0:0:
256,276,136428,1,0,0:0:0:0:
256,276,136528,1,0,0:0:0:0:
256,276,136628,1,8,0:0:0:0:
324,200,136828,2,0,P|316:164|324:120,1,80
256,36,137228,1,0,0:0:0:0:
168,136,137428,1,8,0:0:0:0:
84,36,137628,1,0,0:0:0:0:
48,208,137828,6,0,P|76:240|72:288,1,80,4|0,0:0|0:0,0:0:0:0:
136,332,138228,2,0,P|212:296|280:332,1,160,8|0,0:0|0:0,0:0:0:0:
344,284,138828,1,0,0:0:0:0:
384,216,139028,1,8,0:0:0:0:
384,136,139228,2,0,P|460:176|456:248,2,160
308,160,140228,2,0,P|296:208|260:232,1,80
232,160,140628,2,0,P|244:112|280:88,1,80,8|0,0:0|0:0,0:0:0:0:
188,68,141028,6,0,P|149:47|88:51,1,80
139,129,141428,2,0,P|95:130|44:164,1,80,8|0,0:0|0:0,0:0:0:0:
118,204,141828,2,0,P|80:227|53:282,1,80
136,280,142228,2,0,P|115:318|119:379,2,80,8|0|0,0:0|0:0|0:0,0:0:0:0:
188,340,142828,5,0,0:0:0:0:
256,300,143028,1,8,0:0:0:0:
324,340,143228,1,0,0:0:0:0:
376,280,143428,2,0,P|416:244|380:152,1,160,0|8,0:0|0:0,0:0:0:0:
360,76,144028,1,0,0:0:0:0:
304,132,144228,6,0,P|276:196|348:212,1,160,4|8,0:0|0:0,0:0:0:0:
452,250,144828,2,0,P|480:186|412:168,1,160
345,214,145428,2,0,P|296:272|312:356,1,160,8|0,0:0|0:0,0:0:0:0:
372,300,146028,6,0,P|416:316|444:344,1,80,0|8,0:0|0:0,0:0:0:0:
496,280,146428,1,0,0:0:0:0:
496,280,146528,1,0,0:0:0:0:
496,280,146628,2,0,P|464:245|453:207,1,80
444,136,147028,1,8,0:0:0:0:
296,76,147428,6,0,B|232:40|232:40|200:68|148:64,1,160,0|8,0:0|0:0,0:0:0:0:
112,136,148028,2,0,P|124:204|212:212,1,160
92,332,148628,2,0,P|80:264|-8:256,1,160,8|0,0:0|0:0,0:0:0:0:
16,328,149228,6,0,L|128:204,1,160
176,152,149828,2,0,P|212:112|212:72,1,80
336,152,150228,2,0,P|300:112|300:72,1,80,8|0,0:0|0:0,0:0:0:0:
376,80,150628,5,4,0:0:0:0:
424,144,150828,1,0,0:0:0:0:
412,224,151028,2,0,P|392:264|408:308,1,80,8|0,0:0|0:0,0:0:0:0:
324,324,151428,2,0,P|260:268|188:288,1,160,0|8,0:0|0:0,0:0:0:0:
100,156,152228,5,0,0:0:0:0:
100,156,152428,1,0,0:0:0:0:
160,104,152628,2,0,P|192:68|192:36,1,80,8|0,0:0|0:0,0:0:0:0:
264,76,153028,1,0,0:0:0:0:
336,108,153228,1,0,0:0:0:0:
404,68,153428,2,0,P|412:120|400:148,1,80,8|0,0:0|0:0,0:0:0:0:
340,192,153828,6,0,P|372:268|448:280,1,160,0|8,0:0|0:0,0:0:0:0:
172,192,154428,2,0,P|140:268|64:280,1,160
256,336,155028,2,0,L|256:176,1,160,8|0,0:0|0:0,0:0:0:0:
184,76,155628,2,0,P|256:40|324:76,1,160
400,92,156228,2,0,P|356:148|272:136,1,160,0|8,0:0|0:0,0:0:0:0:
196,156,156828,1,0,0:0:0:0:
120,176,157028,5,4,0:0:0:0:
128,256,157228,1,0,0:0:0:0:
208,240,157428,2,0,L|292:248,1,80,8|0,0:0|0:0,0:0:0:0:
356,208,157828,1,0,0:0:0:0:
384,132,158028,1,0,0:0:0:0:
304,144,158228,2,0,L|220:136,1,80,8|0,0:0|0:0,0:0:0:0:
156,176,158628,6,0,P|132:208|80:208,1,80
92,132,159028,1,8,0:0:0:0:
160,88,159228,1,0,0:0:0:0:
224,136,159428,2,0,P|232:188|216:216,2,80,0|0|8,0:0|0:0|0:0,0:0:0:0:
256,64,160028,1,0,0:0:0:0:
304,128,160228,6,0,P|360:188|432:176,1,160,0|8,0:0|0:0,0:0:0:0:
208,256,160828,2,0,P|152:196|80:208,1,160
114,347,161428,2,0,P|134:303|130:271,1,80,8|0,0:0|0:0,0:0:0:0:
274,109,161828,6,0,P|254:153|258:185,1,80
398,347,162228,2,0,P|418:303|414:271,1,80,8|0,0:0|0:0,0:0:0:0:
340,216,162628,2,0,P|320:260|324:292,1,80
415,273,163028,1,8,0:0:0:0:
256,192,163428,12,0,166628,0:0:0:0:
