osu file format v12

[General]
AudioFilename: Destinee & Paris - True Love (Nightcore Mix).mp3
AudioLeadIn: 0
PreviewTime: 32240
Countdown: 0
SampleSet: Soft
StackLeniency: 0.7
Mode: 0
LetterboxInBreaks: 1

[Editor]
Bookmarks: 98225
DistanceSpacing: 0.8
BeatDivisor: 4
GridSize: 4

[Metadata]
Title:True Love (Nightcore Mix)
TitleUnicode:True Love (Nightcore Mix)
Artist:Destinee & Paris
ArtistUnicode:Destinee & Paris
Creator:Lally
Version:My Love
Source:
Tags:ShadowSoul Byakugan249 Andrea osuplayer111 trance remix Monroe Collab
BeatmapID:238686
BeatmapSetID:87367

[Difficulty]
HPDrainRate:4
CircleSize:3
OverallDifficulty:4
ApproachRate:5
SliderMultiplier:1.4
SliderTickRate:1

[Events]
//Background and Video events
0,0,"owo.jpg",0,0
//Break Periods
2,58031,59831
2,112431,123831
//Storyboard Layer 0 (Background)
//Storyboard Layer 1 (Fail)
//Storyboard Layer 2 (Pass)
//Storyboard Layer 3 (Foreground)
//Storyboard Sound Samples
//Background Colour Transformations
3,100,163,162,255

[TimingPoints]
6628,400,4,2,1,50,1,0
19428,-100,4,2,1,70,0,0
32228,-100,4,1,1,80,0,1
44828,-100,4,1,1,80,0,0
45028,-100,4,1,1,80,0,1
57828,-100,4,2,1,70,0,0
86628,-100,4,1,1,80,0,1
99228,-100,4,1,1,80,0,0
99428,-100,4,1,1,80,0,1
112228,-100,4,2,1,40,0,0
125028,-100,4,1,1,80,0,1
137728,-100,4,2,1,80,0,0
137828,-100,4,1,1,80,0,1
150628,-100,4,1,1,70,0,0
163428,-100,4,2,1,30,0,0
165028,-100,4,2,1,5,0,0

[Colours]
Combo1 : 201,215,26
Combo2 : 85,225,88
Combo3 : 242,96,106
Combo4 : 24,202,211

[HitObjects]
176,252,7028,2,0,P|120:220|108:144,2,140,0|2|0,0:0|0:0|0:0,0:0:0:0:
256,172,8228,1,0,0:0:0:0:
336,252,8628,2,0,P|392:220|404:144,2,140,0|2|0,0:0|0:0|0:0,0:0:0:0:
256,328,9828,5,2,0:0:0:0:
204,352,10028,1,0,0:0:0:0:
152,368,10228,2,0,P|64:352|40:312,2,140,0|2|0,0:0|0:0|0:0,0:0:0:0:
204,268,11428,1,2,0:0:0:0:
256,168,11828,1,0,0:0:0:0:
308,192,12028,1,0,0:0:0:0:
360,208,12228,2,0,P|448:192|472:152,2,140,2|0|2,0:0|0:0|0:0,0:0:0:0:
300,304,13428,6,0,P|256:336|160:316,1,140,0|2,0:0|0:0,0:0:0:0:
80,264,14228,1,0,0:0:0:0:
44,156,14628,2,0,P|32:80|88:52,1,140,2|0,0:0|0:0,0:0:0:0:
156,132,15428,1,2,0:0:0:0:
256,184,15828,1,0,0:0:0:0:
356,132,16228,1,2,0:0:0:0:
433,51,16628,2,0,P|480:80|468:156,1,140,0|2,0:0|0:0,0:0:0:0:
256,192,17428,12,2,19028,0:0:0:0:
188,256,19428,6,0,P|208:192|196:112,1,140,4|8,0:0|0:0,0:0:0:0:
112,52,20228,1,2,0:0:0:0:
93,160,20628,2,0,P|132:220|188:256,1,140,8|2,0:0|0:0,0:0:0:0:
256,168,21428,2,0,L|256:84,2,70,8|0|2,0:0|0:0|0:0,0:0:0:0:
320,260,22228,1,8,0:0:0:0:
364,292,22428,1,0,0:0:0:0:
412,320,22628,6,0,P|480:352|524:316,2,140,4|8|2,0:0|0:0|0:0,0:0:0:0:
384,212,23828,1,8,0:0:0:0:
328,116,24228,1,2,0:0:0:0:
256,204,24628,2,0,L|256:304,2,70,8|0|2,0:0|0:0|0:0,0:0:0:0:
184,116,25428,1,8,0:0:0:0:
128,212,25828,5,4,0:0:0:0:
128,212,26228,2,0,P|108:268|168:336,1,140,8|2,0:0|0:0,0:0:0:0:
256,296,27028,1,8,0:0:0:0:
361,330,27428,1,2,0:0:0:0:
361,330,27828,2,0,P|404:268|384:212,2,140,8|2|8,0:0|0:0|0:0,0:0:0:0:
256,192,29028,12,2,31428,0:0:0:0:
196,120,32228,6,0,P|112:124|56:176,1,140,4|8,0:0|0:0,0:0:0:0:
156,228,33028,2,0,P|240:224|296:172,1,140,0|8,0:0|0:0,0:0:0:0:
324,156,33628,1,0,0:0:0:0:
364,116,33828,2,0,P|416:68|496:56,2,140,0|8|0,0:0|0:0|0:0,0:0:0:0:
324,156,34828,2,0,P|284:200|264:216,1,70,0|8,0:0|0:0,0:0:0:0:
212,300,35428,6,0,P|152:300|84:244,1,140,4|8,0:0|0:0,0:0:0:0:
84,140,36228,1,0,0:0:0:0:
184,192,36628,2,0,P|188:104|156:56,2,140,8|0|8,0:0|0:0|0:0,0:0:0:0:
256,280,37828,2,0,L|256:360,2,70,0|0|8,0:0|0:0|0:0,0:0:0:0:
328,192,38628,6,0,P|324:104|356:56,2,140,4|8|0,0:0|0:0|0:0,0:0:0:0:
364,300,39828,1,8,0:0:0:0:
256,280,40228,2,0,P|168:276|120:308,1,140,0|8,0:0|0:0,0:0:0:0:
28,356,41028,1,0,0:0:0:0:
36,244,41428,1,8,0:0:0:0:
96,152,41828,6,0,P|104:64|208:144,1,280,4|0,0:0|0:0,0:0:0:0:
256,244,43028,1,8,0:0:0:0:
302,140,43428,2,0,P|408:64|416:152,1,280
404,264,44628,1,8,0:0:0:0:
320,336,45028,6,0,P|232:308|200:272,1,140,4|8,0:0|0:0,0:0:0:0:
104,220,45828,2,0,P|96:172|104:132,1,70
156,144,46228,2,0,P|160:95|178:58,1,70,8|0,0:0|0:0,0:0:0:0:
224,84,46628,2,0,P|268:40|348:44,2,140,0|8|0,0:0|0:0|0:0,0:0:0:0:
256,192,47828,1,8,0:0:0:0:
348,260,48228,6,0,P|392:296|404:324,2,70,4|0|8,0:0|0:0|0:0,0:0:0:0:
256,324,49028,1,0,0:0:0:0:
164,260,49428,2,0,P|120:296|108:324,2,70,8|0|0,0:0|0:0|0:0,0:0:0:0:
208,228,50028,1,0,0:0:0:0:
124,156,50428,2,0,P|140:88|224:68,1,140
232,108,51028,1,8,0:0:0:0:
256,216,51428,5,4,0:0:0:0:
280,108,51828,1,8,0:0:0:0:
312,62,52028,2,0,P|372:88|388:156,1,140
348,192,52628,1,8,0:0:0:0:
324,300,53028,2,0,L|364:360,2,70,0|0|8,0:0|0:0|0:0,0:0:0:0:
256,212,53828,1,0,0:0:0:0:
256,212,54228,1,8,0:0:0:0:
256,192,54628,12,2,57828,0:0:0:0:
96,76,61028,6,0,P|144:140|172:216,1,140,4|8,0:0|0:0,0:0:0:0:
156,308,61828,1,2,0:0:0:0:
256,260,62228,1,8,0:0:0:0:
356,308,62628,1,2,0:0:0:0:
345,195,63028,2,0,P|368:140|416:76,2,140,8|2|8,0:0|0:0|0:0,0:0:0:0:
320,304,64228,6,0,P|384:352|444:344,2,140,4|8|2,0:0|0:0|0:0,0:0:0:0:
256,212,65428,1,8,0:0:0:0:
192,304,65828,2,0,P|128:352|68:344,2,140,2|8|2,0:0|0:0|0:0,0:0:0:0:
144,204,67028,1,8,0:0:0:0:
64,128,67428,6,0,B|108:76|108:76|160:84|200:60,1,140,2|8,0:0|0:0,0:0:0:0:
256,152,68228,1,2,0:0:0:0:
333,70,68628,2,0,B|352:84|404:76|404:76|448:128,1,140,8|2,0:0|0:0,0:0:0:0:
472,236,69428,2,0,P|452:292|368:324,1,140,8|2,0:0|0:0,0:0:0:0:
300,248,70228,1,8,0:0:0:0:
256,144,70628,6,0,L|256:56,2,70,4|0|8,0:0|0:0|0:0,0:0:0:0:
212,248,71428,1,2,0:0:0:0:
136,332,71828,2,0,P|68:256|56:200,1,140,8|2,0:0|0:0,0:0:0:0:
48,108,72628,2,0,P|96:64|188:52,1,140,2|2,0:0|0:0,0:0:0:0:
256,116,73428,1,2,3:0:0:0:
360,72,73828,6,0,P|408:40|440:32,2,70,4|0|8,0:0|0:0|0:0,0:0:0:0:
344,184,74628,2,0,P|340:228|312:320,1,140,2|8,0:0|0:0,0:0:0:0:
200,320,75428,2,0,P|172:228|168:184,1,140,2|8,0:0|0:0,0:0:0:0:
72,124,76228,2,0,P|136:76|200:76,1,140,2|8,0:0|0:0,0:0:0:0:
304,88,77028,5,2,0:0:0:0:
404,140,77428,1,8,0:0:0:0:
444,244,77828,2,0,P|424:336|356:348,1,140,2|8,0:0|0:0,0:0:0:0:
308,276,78628,2,0,P|304:232|312:180,1,70,2|0,0:0|0:0,0:0:0:0:
312,152,79028,2,0,P|328:84|388:44,2,140,8|2|8,0:0|0:0|0:0,0:0:0:0:
212,208,80228,6,0,P|164:232|80:208,1,140,4|8,0:0|0:0,0:0:0:0:
148,120,81028,2,0,P|100:96|16:120,2,140,2|8|2,0:0|0:0|0:0,0:0:0:0:
196,220,82228,2,0,P|256:252|316:220,1,140,8|2,0:0|0:0,0:0:0:0:
368,124,83028,1,8,0:0:0:0:
256,192,83428,12,2,86228,0:0:0:0:
56,152,86628,6,0,P|68:104|156:60,1,140,4|8,0:0|0:0,0:0:0:0:
168,168,87428,2,0,P|200:208|184:300,1,140,0|8,0:0|0:0,0:0:0:0:
152,332,88028,1,0,0:0:0:0:
104,360,88228,2,0,P|32:332|12:260,2,140,0|8|0,0:0|0:0|0:0,0:0:0:0:
212,336,89428,1,8,0:0:0:0:
272,240,89828,6,0,P|304:160|372:144,1,140,4|8,0:0|0:0,0:0:0:0:
456,176,90628,2,0,P|476:120|456:40,2,140,0|8|0,0:0|0:0|0:0,0:0:0:0:
392,268,91828,2,0,L|432:336,2,70,8|0|0,0:0|0:0|0:0,0:0:0:0:
332,172,92628,1,8,0:0:0:0:
256,256,93028,5,4,0:0:0:0:
180,172,93428,1,8,0:0:0:0:
120,268,93828,2,0,L|80:336,2,70,0|0|8,0:0|0:0|0:0,0:0:0:0:
76,164,94628,2,0,P|120:88|196:72,1,140,0|8,0:0|0:0,0:0:0:0:
256,140,95428,2,0,L|256:232,2,70,0|0|8,0:0|0:0|0:0,0:0:0:0:
346,71,96228,6,0,P|392:88|436:164,1,140,4|8,0:0|0:0,0:0:0:0:
440,220,96828,1,0,0:0:0:0:
436,276,97028,2,0,L|304:340,1,140,0|8,0:0|0:0,0:0:0:0:
256,240,97828,1,0,0:0:0:0:
201,337,98228,2,0,L|76:276,1,140,8|0,0:0|0:0,0:0:0:0:
36,236,98828,1,0,0:0:0:0:
12,184,99028,1,8,0:0:0:0:
24,72,99428,6,0,P|100:60|168:92,1,140,4|8,0:0|0:0,0:0:0:0:
176,192,100228,2,0,P|164:244|84:296,2,140,0|8|0,0:0|0:0|0:0,0:0:0:0:
244,104,101428,2,0,P|288:80|332:72,1,70,8|0,0:0|0:0,0:0:0:0:
356,104,101828,2,0,P|408:84|448:80,2,70,0|0|8,0:0|0:0|0:0,0:0:0:0:
316,212,102628,6,0,P|300:272|448:244,1,280,4|0,0:0|0:0,0:0:0:0:
472,156,103828,1,8,0:0:0:0:
428,52,104228,2,0,P|348:64|328:136,1,140,0|8,0:0|0:0,0:0:0:0:
256,200,105028,2,0,L|256:296,2,70,0|0|8,0:0|0:0|0:0,0:0:0:0:
186,111,105828,6,0,P|164:64|84:52,1,140,4|8,0:0|0:0,0:0:0:0:
44,92,106428,1,0,0:0:0:0:
20,144,106628,1,0,0:0:0:0:
92,228,107028,1,8,0:0:0:0:
176,304,107428,2,0,P|132:332|88:344,2,70,0|0|8,0:0|0:0|0:0,0:0:0:0:
256,228,108228,1,0,0:0:0:0:
256,228,108628,1,8,0:0:0:0:
256,192,109028,12,4,112228,0:0:0:0:
256,192,125028,12,0,127828,1:0:0:0:
92,236,128228,6,0,P|104:276|204:300,1,140,4|8,0:0|0:0,0:0:0:0:
256,216,129028,2,0,L|256:136,2,70,0|0|8,0:0|0:0|0:0,0:0:0:0:
322,306,129828,2,0,P|408:276|420:236,1,140,0|8,0:0|0:0,0:0:0:0:
460,132,130628,1,0,0:0:0:0:
360,80,131028,1,8,0:0:0:0:
256,120,131428,5,4,0:0:0:0:
152,80,131828,1,8,0:0:0:0:
100,104,132028,1,0,0:0:0:0:
52,132,132228,1,0,0:0:0:0:
144,192,132628,2,0,P|192:236|196:316,1,140,8|0,0:0|0:0,0:0:0:0:
313,307,133428,2,0,P|320:236|368:192,2,140,8|0|8,0:0|0:0|0:0,0:0:0:0:
424,288,134628,5,4,0:0:0:0:
392,240,134828,1,0,0:0:0:0:
368,192,135028,1,8,0:0:0:0:
256,176,135428,2,0,L|256:96,2,70,0|0|8,0:0|0:0|0:0,0:0:0:0:
144,192,136228,1,0,0:0:0:0:
88,288,136628,1,8,0:0:0:0:
200,304,137028,2,0,P|256:268|312:304,1,140,0|8,0:0|0:0,0:0:0:0:
256,192,137828,12,0,140628,1:0:0:0:
160,240,141028,6,0,P|100:276|32:232,2,140,4|8|0,0:0|0:0|0:0,0:0:0:0:
256,184,142228,1,8,0:0:0:0:
312,88,142628,2,0,P|364:188|260:296,1,280
152,324,143828,1,8,0:0:0:0:
76,240,144228,6,0,P|48:160|76:104,1,140,4|8,0:0|0:0,0:0:0:0:
164,172,145028,2,0,P|192:92|164:36,2,140,0|8|0,0:0|0:0|0:0,0:0:0:0:
76,240,146228,1,8,0:0:0:0:
112,344,146628,2,0,P|192:320|208:256,1,140,0|8,0:0|0:0,0:0:0:0:
256,172,147428,6,0,L|256:96,2,70,4|0|8,0:0|0:0|0:0,0:0:0:0:
303,272,148228,1,0,0:0:0:0:
302,272,148628,2,0,P|320:320|400:344,2,140,8|0|8,0:0|0:0|0:0,0:0:0:0:
256,168,149828,1,0,0:0:0:0:
256,168,150228,1,8,0:0:0:0:
256,192,150628,12,8,151828,0:0:0:0:
60,252,152628,5,8,0:0:0:0:
164,292,153028,1,0,0:0:0:0:
140,184,153428,1,8,0:0:0:0:
208,96,153828,6,0,P|140:72|68:100,2,140,4|8|0,0:0|0:0|0:0,0:0:0:0:
256,196,155028,1,8,0:0:0:0:
304,96,155428,2,0,P|372:72|434:92,2,140,0|8|0,0:0|0:0|0:0,0:0:0:0:
372,184,156628,1,8,0:0:0:0:
348,292,157028,5,4,0:0:0:0:
452,252,157428,1,8,0:0:0:0:
476,144,157828,2,0,P|464:64|396:48,1,140,0|8,0:0|0:0,0:0:0:0:
324,116,158628,5,0,0:0:0:0:
256,204,159028,2,0,L|256:300,2,70,8|0|0,0:0|0:0|0:0,0:0:0:0:
188,116,159828,1,8,0:0:0:0:
76,136,160228,5,4,0:0:0:0:
76,136,160628,2,0,P|56:208|88:264,1,140,8|0,0:0|0:0,0:0:0:0:
180,324,161428,1,8,0:0:0:0:
260,248,161828,2,0,P|332:244|392:284,2,140,0|8|0,0:0|0:0|0:0,0:0:0:0:
304,352,163028,1,4,2:0:0:0:
256,192,163428,12,0,166628,0:0:0:0:
