osu file format v14

[General]
AudioFilename: Despistaos - Fisica o Quimica.mp3
AudioLeadIn: 2000
PreviewTime: 9617
Countdown: 0
SampleSet: Normal
StackLeniency: 0.3
Mode: 1
LetterboxInBreaks: 0
WidescreenStoryboard: 0

[Editor]
DistanceSpacing: 1.6
BeatDivisor: 4
GridSize: 4
TimelineZoom: 2.899999

[Metadata]
Title:Fisica o Quimica
TitleUnicode:Física o Química
Artist:Despistaos
ArtistUnicode:Despistaos
Creator:Gero
Version:Hanjamon's Oni
Source:Física o Química
Tags:TV Size Version Intro Opening Antena 3 Carlos Montero Lo Que Hemos Vivido El Sueño de Morfeo Angy España FoQ Zurbarán LGBTQI Lesbian Gay Bisexual Transgender Queer Intersex Hanjamon
BeatmapID:664227
BeatmapSetID:295706

[Difficulty]
HPDrainRate:5
CircleSize:5
OverallDifficulty:5
ApproachRate:5
SliderMultiplier:1.4
SliderTickRate:1

[Events]
//Background and Video events
0,0,"BG.jpg",0,0
//Break Periods
//Storyboard Layer 0 (Background)
//Storyboard Layer 1 (Fail)
//Storyboard Layer 2 (Pass)
//Storyboard Layer 3 (Foreground)
//Storyboard Sound Samples

[TimingPoints]
167,300,4,1,0,80,1,0
9767,-100,4,1,0,80,0,1
19367,-100,4,1,0,80,0,0
19667,-100,4,1,0,80,0,1
28967,-100,4,1,0,80,0,0

[Colours]
Combo1 : 151,154,193
Combo2 : 129,118,95
Combo3 : 251,94,94
Combo4 : 215,203,121
Combo5 : 200,157,111
Combo6 : 60,140,230
Combo7 : 225,119,197
Combo8 : 102,198,117

[HitObjects]
252,208,167,5,4,0:0:0:0:
252,208,467,1,8,0:0:0:0:
252,208,767,1,0,0:0:0:0:
252,208,917,1,0,0:0:0:0:
252,208,1067,1,8,0:0:0:0:
252,208,1217,1,0,0:0:0:0:
304,156,1517,1,0,0:0:0:0:
416,144,1667,1,8,0:0:0:0:
268,112,1817,1,0,0:0:0:0:
228,140,1967,1,0,0:0:0:0:
248,236,2267,1,8,0:0:0:0:
272,144,2567,1,12,0:0:0:0:
268,240,2867,1,8,0:0:0:0:
296,148,3167,1,0,0:0:0:0:
280,196,3317,1,0,0:0:0:0:
280,196,3467,1,8,0:0:0:0:
280,196,3617,1,0,0:0:0:0:
212,108,3767,1,8,0:0:0:0:
280,196,3917,1,0,0:0:0:0:
280,196,4217,1,8,0:0:0:0:
280,196,4367,1,0,0:0:0:0:
184,192,4667,1,0,0:0:0:0:
232,192,4817,1,0,0:0:0:0:
232,192,4967,1,8,0:0:0:0:
280,180,5117,1,0,0:0:0:0:
232,172,5192,1,0,0:0:0:0:
280,172,5267,1,8,0:0:0:0:
280,180,5417,1,0,0:0:0:0:
280,180,5567,1,8,0:0:0:0:
184,164,5867,1,8,0:0:0:0:
232,172,6017,1,8,0:0:0:0:
280,180,6167,1,0,0:0:0:0:
232,176,6317,1,0,0:0:0:0:
180,156,6392,1,0,0:0:0:0:
280,172,6467,1,8,0:0:0:0:
328,172,6617,1,0,0:0:0:0:
280,172,6767,1,8,0:0:0:0:
184,184,7067,1,8,0:0:0:0:
280,176,7367,1,12,0:0:0:0:
240,88,7667,1,8,0:0:0:0:
324,164,7817,1,0,0:0:0:0:
280,172,7967,1,8,0:0:0:0:
280,172,8267,1,8,0:0:0:0:
280,176,8717,1,8,0:0:0:0:
280,172,9167,1,8,0:0:0:0:
280,172,9467,1,4,0:0:0:0:
96,48,9767,1,12,0:0:0:0:
280,176,10067,1,8,0:0:0:0:
280,176,10217,1,0,0:0:0:0:
280,172,10367,1,8,0:0:0:0:
312,176,10442,1,8,0:0:0:0:
280,172,10517,1,0,0:0:0:0:
280,172,10667,1,8,0:0:0:0:
260,184,10817,1,0,0:0:0:0:
260,184,10892,1,0,0:0:0:0:
260,184,10967,1,8,0:0:0:0:
260,184,11117,1,0,0:0:0:0:
260,184,11267,1,8,0:0:0:0:
232,160,11417,1,0,0:0:0:0:
272,184,11567,1,8,0:0:0:0:
272,184,11642,1,8,0:0:0:0:
272,184,11717,1,0,0:0:0:0:
272,184,11792,1,0,0:0:0:0:
272,184,11867,1,8,0:0:0:0:
308,152,12017,1,0,0:0:0:0:
272,184,12167,1,8,0:0:0:0:
252,168,12467,1,8,0:0:0:0:
252,160,12767,1,8,0:0:0:0:
252,160,12917,1,0,0:0:0:0:
252,160,13067,1,8,0:0:0:0:
272,184,13142,1,8,0:0:0:0:
252,168,13217,1,0,0:0:0:0:
240,152,13367,1,8,0:0:0:0:
252,156,13517,1,0,0:0:0:0:
268,184,13592,1,0,0:0:0:0:
252,156,13667,1,8,0:0:0:0:
252,156,13817,1,0,0:0:0:0:
272,184,13892,1,0,0:0:0:0:
252,156,13967,1,8,0:0:0:0:
336,172,14117,1,0,0:0:0:0:
336,172,14267,1,8,0:0:0:0:
340,164,14417,1,0,0:0:0:0:
340,164,14567,1,12,0:0:0:0:
276,176,14867,1,8,0:0:0:0:
300,168,15167,1,0,0:0:0:0:
300,168,15317,1,0,0:0:0:0:
300,168,15467,1,8,0:0:0:0:
296,156,15617,1,0,0:0:0:0:
292,156,15692,1,0,0:0:0:0:
296,156,15767,1,8,0:0:0:0:
296,160,15917,1,0,0:0:0:0:
296,160,16067,1,8,0:0:0:0:
296,160,16217,1,0,0:0:0:0:
296,160,16292,1,0,0:0:0:0:
296,160,16367,1,8,0:0:0:0:
296,160,16442,1,8,0:0:0:0:
296,160,16517,1,0,0:0:0:0:
292,156,16667,1,8,0:0:0:0:
292,156,16817,1,0,0:0:0:0:
292,160,16967,1,12,0:0:0:0:
292,156,17267,1,8,0:0:0:0:
288,160,17567,1,0,0:0:0:0:
288,164,17717,1,0,0:0:0:0:
288,168,17867,1,8,0:0:0:0:
264,180,18017,1,0,0:0:0:0:
264,180,18092,1,0,0:0:0:0:
264,184,18167,1,8,0:0:0:0:
264,180,18242,1,8,0:0:0:0:
264,184,18317,1,0,0:0:0:0:
264,180,18392,1,0,0:0:0:0:
264,184,18467,1,8,0:0:0:0:
324,152,18617,1,8,0:0:0:0:
244,164,18767,1,0,0:0:0:0:
288,176,18867,1,0,0:0:0:0:
272,188,18967,1,8,0:0:0:0:
272,192,19067,1,8,0:0:0:0:
272,192,19167,1,0,0:0:0:0:
272,188,19267,1,8,0:0:0:0:
284,184,19367,1,4,0:0:0:0:
248,212,19667,1,12,0:0:0:0:
248,212,19817,1,0,0:0:0:0:
248,220,19967,1,0,0:0:0:0:
248,220,20042,1,0,0:0:0:0:
248,220,20117,1,8,0:0:0:0:
248,224,20267,1,8,0:0:0:0:
240,216,20417,1,0,0:0:0:0:
240,220,20567,1,8,0:0:0:0:
240,220,20642,1,0,0:0:0:0:
240,220,20717,1,0,0:0:0:0:
240,220,20792,1,0,0:0:0:0:
240,220,20867,1,8,0:0:0:0:
248,200,21017,1,0,0:0:0:0:
248,200,21092,1,0,0:0:0:0:
248,200,21167,1,8,0:0:0:0:
232,208,21317,1,0,0:0:0:0:
232,208,21467,1,8,0:0:0:0:
244,208,21617,1,0,0:0:0:0:
244,208,21767,1,12,0:0:0:0:
240,196,22067,1,8,0:0:0:0:
264,208,22367,1,0,0:0:0:0:
256,200,22517,1,0,0:0:0:0:
256,204,22667,1,8,0:0:0:0:
288,216,22742,1,8,0:0:0:0:
272,176,22817,1,0,0:0:0:0:
272,176,22892,1,0,0:0:0:0:
272,168,22967,1,8,0:0:0:0:
340,228,23117,1,0,0:0:0:0:
284,176,23267,1,8,0:0:0:0:
284,176,23417,1,0,0:0:0:0:
288,176,23492,1,0,0:0:0:0:
284,176,23567,1,8,0:0:0:0:
244,160,23642,1,8,0:0:0:0:
288,176,23717,1,0,0:0:0:0:
288,176,23867,1,8,0:0:0:0:
284,180,24017,1,0,0:0:0:0:
288,176,24167,1,12,0:0:0:0:
232,180,24467,1,8,0:0:0:0:
224,164,24767,1,8,0:0:0:0:
224,168,24917,1,0,0:0:0:0:
228,168,25067,1,8,0:0:0:0:
264,168,25142,1,8,0:0:0:0:
268,168,25217,1,0,0:0:0:0:
300,156,25367,1,8,0:0:0:0:
284,180,25517,1,0,0:0:0:0:
280,176,25667,1,8,0:0:0:0:
276,184,25817,5,0,0:0:0:0:
276,184,25892,1,0,0:0:0:0:
276,184,25967,1,8,0:0:0:0:
276,184,26042,1,8,0:0:0:0:
276,184,26117,1,0,0:0:0:0:
276,184,26267,1,8,0:0:0:0:
276,184,26417,1,0,0:0:0:0:
312,196,26567,5,0,0:0:0:0:
312,196,26642,1,0,0:0:0:0:
312,196,26717,1,0,0:0:0:0:
312,196,26792,1,0,0:0:0:0:
312,196,26867,1,8,0:0:0:0:
316,196,27017,1,0,0:0:0:0:
316,196,27167,1,8,0:0:0:0:
316,196,27242,1,0,0:0:0:0:
316,196,27317,1,0,0:0:0:0:
316,196,27392,1,0,0:0:0:0:
312,200,27467,5,8,0:0:0:0:
316,192,27617,1,0,0:0:0:0:
312,188,27767,1,8,0:0:0:0:
312,188,27842,1,8,0:0:0:0:
312,188,27917,1,0,0:0:0:0:
312,188,28067,1,8,0:0:0:0:
316,196,28217,1,0,0:0:0:0:
336,176,28367,5,0,0:0:0:0:
336,176,28467,5,8,0:0:0:0:
336,176,28567,5,8,0:0:0:0:
336,176,28667,5,0,0:0:0:0:
336,176,28767,5,8,0:0:0:0:
336,176,28867,5,0,0:0:0:0:
336,176,28967,5,12,0:0:0:0:
284,180,29267,1,8,0:0:0:0:
284,180,29417,1,0,0:0:0:0:
304,164,29492,1,0,0:0:0:0:
284,180,29567,1,8,0:0:0:0:
272,160,29717,1,8,0:0:0:0:
272,168,29867,1,8,0:0:0:0:
272,168,29942,1,8,0:0:0:0:
272,168,30017,1,0,0:0:0:0:
320,188,30167,1,8,0:0:0:0:
280,176,30317,1,0,0:0:0:0:
320,188,30392,1,0,0:0:0:0:
280,176,30467,1,8,0:0:0:0:
300,192,30617,1,0,0:0:0:0:
304,192,30767,1,8,0:0:0:0:
304,192,30842,1,8,0:0:0:0:
304,192,30917,1,0,0:0:0:0:
304,192,30992,1,0,0:0:0:0:
296,188,31067,1,8,0:0:0:0:
336,264,31217,1,0,0:0:0:0:
336,264,31367,1,8,0:0:0:0:
260,160,31667,1,8,0:0:0:0:
256,144,31817,1,0,0:0:0:0:
260,160,31967,1,0,0:0:0:0:
272,168,32042,1,0,0:0:0:0:
272,168,32117,1,0,0:0:0:0:
272,168,32267,1,8,0:0:0:0:
296,184,32417,1,0,0:0:0:0:
296,188,32492,1,0,0:0:0:0:
296,188,32567,1,8,0:0:0:0:
224,160,32642,1,8,0:0:0:0:
224,160,32717,1,0,0:0:0:0:
220,152,32867,1,8,0:0:0:0:
300,152,33017,1,0,0:0:0:0:
236,188,33167,1,8,0:0:0:0:
236,188,33242,1,8,0:0:0:0:
236,188,33317,1,0,0:0:0:0:
236,188,33467,1,12,0:0:0:0:
236,188,33617,1,0,0:0:0:0:
240,188,33692,1,0,0:0:0:0:
244,188,33767,1,8,0:0:0:0:
244,188,33917,1,0,0:0:0:0:
244,188,34067,1,8,0:0:0:0:
240,180,34217,1,0,0:0:0:0:
240,184,34367,1,8,0:0:0:0:
240,180,34667,1,8,0:0:0:0:
248,176,34742,1,8,0:0:0:0:
240,184,34817,1,0,0:0:0:0:
240,184,34967,1,8,0:0:0:0:
240,184,35117,1,0,0:0:0:0:
220,144,35267,1,8,0:0:0:0:
240,144,35417,1,0,0:0:0:0:
240,144,35567,1,0,0:0:0:0:
240,144,35717,1,0,0:0:0:0:
240,144,35867,1,8,0:0:0:0:
240,144,36017,1,0,0:0:0:0:
240,144,36167,1,12,0:0:0:0:
200,148,36467,1,8,0:0:0:0:
260,176,36617,1,0,0:0:0:0:
200,148,36767,1,8,0:0:0:0:
240,224,36917,1,0,0:0:0:0:
192,144,37067,1,8,0:0:0:0:
192,144,37517,1,8,0:0:0:0:
212,148,37967,1,8,0:0:0:0:
