osu file format v14

[General]
AudioFilename: Despistaos - Fisica o Quimica.mp3
AudioLeadIn: 2000
PreviewTime: 9617
Countdown: 0
SampleSet: Soft
StackLeniency: 0.3
Mode: 0
LetterboxInBreaks: 0
WidescreenStoryboard: 0

[Editor]
DistanceSpacing: 1
BeatDivisor: 4
GridSize: 4
TimelineZoom: 1

[Metadata]
Title:Fisica o Quimica
TitleUnicode:Física o Química
Artist:Despistaos
ArtistUnicode:Despistaos
Creator:Gero
Version:Intermedio
Source:Física o Química
Tags:TV Size Version Intro Opening Antena 3 Carlos Montero Lo Que Hemos Vivido El Sueño de Morfeo Angy España FoQ Zurbarán LGBTQI Lesbian Gay Bisexual Transgender Queer Intersex Hanjamon
BeatmapID:664228
BeatmapSetID:295706

[Difficulty]
HPDrainRate:4
CircleSize:3.5
OverallDifficulty:4
ApproachRate:5
SliderMultiplier:1
SliderTickRate:2

[Events]
//Background and Video events
Video,0,"Video.avi"
0,0,"BG.jpg",0,0
//Break Periods
//Storyboard Layer 0 (Background)
//Storyboard Layer 1 (Fail)
//Storyboard Layer 2 (Pass)
//Storyboard Layer 3 (Foreground)
//Storyboard Sound Samples

[TimingPoints]
167,300,4,2,1,70,1,0
9767,-100,4,2,1,80,0,1
19292,-100,4,2,1,80,0,0
19367,-100,4,2,1,80,0,1
28892,-100,4,2,1,80,0,0
28967,-100,4,2,1,70,0,1
29042,-100,4,2,1,70,0,0
36167,-100,4,2,1,40,0,0

[Colours]
Combo1 : 151,154,193
Combo2 : 129,118,95
Combo3 : 251,94,94
Combo4 : 215,203,121
Combo5 : 200,157,111
Combo6 : 60,140,230
Combo7 : 225,119,197
Combo8 : 102,198,117

[HitObjects]
116,228,167,6,0,B|148:228|148:228|184:228|208:256,1,100,4|8,0:0|0:0,0:0:0:0:
304,256,767,2,0,B|328:228|364:228|364:228|396:228,1,100,2|8,0:0|0:0,0:0:0:0:
432,192,1217,1,0,0:0:0:0:
396,156,1367,2,0,P|369:88|396:20,2,150,2|2|8,0:0|0:0|0:0,0:0:0:0:
464,228,2567,6,0,P|476:276|464:324,1,100,2|8,0:0|0:0,0:0:0:0:
376,276,3167,2,0,P|327:263|279:275,1,100,2|8,0:0|0:0,0:0:0:0:
223,191,3767,2,0,P|174:203|126:190,1,100,2|8,0:0|0:0,0:0:0:0:
120,140,4217,2,0,L|76:284,1,150,2|8,0:0|0:0,0:0:0:0:
164,336,4967,6,0,P|256:370|348:336,1,200,4|2,0:0|0:0,0:0:0:0:
418,265,5867,1,8,0:0:0:0:
348,193,6167,2,0,P|256:159|164:193,1,200,2|2,0:0|0:0,0:0:0:0:
94,265,7067,1,8,0:0:0:0:
164,336,7367,5,8,0:0:0:0:
164,336,9467,1,8,0:0:0:0:
208,248,9767,5,4,0:0:0:0:
208,248,10067,2,0,P|256:237|304:248,1,100,8|2,0:0|0:0,0:0:0:0:
388,192,10667,1,8,0:0:0:0:
304,135,10967,2,0,P|256:146|208:136,1,100,2|8,0:0|0:0,0:0:0:0:
180,96,11417,2,0,P|190:144|179:192,1,100,2|2,0:0|0:0,0:0:0:0:
140,224,11867,1,10,0:0:0:0:
52,272,12167,6,0,B|52:304|40:320|40:320|52:336|52:368,1,100,2|10,0:0|0:0,0:0:0:0:
140,320,12767,2,0,B|140:288|152:272|152:272|140:256|140:224,1,100,2|8,0:0|0:0,0:0:0:0:
104,192,13217,2,0,P|152:203|200:192,1,100,2|2,0:0|0:0,0:0:0:0:
292,156,13817,2,0,P|340:144|388:155,1,100,2|2,0:0|0:0,0:0:0:0:
424,192,14267,1,8,0:0:0:0:
480,276,14567,6,0,L|436:80,1,200,4|2,0:0|0:0,0:0:0:0:
352,28,15467,1,8,0:0:0:0:
352,28,15617,2,0,P|303:17|255:28,1,100,2|2,0:0|0:0,0:0:0:0:
184,100,16217,2,0,P|135:110|87:99,1,100,2|2,0:0|0:0,0:0:0:0:
48,68,16667,1,8,0:0:0:0:
136,20,16967,6,0,L|136:224,1,200,2|2,0:0|0:0,0:0:0:0:
108,320,17867,1,8,0:0:0:0:
108,320,18017,2,0,B|136:320|136:320|156:332,1,50,0|2,0:0|0:0,0:0:0:0:
196,304,18317,2,0,L|282:355,1,100,2|2,0:0|0:0,0:0:0:0:
296,308,18767,2,0,L|382:359,1,100,8|8,0:0|0:0,0:0:0:0:
448,284,19367,6,0,B|444:228|478:192|478:192|444:156|448:100,1,200,4|2,0:0|0:0,0:0:0:0:
382,25,20267,1,8,0:0:0:0:
320,100,20567,2,0,B|292:128|256:138|256:138|220:128|192:100,2,150,2|2|8,0:0|0:0|0:0,0:0:0:0:
382,25,21767,6,0,L|452:96,1,100,2|8,0:0|0:0,0:0:0:0:
388,172,22367,2,0,L|458:243,1,100,2|8,0:0|0:0,0:0:0:0:
396,324,22967,1,2,0:0:0:0:
396,324,23117,2,0,P|347:335|299:324,1,100,0|2,0:0|0:0,0:0:0:0:
212,276,23717,2,0,P|163:265|115:276,1,100,2|0,0:0|0:0,0:0:0:0:
88,320,24167,6,0,P|121:227|88:136,1,200,4|2,0:0|0:0,0:0:0:0:
8,76,25067,1,10,0:0:0:0:
8,76,25217,1,2,0:0:0:0:
88,16,25517,2,0,B|128:44|128:44|184:44,1,100,2|2,0:0|0:0,0:0:0:0:
256,112,26117,1,2,0:0:0:0:
256,112,26267,1,8,0:0:0:0:
340,168,26567,6,0,P|256:214|172:168,2,200,2|2|2,0:0|0:0|0:0,0:0:0:0:
380,140,27917,1,2,0:0:0:0:
468,92,28217,1,2,0:0:0:0:
468,92,28367,2,0,P|478:140|467:188,1,100,8|8,0:0|0:0,0:0:0:0:
408,272,28967,6,0,L|304:256,1,100,4|8,0:0|0:0,0:0:0:0:
256,340,29567,2,0,L|152:324,1,100,2|8,0:0|0:0,0:0:0:0:
108,240,30167,1,2,0:0:0:0:
108,240,30317,2,0,B|108:208|96:192|96:192|108:176|108:144,1,100,2|2,0:0|0:0,0:0:0:0:
152,120,30767,2,0,L|53:104,1,100,0|8,0:0|0:0,0:0:0:0:
120,32,31367,6,0,L|317:62,1,200,2|2,0:0|0:0,0:0:0:0:
396,124,32267,1,8,0:0:0:0:
396,124,32417,2,0,P|423:192|396:260,1,150,2|10,0:0|0:0,0:0:0:0:
324,192,33167,2,0,P|275:181|227:192,1,100,2|14,0:0|0:0,0:0:0:0:
192,228,33617,6,0,P|143:239|95:228,1,100,2|2,0:0|0:0,0:0:0:0:
80,180,34067,2,0,P|90:228|79:276,1,100,8|2,0:0|0:0,0:0:0:0:
36,368,34667,1,8,0:0:0:0:
132,348,34967,6,0,L|189:357,1,50,2|2,0:0|0:0,0:0:0:0:
224,332,35267,2,0,L|322:347,1,100,8|2,0:0|0:0,0:0:0:0:
393,276,35867,1,10,0:0:0:0:
463,346,36167,5,8,0:0:0:0:
256,192,36317,12,2,37967,0:0:0:0:
