osu file format v14

[General]
AudioFilename: Despistaos - Fisica o Quimica.mp3
AudioLeadIn: 2000
PreviewTime: 9617
Countdown: 0
SampleSet: Soft
StackLeniency: 0.3
Mode: 0
LetterboxInBreaks: 0
WidescreenStoryboard: 0

[Editor]
DistanceSpacing: 1.1
BeatDivisor: 4
GridSize: 4
TimelineZoom: 1

[Metadata]
Title:Fisica o Quimica
TitleUnicode:Física o Química
Artist:Despistaos
ArtistUnicode:Despistaos
Creator:Gero
Version:Experto
Source:Física o Química
Tags:TV Size Version Intro Opening Antena 3 Carlos Montero Lo Que Hemos Vivido El Sueño de Morfeo Angy España FoQ Zurbarán LGBTQI Lesbian Gay Bisexual Transgender Queer Intersex Hanjamon
BeatmapID:664224
BeatmapSetID:295706

[Difficulty]
HPDrainRate:7
CircleSize:4
OverallDifficulty:7
ApproachRate:9
SliderMultiplier:1.8
SliderTickRate:2

[Events]
//Background and Video events
Video,0,"Video.avi"
0,0,"BG.jpg",0,0
//Break Periods
//Storyboard Layer 0 (Background)
//Storyboard Layer 1 (Fail)
//Storyboard Layer 2 (Pass)
//Storyboard Layer 3 (Foreground)
//Storyboard Sound Samples

[TimingPoints]
167,300,4,2,1,60,1,0
7367,-166.666666666667,4,2,1,60,0,0
7442,-166.666666666667,4,2,1,40,0,0
9467,-166.666666666667,4,2,1,60,0,0
9767,-100,4,2,1,80,0,1
19292,-100,4,2,1,80,0,0
19367,-100,4,2,1,80,0,1
28892,-100,4,2,1,80,0,0
28967,-100,4,2,1,70,0,1
29042,-100,4,2,1,70,0,0
36167,-166.666666666667,4,2,1,40,0,0

[Colours]
Combo1 : 151,154,193
Combo2 : 129,118,95
Combo3 : 251,94,94
Combo4 : 215,203,121
Combo5 : 200,157,111
Combo6 : 60,140,230
Combo7 : 225,119,197
Combo8 : 102,198,117

[HitObjects]
79,352,167,6,0,B|163:352|163:352|175:360|175:360|256:360,1,180,4|8,0:0|0:0,0:0:0:0:
328,288,617,1,0,0:0:0:0:
256,220,767,2,0,P|213:232|170:220,1,90,2|0,0:0|0:0,0:0:0:0:
328,140,1067,2,0,P|371:128|414:140,1,90,8|0,0:0|0:0,0:0:0:0:
496,192,1367,5,2,0:0:0:0:
414,140,1517,2,0,L|444:52,1,90,0|8,0:0|0:0,0:0:0:0:
496,192,1817,2,0,L|437:366,1,180,2|2,0:0|0:0,0:0:0:0:
340,380,2267,2,0,P|295:388|251:380,1,90,8|0,0:0|0:0,0:0:0:0:
4,320,2567,6,0,P|84:285|164:320,1,180,2|8,0:0|0:0,0:0:0:0:
84,380,3017,1,0,0:0:0:0:
4,320,3167,2,0,B|12:276|12:276|4:232,1,90,2|0,0:0|0:0,0:0:0:0:
100,104,3467,2,0,B|92:148|92:148|100:192,1,90,8|0,0:0|0:0,0:0:0:0:
188,144,3767,5,2,0:0:0:0:
100,104,3917,2,0,L|4:104,1,90,0|8,0:0|0:0,0:0:0:0:
176,52,4217,2,0,B|252:52|252:52|276:64|276:64|360:64,1,180,2|2,0:0|0:0,0:0:0:0:
432,4,4667,1,8,0:0:0:0:
508,68,4817,1,0,0:0:0:0:
428,124,4967,6,0,P|420:168|428:212,1,90,4|0,0:0|0:0,0:0:0:0:
500,368,5267,2,0,P|508:324|500:280,1,90,8|0,0:0|0:0,0:0:0:0:
412,324,5567,2,0,B|376:284|328:284|328:284|240:284,1,180,2|8,0:0|0:0,0:0:0:0:
176,360,6017,1,0,0:0:0:0:
364,187,6167,6,0,L|428:123,1,90,2|0,0:0|0:0,0:0:0:0:
191,7,6467,2,0,P|183:51|192:96,1,90,8|0,0:0|0:0,0:0:0:0:
320,96,6767,2,0,P|329:51|320:7,1,90,2|0,0:0|0:0,0:0:0:0:
84,123,7067,2,0,L|148:187,1,90,8|0,0:0|0:0,0:0:0:0:
256,300,7367,6,0,L|256:192,2,107.999996704102,8|2|0,0:0|0:0|0:0,0:0:0:0:
320,96,8267,2,0,B|296:60|256:49|256:49|216:60|192:96,2,161.999995056153,2|2|2,0:0|0:0|0:0,0:0:0:0:
320,96,9467,1,8,0:0:0:0:
320,96,9767,6,0,B|328:52|328:52|320:8,1,90,4|0,0:0|0:0,0:0:0:0:
424,148,10067,2,0,B|416:192|416:192|424:236,1,90,8|0,0:0|0:0,0:0:0:0:
508,288,10367,2,0,B|456:296|424:266|424:266|392:296|340:288,1,180,2|8,0:0|0:0,0:0:0:0:
256,344,10817,1,0,0:0:0:0:
172,288,10967,6,0,P|161:245|172:202,1,90,2|0,0:0|0:0,0:0:0:0:
256,148,11267,1,8,0:0:0:0:
256,148,11417,2,0,B|76:148,1,180,2|2,0:0|0:0,0:0:0:0:
8,220,11867,1,10,0:0:0:0:
152,64,12017,1,0,0:0:0:0:
152,64,12092,1,0,0:0:0:0:
152,64,12167,6,0,B|196:64|196:64|228:32,1,90,2|0,0:0|0:0,0:0:0:0:
324,192,12467,2,0,B|280:192|280:192|248:224,1,90,10|0,0:0|0:0,0:0:0:0:
392,272,12767,2,0,P|428:192|392:112,1,180,2|8,0:0|0:0,0:0:0:0:
324,32,13217,6,0,P|288:112|324:192,1,180,2|2,0:0|0:0,0:0:0:0:
392,272,13667,1,8,0:0:0:0:
324,344,13817,2,0,P|280:335|236:344,1,90,2|0,0:0|0:0,0:0:0:0:
77,272,14117,2,0,P|121:281|165:273,1,90,2|8,0:0|0:0,0:0:0:0:
120,184,14417,1,0,0:0:0:0:
120,184,14492,1,0,0:0:0:0:
120,184,14567,6,0,L|-8:312,1,180,4|8,0:0|0:0,0:0:0:0:
76,364,15017,1,0,0:0:0:0:
64,116,15167,2,0,L|0:180,1,90,2|0,0:0|0:0,0:0:0:0:
168,104,15467,5,8,0:0:0:0:
168,104,15617,2,0,B|211:80|247:100|255:104|263:108|299:128|342:104,1,180,2|2,0:0|0:0,0:0:0:0:
388,192,16067,1,8,0:0:0:0:
342,280,16217,2,0,B|299:256|263:276|255:280|247:284|211:304|168:280,1,180,2|2,0:0|0:0,0:0:0:0:
124,192,16667,1,8,0:0:0:0:
168,104,16817,1,0,0:0:0:0:
168,104,16892,1,0,0:0:0:0:
168,104,16967,6,0,L|208:24,1,90,2|0,0:0|0:0,0:0:0:0:
256,192,17267,2,0,L|216:272,1,90,10|0,0:0|0:0,0:0:0:0:
132,324,17567,2,0,P|216:296|300:324,1,180,2|8,0:0|0:0,0:0:0:0:
384,380,18017,1,0,0:0:0:0:
468,328,18167,6,0,B|460:284|460:284|468:240,1,90,2|0,0:0|0:0,0:0:0:0:
391,75,18467,2,0,B|399:119|399:119|391:163,1,90,8|0,0:0|0:0,0:0:0:0:
256,364,18767,6,0,L|200:344,1,60,8|8,0:0|0:0,0:0:0:0:
88,236,18967,2,0,L|144:256,1,60,8|8,0:0|0:0,0:0:0:0:
256,192,19167,2,0,L|200:172,1,60,8|8,0:0|0:0,0:0:0:0:
88,136,19367,6,0,P|174:136|216:56,1,180,4|8,0:0|0:0,0:0:0:0:
304,16,19817,1,0,0:0:0:0:
216,61,19967,2,0,L|131:29,1,90,2|0,0:0|0:0,0:0:0:0:
304,16,20267,2,0,L|389:48,1,90,8|0,0:0|0:0,0:0:0:0:
464,180,20567,6,0,B|464:252|392:252|392:340,1,180,2|8,0:0|0:0,0:0:0:0:
300,380,21017,2,0,L|492:380,1,180,2|2,0:0|0:0,0:0:0:0:
301,296,21467,2,0,L|209:296,1,90,8|0,0:0|0:0,0:0:0:0:
152,339,21692,1,0,0:0:0:0:
152,339,21767,6,0,P|164:296|152:253,1,90,2|0,0:0|0:0,0:0:0:0:
80,106,22067,2,0,P|68:149|80:192,1,90,8|0,0:0|0:0,0:0:0:0:
160,44,22367,2,0,B|120:12|80:4|80:4|40:12|0:44,1,180,2|8,0:0|0:0,0:0:0:0:
216,128,22817,5,0,0:0:0:0:
216,128,22892,1,0,0:0:0:0:
216,128,22967,2,0,B|240:144|256:148|256:148|272:144|296:128,1,90,2|0,0:0|0:0,0:0:0:0:
256,36,23267,1,8,0:0:0:0:
176,216,23417,2,0,P|256:251|336:216,1,180,2|2,0:0|0:0,0:0:0:0:
392,132,23867,1,8,0:0:0:0:
256,252,24017,1,0,0:0:0:0:
256,252,24092,1,0,0:0:0:0:
256,252,24167,6,0,B|256:280|248:296|248:296|256:312|256:340,1,90,4|0,0:0|0:0,0:0:0:0:
392,220,24467,2,0,B|392:192|400:176|400:176|392:160|392:132,1,90,10|0,0:0|0:0,0:0:0:0:
308,80,24767,2,0,B|392:80|392:80|400:88|400:88|488:88,1,180,2|10,0:0|0:0,0:0:0:0:
256,8,25217,6,0,L|192:72,1,90,2|0,0:0|0:0,0:0:0:0:
100,112,25517,2,0,L|164:176,1,90,2|8,0:0|0:0,0:0:0:0:
251,140,25817,2,0,L|124:268,1,180,2|2,0:0|0:0,0:0:0:0:
48,332,26267,1,8,0:0:0:0:
256,248,26417,1,0,0:0:0:0:
256,248,26492,1,0,0:0:0:0:
256,248,26567,6,0,B|332:248|332:248|384:248|424:288,1,180,2|8,0:0|0:0,0:0:0:0:
472,192,27017,1,0,0:0:0:0:
424,288,27167,2,0,L|384:372,1,90,2|0,0:0|0:0,0:0:0:0:
352,192,27467,2,0,L|392:108,1,90,8|0,0:0|0:0,0:0:0:0:
452,72,27692,1,0,0:0:0:0:
452,72,27767,6,0,P|372:107|292:72,1,180,2|8,0:0|0:0,0:0:0:0:
372,12,28217,1,0,0:0:0:0:
224,128,28367,6,0,L|160:120,1,60,8|8,0:0|0:0,0:0:0:0:
20,199,28567,2,0,L|80:192,1,60,8|8,0:0|0:0,0:0:0:0:
224,256,28767,2,0,L|160:264,1,60,8|8,0:0|0:0,0:0:0:0:
24,376,28967,6,0,L|202:351,1,180,4|8,0:0|0:0,0:0:0:0:
300,328,29417,1,0,0:0:0:0:
388,280,29568,2,0,B|396:324|396:324|388:368,1,90,2|0,0:0|0:0,0:0:0:0:
476,236,29867,2,0,B|468:192|468:192|476:148,1,90,8|0,0:0|0:0,0:0:0:0:
388,16,30167,5,2,0:0:0:0:
388,16,30317,2,0,B|396:60|396:60|388:104,1,90,2|8,0:0|0:0,0:0:0:0:
340,191,30617,2,0,P|256:219|172:192,1,180,2|2,0:0|0:0,0:0:0:0:
124,104,31067,2,0,B|116:60|116:60|124:16,1,90,8|2,0:0|0:0,0:0:0:0:
212,56,31367,6,0,L|48:144,1,180,2|8,0:0|0:0,0:0:0:0:
4,228,31817,1,0,0:0:0:0:
60,308,31967,2,0,P|148:308|200:376,1,180,2|8,0:0|0:0,0:0:0:0:
452,308,32417,2,0,P|364:308|312:376,1,180,2|2,0:0|0:0,0:0:0:0:
256,282,32867,2,0,L|256:192,1,90,10|0,0:0|0:0,0:0:0:0:
336,132,33167,2,0,B|256:90|256:90|176:132,1,180,2|14,0:0|0:0,0:0:0:0:
256,192,33617,5,2,0:0:0:0:
256,192,33692,1,0,0:0:0:0:
256,192,33767,1,0,0:0:0:0:
336,132,33917,2,0,L|432:132,1,90,2|8,0:0|0:0,0:0:0:0:
488,56,34217,1,0,0:0:0:0:
426,132,34367,2,0,P|398:216|426:300,1,180,2|8,0:0|0:0,0:0:0:0:
512,356,34817,6,0,P|427:328|343:356,1,180,2|2,0:0|0:0,0:0:0:0:
168,304,35267,2,0,P|212:313|256:304,1,90,8|0,0:0|0:0,0:0:0:0:
472,236,35567,2,0,P|428:227|384:236,1,90,2|2,0:0|0:0,0:0:0:0:
168,176,35867,2,0,P|212:185|256:176,1,90,10|0,0:0|0:0,0:0:0:0:
426,132,36167,6,0,L|456:16,2,107.999996704102,8|2|0,0:0|0:0|0:0,0:0:0:0:
324,196,37067,2,0,L|281:365,2,161.999995056153,2|2|2,0:0|0:0|0:0,0:0:0:0:
