osu file format v14

[General]
AudioFilename: Despistaos - Fisica o Quimica.mp3
AudioLeadIn: 2000
PreviewTime: 9617
Countdown: 0
SampleSet: Soft
StackLeniency: 0.3
Mode: 0
LetterboxInBreaks: 0
WidescreenStoryboard: 0

[Editor]
DistanceSpacing: 1.3
BeatDivisor: 4
GridSize: 4
TimelineZoom: 1

[Metadata]
Title:Fisica o Quimica
TitleUnicode:Física o Química
Artist:Despistaos
ArtistUnicode:Despistaos
Creator:Gero
Version:Dificil
Source:Física o Química
Tags:TV Size Version Intro Opening Antena 3 Carlos Montero Lo Que Hemos Vivido El Sueño de Morfeo Angy España FoQ Zurbarán LGBTQI Lesbian Gay Bisexual Transgender Queer Intersex Hanjamon
BeatmapID:664223
BeatmapSetID:295706

[Difficulty]
HPDrainRate:6
CircleSize:4
OverallDifficulty:6
ApproachRate:8
SliderMultiplier:1.4
SliderTickRate:2

[Events]
//Background and Video events
Video,0,"Video.avi"
0,0,"BG.jpg",0,0
//Break Periods
//Storyboard Layer 0 (Background)
//Storyboard Layer 1 (Fail)
//Storyboard Layer 2 (Pass)
//Storyboard Layer 3 (Foreground)
//Storyboard Sound Samples

[TimingPoints]
167,300,4,2,1,70,1,0
9767,-100,4,2,1,80,0,1
19292,-100,4,2,1,80,0,0
19367,-100,4,2,1,80,0,1
28892,-100,4,2,1,80,0,0
28967,-100,4,2,1,70,0,1
29042,-100,4,2,1,70,0,0
36167,-100,4,2,1,40,0,0

[Colours]
Combo1 : 151,154,193
Combo2 : 129,118,95
Combo3 : 251,94,94
Combo4 : 215,203,121
Combo5 : 200,157,111
Combo6 : 60,140,230
Combo7 : 225,119,197
Combo8 : 102,198,117

[HitObjects]
304,240,167,6,0,B|356:240|356:240|404:240|432:276,1,140,4|8,0:0|0:0,0:0:0:0:
208,144,767,2,0,B|156:144|156:144|108:144|80:108,1,140,2|8,0:0|0:0,0:0:0:0:
44,192,1217,1,0,0:0:0:0:
80,108,1367,2,0,L|80:38,2,70,2|0|8,0:0|0:0|0:0,0:0:0:0:
44,192,1817,2,0,B|44:252|44:252|52:272|52:272|52:332,1,140,2|2,0:0|0:0,0:0:0:0:
128,380,2267,1,8,0:0:0:0:
296,308,2567,6,0,P|364:308|416:356,1,140,2|8,0:0|0:0,0:0:0:0:
479,289,3017,1,0,0:0:0:0:
414,224,3167,2,0,L|464:88,1,140,2|8,0:0|0:0,0:0:0:0:
464,0,3617,1,0,0:0:0:0:
384,44,3767,6,0,B|352:24|352:24|320:24,1,70,2|0,0:0|0:0,0:0:0:0:
256,88,4067,1,8,0:0:0:0:
200,160,4217,2,0,B|236:168|256:199|256:199|276:168|312:160,1,140,2|2,0:0|0:0,0:0:0:0:
289,278,4667,2,0,P|256:288|223:278,1,70,8|0,0:0|0:0,0:0:0:0:
144,232,4967,5,4,0:0:0:0:
144,232,5117,2,0,L|200:364,1,140,2|2,0:0|0:0,0:0:0:0:
86,320,5567,2,0,L|32:192,1,140,2|8,0:0|0:0,0:0:0:0:
92,124,6017,6,0,B|140:76|140:76|216:76,1,140,2|2,0:0|0:0,0:0:0:0:
299,76,6467,2,0,B|372:76|372:76|420:124,1,140,8|2,0:0|0:0,0:0:0:0:
480,192,6917,1,0,0:0:0:0:
420,260,7067,1,8,0:0:0:0:
256,192,7367,5,8,0:0:0:0:
256,192,9467,1,8,0:0:0:0:
256,192,9767,6,0,L|104:192,1,140,4|8,0:0|0:0,0:0:0:0:
52,256,10217,1,0,0:0:0:0:
116,192,10367,2,0,L|176:132,1,70,2|0,0:0|0:0,0:0:0:0:
92,88,10667,2,0,L|152:28,1,70,8|0,0:0|0:0,0:0:0:0:
228,72,10967,6,0,B|288:72|288:72|304:64|304:64|372:64,1,140,2|8,0:0|0:0,0:0:0:0:
436,4,11417,2,0,P|412:68|436:132,1,140,2|2,0:0|0:0,0:0:0:0:
504,192,11867,2,0,L|444:228,1,70,10|0,0:0|0:0,0:0:0:0:
356,200,12167,6,0,L|436:320,1,140,2|10,0:0|0:0,0:0:0:0:
504,376,12617,1,0,0:0:0:0:
433,316,12767,2,0,B|405:280|357:280|357:280|305:280,1,140,2|8,0:0|0:0,0:0:0:0:
256,356,13217,6,0,B|204:356|204:356|156:356|128:320,1,140,2|2,0:0|0:0,0:0:0:0:
52,268,13667,1,8,0:0:0:0:
128,216,13817,2,0,B|136:182|136:182|128:148,1,70,2|0,0:0|0:0,0:0:0:0:
224,92,14117,2,0,B|216:126|216:126|224:160,1,70,2|8,0:0|0:0,0:0:0:0:
308,124,14417,1,0,0:0:0:0:
308,124,14567,6,0,L|225:11,1,140,4|8,0:0|0:0,0:0:0:0:
45,103,15167,2,0,L|128:216,1,140,2|8,0:0|0:0,0:0:0:0:
192,280,15617,6,0,P|128:256|64:280,1,140,2|2,0:0|0:0,0:0:0:0:
256,348,16067,1,8,0:0:0:0:
256,348,16217,2,0,P|320:372|384:348,1,140,2|2,0:0|0:0,0:0:0:0:
452,288,16667,1,8,0:0:0:0:
364,128,16967,6,0,B|336:104|336:104|296:104,1,70,2|0,0:0|0:0,0:0:0:0:
209,104,17267,2,0,B|176:104|176:104|148:128,1,70,10|0,0:0|0:0,0:0:0:0:
212,192,17567,2,0,B|224:224|256:245|256:245|288:224|300:192,1,140,2|8,0:0|0:0,0:0:0:0:
364,128,18017,5,0,0:0:0:0:
364,128,18167,2,0,B|356:94|356:94|364:60,1,70,2|0,0:0|0:0,0:0:0:0:
448,28,18467,2,0,B|456:62|456:62|448:96,1,70,8|0,0:0|0:0,0:0:0:0:
408,208,18767,6,0,L|377:254,2,46.6666666666667,8|8|8,0:0|0:0|0:0,0:0:0:0:
452,288,19067,2,0,L|425:326,2,46.6666666666667,8|8|8,0:0|0:0|0:0,0:0:0:0:
496,368,19367,2,0,L|352:368,1,140,4|8,0:0|0:0,0:0:0:0:
212,256,19967,6,0,P|184:192|184:120,1,140,2|8,0:0|0:0,0:0:0:0:
256,64,20417,1,0,0:0:0:0:
328,122,20567,2,0,P|327:192|300:256,1,140,2|8,0:0|0:0,0:0:0:0:
320,344,21017,2,0,B|256:372|256:372|192:344,1,140,2|2,0:0|0:0,0:0:0:0:
212,256,21467,1,8,0:0:0:0:
328,122,21767,6,0,B|363:122|363:122|389:96,1,70,2|0,0:0|0:0,0:0:0:0:
512,244,22067,2,0,B|477:244|477:244|452:268,1,70,8|0,0:0|0:0,0:0:0:0:
368,232,22367,2,0,B|472:128,1,140,2|8,0:0|0:0,0:0:0:0:
328,12,22967,5,2,0:0:0:0:
256,64,23117,2,0,P|223:74|190:64,1,70,0|8,0:0|0:0,0:0:0:0:
120,8,23417,2,0,P|144:72|120:136,1,140,2|2,0:0|0:0,0:0:0:0:
92,224,23867,1,8,0:0:0:0:
64,312,24017,1,0,0:0:0:0:
64,312,24092,1,0,0:0:0:0:
64,312,24167,6,0,L|216:312,1,140,4|10,0:0|0:0,0:0:0:0:
256,236,24617,1,0,0:0:0:0:
256,236,24767,2,0,L|408:236,1,140,2|10,0:0|0:0,0:0:0:0:
464,176,25217,6,0,P|439:240|463:304,1,140,2|2,0:0|0:0,0:0:0:0:
396,368,25667,1,8,0:0:0:0:
463,304,25817,2,0,L|532:304,1,70,2|0,0:0|0:0,0:0:0:0:
396,368,26117,2,0,L|327:368,1,70,2|8,0:0|0:0,0:0:0:0:
212,123,26567,6,0,P|256:21|300:123,2,280,2|2|2,0:0|0:0|0:0,0:0:0:0:
188,212,27917,2,0,P|256:226|324:212,1,140,2|2,0:0|0:0,0:0:0:0:
392,148,28367,6,0,L|420:100,2,46.6666666666667,8|8|8,0:0|0:0|0:0,0:0:0:0:
444,224,28667,2,0,L|472:176,2,46.6666666666667,8|8|8,0:0|0:0|0:0,0:0:0:0:
492,292,28967,6,0,B|464:256|416:256|416:256|364:256,1,140,4|8,0:0|0:0,0:0:0:0:
148,256,29567,2,0,B|96:256|96:256|48:256|20:292,1,140,2|8,0:0|0:0,0:0:0:0:
222,192,30167,6,0,B|256:185|256:185|290:192,1,70,2|2,0:0|0:0,0:0:0:0:
256,276,30467,1,8,0:0:0:0:
188,108,30617,2,0,B|256:92|256:92|324:108,1,140,2|2,0:0|0:0,0:0:0:0:
448,192,31067,2,0,L|379:177,1,70,8|2,0:0|0:0,0:0:0:0:
492,128,31367,2,0,B|492:168|469:192|469:192|492:216|492:256,1,140,2|8,0:0|0:0,0:0:0:0:
304,340,31967,6,0,B|304:300|327:276|327:276|304:252|304:212,1,140,2|8,0:0|0:0,0:0:0:0:
208,212,32417,2,0,B|208:252|185:276|185:276|208:300|208:340,1,140,2|2,0:0|0:0,0:0:0:0:
96,308,32867,2,0,P|89:274|96:240,1,70,10|0,0:0|0:0,0:0:0:0:
132,88,33167,2,0,P|139:122|132:156,1,70,2|0,0:0|0:0,0:0:0:0:
52,52,33467,1,14,0:0:0:0:
52,52,33617,6,0,L|192:24,1,140,2|2,0:0|0:0,0:0:0:0:
256,88,34067,2,0,L|323:73,1,70,8|0,0:0|0:0,0:0:0:0:
392,12,34367,2,0,B|368:40|356:72|356:72|368:104|392:132,1,140,2|8,0:0|0:0,0:0:0:0:
456,196,34817,6,0,B|480:168|492:136|492:136|480:104|456:76,1,140,2|2,0:0|0:0,0:0:0:0:
392,132,35267,2,0,L|324:146,1,70,8|0,0:0|0:0,0:0:0:0:
220,246,35567,2,0,L|288:232,1,70,2|2,0:0|0:0,0:0:0:0:
152,316,35867,2,0,L|84:330,1,70,10|0,0:0|0:0,0:0:0:0:
12,272,36167,5,8,0:0:0:0:
256,192,36317,12,2,37967,0:0:0:0:
