osu file format v5

[General]
AudioFilename: Dan Dan Dou.mp3
AudioLeadIn: 0
PreviewTime: -1
Countdown: 1
SampleSet: Normal
StackLeniency: 0.7
Mode: 0
LetterboxInBreaks: 1
EditorDistanceSpacing: 0.800000011920929

[Metadata]
Title:Dan Dan Dou
Artist:Des-ROW
Creator:Wojjan
Version:Normal
Source:Pop'n'music
Tags:desQ desrow Des-Q pop'nmusic pop music

[Difficulty]
HPDrainRate:5
CircleSize:5
OverallDifficulty:5
SliderMultiplier:1.4
SliderTickRate:1

[Events]
//Background and Video events
//Break Periods
2,7351,12326
2,30788,33326
2,57964,63274
//Storyboard Layer 0 (Background)
//Storyboard Layer 1 (Failing)
//Storyboard Layer 2 (Passing)
//Storyboard Layer 3 (Foreground)
//Storyboard Sound Samples
//Background Colour Transformations
3,100,163,162,255

[TimingPoints]
1496,375,4,1,0,100,1,0
39213,-100,4,1,0,60,0,0
40338,-100,4,1,0,100,0,0
55760,-100,4,1,0,0,0,0
55854,-100,4,1,0,100,0,0
56135,-100,4,1,0,0,0,0
56228,-100,4,1,0,100,0,0
64526,383.386581469649,4,1,0,100,1,0
79873,384.615384615385,4,1,0,100,1,0
88919,-100,4,1,0,100,0,1
100718,-100,4,1,0,100,0,0
100766,-100,4,1,0,100,0,1

[HitObjects]
48,48,1496,1,0
160,48,1871,2,2,B|304:48,1,140
416,48,2621,1,0
464,144,2996,5,0
352,144,3371,2,2,B|208:144,1,140
96,144,4121,1,0
48,240,4496,6,2,B|192:240,1,140,0|2
304,240,5246,2,2,B|464:240,1,140,0|2
480,144,5996,5,0
368,144,6371,1,2
256,144,6746,1,2
144,144,7121,1,2
64,96,13496,6,0,B|272:32|496:96,1,420,2|0
480,288,14996,6,0,B|272:352|48:288,1,420,2|0
112,96,16496,6,0,B|304:128|224:240|496:288,1,420,2|0
416,96,17996,6,0,B|224:128|304:240|32:288,1,420,8|0
112,192,19496,5,0
144,80,19871,1,8
256,48,20246,1,0
256,192,20621,1,2
256,336,20996,1,0
144,304,21371,1,8
112,192,21746,2,0,B|192:192,1,70,0|2
400,192,22496,5,0
368,80,22871,1,8
256,48,23246,1,0
144,80,23621,1,8
256,192,23996,1,2
368,304,24371,1,8
256,336,24746,2,0,B|176:336|176:336|144:320|144:288,1,140,0|4
96,192,25496,5,0
256,192,25871,1,2
400,192,26246,1,0
256,192,26621,1,2
256,48,26996,1,8
368,80,27371,1,8
400,192,27746,2,2,B|288:192,1,105
144,80,28496,5,8
256,80,28777,1,8
368,80,29058,1,4
368,304,29996,5,8
256,304,30277,1,8
144,304,30558,1,8
96,192,34496,6,0,B|96:112,2,70,8|0|8
208,192,35246,2,0,B|208:240,3,46.6666666666667,8|0|0|8
320,192,35996,2,0,B|320:112,2,70,8|0|8
432,192,36746,2,0,B|432:240,3,46.6666666666667,8|0|0|8
320,192,37496,2,0,B|320:144,6,46.6666666666667,8|0|0|8|0|0|8
208,192,38621,2,0,B|208:144,3,46.6666666666667,8|0|0|8
208,145,39371,5,8
208,145,39746,5,8
208,145,40121,5,8
264,48,40496,6,0,B|376:48,2,105
280,104,41246,2,0,B|392:104,2,105
296,160,41996,2,0,B|416:160,2,105
312,216,42746,2,0,B|392:216,2,70
256,160,43496,6,0,B|272:80|256:48,1,93.3333333333333,8|8
288,192,44246,2,8,B|368:208|400:192,1,93.3333333333333
256,224,44996,2,8,B|240:304|256:368,1,140
224,192,45746,2,4,B|144:176|80:192,1,140
256,192,46496,12,8,48746
256,192,49496,12,4,51746
256,52,52496,6,0,B|256:192,1,140
256,332,53246,2,0,B|256:192,1,140,4|2
112,192,53996,6,2,B|400:192,1,280,4|4
368,80,55121,5,0
256,16,55496,2,0,B|256:128,1,105,8|0
256,121,55871,2,0,B|256:240,1,105
256,226,56246,2,8,B|256:368,1,140,8|4
160,336,56996,6,8,B|160:32,1,280,8|4
176,48,64526,5,4
336,48,65101,1,4
256,224,65676,1,0
176,304,66059,1,4
336,304,66634,1,4
396,64,67593,6,0,B|256:64,2,140,0|8|0
336,144,68743,1,8
396,224,69126,2,0,B|256:224,2,140,0|8|8
336,304,70276,1,8
176,48,70660,5,4
336,48,71235,1,4
256,224,71810,1,0
176,304,72193,1,4
336,304,72768,1,4
80,32,73730,5,8
192,32,74110,1,8
304,32,74494,1,8
416,32,74877,1,8
416,144,75260,5,8
416,256,75644,1,8
304,256,76027,1,8
304,144,76410,1,4
192,144,76794,5,4
80,144,77177,1,0
80,192,77369,1,4
80,352,77944,1,0
192,352,78327,5,4
192,240,78711,1,0
192,192,78902,1,4
192,32,79478,1,0
304,32,79873,5,0
352,32,80065,1,0
400,32,80257,1,2
304,96,80642,1,0
352,112,80834,1,0
400,96,81026,1,2
304,160,81411,1,0
352,192,81603,1,0
400,160,81796,1,2
304,224,82180,1,0
352,272,82373,1,0
400,224,82565,1,2
256,192,82949,6,4,B|336:160|304:64|400:32,1,210
256,192,84488,2,4,B|160:160|192:64|96:32,1,210
256,192,85642,5,8
112,192,86026,5,0
144,80,86411,1,0
256,48,86796,1,0
368,80,87180,1,0
400,192,87565,1,0
368,304,87949,1,0
256,336,88334,1,0
144,304,88719,1,0
112,192,89103,5,2
144,304,89492,1,0
256,336,89873,1,2
368,304,90257,1,0
400,192,90642,1,2
368,80,91026,1,0
256,48,91411,1,2
144,80,91796,1,0
256,48,92180,5,2
368,80,92565,1,0
400,192,92949,1,2
368,304,93334,1,0
256,336,93719,1,2
144,304,94103,1,0
112,192,94488,1,2
144,80,94873,1,0
256,48,95257,5,0
144,80,95642,1,0
112,192,96026,1,0
144,304,96411,1,0
256,336,96796,1,0
368,304,97180,1,0
400,192,97565,1,0
368,80,97949,1,0
400,192,98334,5,4
368,304,98719,1,4
256,336,99103,1,4
144,304,99488,1,4
112,192,99873,1,4
144,80,100257,1,4
256,48,100642,1,4
256,192,101026,1,4
