osu file format v5

[General]
AudioFilename: Dan Dan Dou.mp3
AudioLeadIn: 0
PreviewTime: -1
Countdown: 1
SampleSet: Normal
StackLeniency: 0.7
Mode: 0
LetterboxInBreaks: 1
EditorDistanceSpacing: 0.800000011920929

[Metadata]
Title:Dan Dan Dou
Artist:Des-ROW
Creator:Wojjan
Version:Hyper
Source:Pop'n'music
Tags:desQ desrow Des-Q pop'nmusic pop music

[Difficulty]
HPDrainRate:5
CircleSize:5
OverallDifficulty:5
SliderMultiplier:1.4
SliderTickRate:1

[Events]
//Background and Video events
//Break Periods
2,7351,12326
2,30788,33326
2,57964,63274
//Storyboard Layer 0 (Background)
//Storyboard Layer 1 (Fail)
//Storyboard Layer 2 (Pass)
//Storyboard Layer 3 (Foreground)
//Storyboard Sound Samples
//Background Colour Transformations
3,100,163,162,255

[TimingPoints]
1496,375,4,1,0,100,1,0
39213,-100,4,1,0,60,0,0
40338,-100,4,1,0,100,0,0
55760,-100,4,1,0,0,0,0
55854,-100,4,1,0,100,0,0
56135,-100,4,1,0,0,0,0
56228,-100,4,1,0,100,0,0
64526,383.386581469649,4,1,0,100,1,0
79873,384.615384615385,4,1,0,100,1,0
88919,-100,4,1,0,100,0,1
100718,-100,4,1,0,100,0,0
100766,-100,4,1,0,100,0,1

[HitObjects]
48,48,1496,1,0
160,48,1871,2,2,B|304:48,1,140
352,48,2433,1,0
416,48,2621,1,4
464,144,2996,5,0
400,144,3183,1,0
336,144,3371,2,2,B|192:144,1,140
136,144,3933,1,0
80,144,4121,1,4
48,240,4496,6,2,B|192:240,1,140,0|2
240,240,5058,1,0
304,240,5246,2,2,B|464:240,1,140,0|6
480,144,5996,5,0
400,144,6277,1,2
320,144,6558,1,2
256,144,6746,1,2
192,144,6933,1,4
64,96,13496,6,0,B|272:32|496:96,1,420,2|0
480,192,14808,5,0
480,288,14996,2,0,B|272:352|48:288,1,420,2|0
88,192,16308,5,0
112,96,16496,2,0,B|304:128|224:240|496:288,1,420,2|0
448,192,17808,5,0
416,96,17996,2,0,B|224:128|304:240|32:288,1,420,8|0
112,192,19496,5,0
120,136,19683,1,0
144,80,19871,1,8
256,48,20246,1,0
256,120,20433,1,0
256,192,20621,1,2
256,336,20996,1,0
200,328,21183,1,0
144,304,21371,1,8
120,248,21558,1,0
112,192,21746,2,0,B|192:192,1,70,0|2
400,192,22496,5,0
392,136,22683,1,0
368,80,22871,1,8
312,56,23058,1,0
256,48,23246,1,0
200,56,23433,1,0
144,80,23621,1,8
256,192,23996,1,2
368,304,24371,1,8
256,336,24746,2,0,B|176:336|176:336|144:320|144:288,1,140,0|4
104,192,25496,5,0
184,192,25683,1,0
256,192,25871,1,2
328,192,26058,1,0
400,192,26246,1,0
256,192,26621,1,2
256,48,26996,1,8
280,48,27089,1,8
312,56,27183,1,0
344,64,27277,1,0
368,80,27371,1,8
400,192,27746,2,2,B|288:192,1,105
144,80,28496,5,8
256,80,28777,1,8
368,80,29058,1,4
368,248,29621,5,2
368,248,29808,1,0
368,304,29996,5,8
256,304,30277,1,8
144,304,30558,1,8
88,192,34496,5,8
88,192,34683,1,8
88,192,34871,1,0
208,192,35246,2,0,B|208:240,3,46.6666666666667,8|0|0|8
328,192,35996,1,8
328,192,36183,1,0
328,192,36371,1,8
432,192,36746,2,0,B|432:240,3,46.6666666666667,8|0|0|8
320,192,37496,2,0,B|320:144,6,46.6666666666667,8|0|0|8|0|0|8
264,176,38433,1,0
208,192,38621,2,0,B|208:144,3,46.6666666666667,8|0|0|8
208,145,39371,5,8
208,145,39746,5,8
208,145,40121,5,0
224,64,40371,1,0
256,40,40496,6,0,B|368:40,1,105
440,40,41058,1,0
464,104,41246,2,0,B|352:104,1,105
272,104,41808,1,0
256,168,41996,2,0,B|368:168,1,105
440,168,42558,1,0
368,232,42746,2,0,B|288:232,2,70
256,160,43496,5,0
256,88,43777,1,8
256,224,44246,1,0
256,296,44527,1,8
296,192,44996,1,0
408,192,45371,1,2
224,192,45746,1,4
112,192,46121,1,4
256,192,46496,12,8,48746
256,192,49121,5,0
256,192,49496,12,4,51746
256,52,52496,6,0,B|256:192,1,140,4|2
256,332,53246,2,0,B|256:192,1,140,4|2
184,192,53996,6,0,B|344:192,2,140,4|8|4
152,80,55121,5,0
256,32,55496,2,0,B|256:128,1,93.3333333333333
256,125,55871,2,0,B|256:224,1,93.3333333333333
256,218,56246,2,0,B|256:360,1,140
152,320,56996,5,8
152,280,57121,1,0
152,240,57246,1,0
152,200,57371,1,8
152,128,57621,1,0
152,88,57746,1,4
176,48,64526,5,4
336,48,65101,1,4
256,224,65676,1,0
216,264,65867,1,0
176,304,66059,1,4
336,304,66634,1,4
396,64,67593,5,2
280,64,67976,1,2
336,64,68168,1,0
396,64,68359,1,2
328,144,68743,1,8
392,216,69126,1,2
336,216,69318,1,0
280,216,69510,1,2
392,216,69893,1,2
360,264,70085,1,0
328,304,70276,1,8
176,48,70660,5,4
336,48,71235,1,4
256,224,71810,1,0
176,304,72193,1,4
336,304,72768,1,4
80,32,73727,5,8
136,32,73918,1,0
192,32,74110,1,8
304,32,74494,1,8
360,32,74685,1,0
416,32,74877,1,8
416,144,75260,5,8
416,200,75452,1,0
416,256,75644,1,8
360,256,75835,1,8
304,256,76027,1,8
304,200,76219,1,0
304,144,76410,1,4
192,144,76794,5,4
80,144,77177,1,0
80,192,77369,1,4
80,304,77752,1,0
80,352,77944,1,0
192,352,78327,5,4
192,240,78711,1,0
192,192,78902,1,4
192,80,79286,1,0
192,32,79478,1,0
304,24,79861,5,0
360,24,80065,1,0
416,24,80257,1,2
472,24,80449,1,0
480,80,80642,1,0
424,80,80834,1,0
368,80,81026,1,2
312,80,81218,1,0
304,136,81411,1,0
360,136,81603,1,0
416,136,81795,1,2
472,136,81988,1,0
480,192,82180,1,0
424,192,82372,1,0
368,192,82565,1,2
256,192,82949,6,4,B|176:160|208:64|112:32,1,210
256,192,84488,2,4,B|352:160|320:64|416:32,1,210
256,192,85642,5,8
96,192,86026,5,2
104,128,86219,1,0
136,72,86411,1,2
192,40,86603,1,0
256,32,86796,1,2
320,40,86988,1,0
376,72,87180,1,2
408,128,87372,1,0
416,192,87565,1,2
408,256,87757,1,0
376,312,87949,1,2
320,344,88142,1,0
256,352,88334,1,2
192,344,88526,1,0
136,312,88719,1,2
256,352,89103,5,2
320,344,89296,1,0
376,312,89488,1,4
408,256,89680,1,0
416,192,89872,1,2
408,128,90065,1,0
376,72,90257,1,4
320,40,90449,1,0
256,32,90642,1,2
192,40,90834,1,0
136,72,91026,1,4
104,128,91219,1,0
96,192,91411,1,2
104,256,91603,1,0
136,312,91796,1,4
256,352,92180,5,2
192,344,92372,1,0
136,312,92565,1,4
104,256,92757,1,0
96,192,92949,1,2
104,128,93142,1,0
136,72,93334,1,4
192,40,93526,1,0
256,32,93719,1,2
320,40,93911,1,0
376,72,94103,1,4
408,128,94296,1,0
416,192,94488,1,2
408,256,94680,1,0
376,312,94872,1,4
416,192,95257,5,4
408,128,95449,1,0
376,72,95642,1,4
320,40,95834,1,0
256,32,96026,1,4
192,40,96219,1,0
136,72,96411,1,4
104,128,96603,1,0
96,192,96796,1,4
104,256,96988,1,0
136,312,97180,1,4
192,344,97372,1,0
256,352,97565,1,4
320,344,97757,1,0
376,312,97949,1,4
256,352,98334,5,12
256,272,98526,1,0
256,192,98718,1,12
176,192,98911,1,0
96,192,99103,1,12
176,192,99295,1,0
256,192,99488,1,12
256,112,99680,1,0
256,32,99872,1,12
256,112,100065,1,0
256,192,100257,1,12
336,192,100449,1,0
416,192,100642,1,12
336,192,100834,1,0
256,192,101026,1,12
