osu file format v5

[General]
AudioFilename: Dan Dan Dou.mp3
AudioLeadIn: 0
PreviewTime: -1
Countdown: 1
SampleSet: Normal
StackLeniency: 0.2
Mode: 0
LetterboxInBreaks: 1
EditorDistanceSpacing: 0.899999976158142

[Metadata]
Title:Dan Dan Dou
Artist:Des-ROW
Creator:Wojjan
Version:EX
Source:Pop'n'music
Tags:desQ desrow Des-Q pop'nmusic pop music

[Difficulty]
HPDrainRate:5
CircleSize:5
OverallDifficulty:5
SliderMultiplier:1.4
SliderTickRate:3

[Events]
//Background and Video events
//Break Periods
2,7351,12326
2,30788,33326
2,57976,63326
//Storyboard Layer 0 (Background)
//Storyboard Layer 1 (Failing)
//Storyboard Layer 2 (Passing)
//Storyboard Layer 3 (Foreground)
//Storyboard Sound Samples
//Background Colour Transformations
3,100,163,162,255

[TimingPoints]
1496,375,4,1,0,100,1,0
39213,-100,4,1,0,60,0,0
40338,-100,4,1,0,100,0,0
55760,-100,4,1,0,0,0,0
55854,-100,4,1,0,100,0,0
56135,-100,4,1,0,0,0,0
56228,-100,4,1,0,100,0,0
64526,383.386581469649,4,1,0,100,1,0
79873,384.615384615385,4,1,0,100,1,0
88919,-100,4,1,0,100,0,1
100718,-100,4,1,0,100,0,0
100766,-100,4,1,0,100,0,1

[HitObjects]
48,48,1496,1,0
120,48,1683,1,0
192,48,1871,1,8
264,48,2058,1,0
296,48,2182,1,8
328,48,2276,1,8
400,48,2433,1,0
472,48,2621,1,4
480,192,2996,5,0
448,192,3119,1,0
408,192,3213,1,8
368,192,3307,1,8
328,192,3401,1,0
256,192,3558,1,0
216,192,3682,1,0
176,192,3776,1,8
104,192,3933,1,0
32,192,4121,1,4
8,328,4496,5,8
40,328,4619,1,8
72,328,4713,1,8
104,328,4807,1,8
136,328,4901,1,0
208,328,5058,1,0
280,328,5246,1,0
312,328,5369,1,0
344,328,5463,1,8
376,328,5557,1,8
408,328,5651,1,8
432,264,5808,1,4
416,192,5996,5,8
344,192,6183,1,0
304,192,6371,1,8
200,192,6558,1,8
168,192,6682,1,0
136,192,6776,1,8
64,192,6933,1,4
64,96,13496,6,8,B|272:32|496:96,1,420,0|0
400,192,14808,5,0
480,288,14996,6,0,B|272:352|48:288,1,420,8|0
144,208,16308,5,0
112,96,16496,6,0,B|304:128|224:240|496:288,1,420,8|0
400,192,17808,5,0
416,96,17996,6,0,B|224:128|304:240|32:288,1,420,2|0
112,192,19496,5,6
112,120,19683,1,0
112,48,19871,1,8
184,48,20058,1,8
256,48,20246,1,8
328,120,20433,1,4
400,192,20621,1,8
400,120,20808,1,0
400,48,20996,1,0
328,120,21183,1,4
256,192,21371,1,8
184,192,21558,1,8
144,192,21682,1,0
112,192,21776,1,2
112,112,21933,1,12
112,336,22496,5,0
184,336,22683,1,0
256,336,22871,1,2
256,264,23058,1,0
256,192,23246,1,2
184,192,23433,1,0
112,192,23621,1,8
184,120,23808,1,0
256,48,23996,1,8
256,120,24183,1,8
256,192,24371,1,0
256,264,24558,1,2
256,336,24746,2,8,B|184:336|184:336|184:248,1,140,8|0
112,192,25496,5,8
152,192,25619,1,8
184,192,25713,1,0
224,192,25807,1,0
256,192,25901,1,0
288,192,25994,1,8
328,192,26088,1,8
360,192,26182,1,8
400,192,26276,1,0
360,152,26433,1,0
256,48,26621,1,0
296,48,26744,1,8
328,48,26838,1,8
360,48,26932,1,0
400,48,27026,1,0
400,80,27119,1,2
400,120,27213,1,2
400,160,27307,1,2
400,192,27401,1,2
360,192,27558,1,0
256,192,27746,1,0
224,224,27869,1,0
192,256,27963,1,8
160,288,28121,1,8
144,80,28496,5,8
256,80,28871,1,8
368,80,29058,1,4
464,264,29621,5,2
456,296,29744,1,2
432,320,29838,1,0
400,328,29932,1,0
368,328,30026,5,8
256,328,30371,1,8
144,328,30558,1,8
48,192,34496,5,0
48,192,34683,1,0
48,192,34871,1,4
184,192,35246,1,8
184,192,35401,1,8
184,192,35526,1,0
184,192,35621,1,4
320,192,35996,1,0
320,192,36183,1,0
320,192,36371,1,4
456,192,36746,1,8
456,192,36901,1,8
456,192,37026,1,8
456,192,37121,1,4
320,192,37496,1,8
320,192,37651,1,8
320,192,37776,1,8
320,192,37871,1,0
320,192,38026,1,8
320,192,38151,1,8
320,192,38246,1,8
248,192,38433,1,2
184,192,38621,1,8
184,192,38776,1,0
184,192,38901,1,0
184,192,38996,1,4
184,192,39371,5,12
184,192,39746,5,4
184,192,40121,5,0
216,56,40496,5,0
312,56,40683,1,0
408,56,41058,1,0
408,144,41246,1,0
312,144,41433,1,0
216,144,41621,1,0
216,232,41996,5,0
312,232,42183,1,0
408,232,42371,1,0
408,144,42558,1,0
312,144,42746,1,0
216,144,42933,1,0
256,264,43496,5,2
256,168,43683,1,0
256,168,43871,1,2
256,264,44058,1,0
256,264,44246,1,2
352,264,44433,1,0
352,264,44621,1,2
256,264,44808,1,0
256,264,44996,1,2
256,264,45151,1,0
256,264,45276,1,0
256,264,45371,1,2
304,216,45558,1,0
352,168,45746,1,4
256,264,46121,1,12
240,128,46496,6,0,B|240:32|96:48|96:192|96:224|160:224|208:224|208:192|224:144|224:96|160:96|112:80|48:80|32:128|16:192|32:272|48:336|144:352|240:368|352:336|352:256,1,840
240,240,49121,5,0
350,276,49496,6,0,B|454:273|454:161|390:97|262:97|198:161|150:209|54:209|38:145|22:81|70:33|182:33|262:33|262:97|262:145|262:209|54:209|38:257|22:305|70:321|150:353|166:353|150:321|166:321,1,840,0|0
320,336,52121,5,0
272,320,52276,1,0
256,272,52401,1,0
208,256,52496,1,8
208,160,52683,1,0
160,144,52871,1,8
160,48,53058,1,0
208,32,53246,1,8
304,32,53433,1,0
352,48,53621,1,8
352,144,53808,1,0
304,160,53996,1,0
256,160,54151,1,0
208,160,54276,1,0
160,144,54371,1,0
160,48,54558,1,0
208,32,54746,1,0
256,160,55121,5,0
368,240,55496,1,0
336,320,55683,1,0
288,320,55871,1,2
320,240,56058,1,0
272,240,56246,1,8
160,320,56621,1,4
272,240,56996,1,8
224,240,57151,1,8
176,240,57276,1,0
128,240,57371,1,8
160,320,57558,1,0
208,320,57746,1,4
32,192,64526,5,4
480,192,65101,1,4
256,192,65676,1,8
256,192,65867,1,8
256,368,66059,1,4
256,16,66634,1,4
64,56,67593,5,0
136,56,67774,1,2
168,56,67869,1,0
200,56,67976,1,4
184,128,68156,1,0
216,128,68252,1,2
248,128,68359,1,2
232,200,68538,1,0
264,200,68634,1,2
296,200,68743,1,0
280,264,68920,1,2
312,264,69016,1,4
344,264,69126,1,4
296,200,69303,1,0
328,200,69398,1,8
360,200,69510,1,0
344,128,69685,1,0
376,128,69780,1,8
408,128,69893,1,8
392,56,70085,1,0
320,56,70276,1,0
248,56,70468,1,4
80,80,70660,5,4
432,304,71235,1,4
256,192,71787,1,2
208,208,71882,1,2
176,256,71978,1,0
128,272,72073,1,0
80,304,72193,5,4
432,80,72768,1,4
64,32,73727,5,8
136,32,73889,1,0
168,32,73984,1,0
200,32,74110,1,8
272,32,74302,1,8
344,32,74494,1,8
416,32,74653,1,0
416,72,74748,1,0
416,104,74877,1,8
416,168,75069,1,8
416,240,75260,1,0
344,240,75417,1,0
344,200,75513,1,0
344,168,75644,1,8
344,104,75835,1,0
280,72,76027,1,2
256,136,76219,1,2
280,200,76410,1,2
256,264,76602,1,6
216,200,76794,5,4
72,200,77177,1,0
72,200,77369,1,4
216,48,77944,1,0
216,200,78327,5,4
72,200,78711,1,0
72,200,78902,1,4
216,48,79478,1,0
352,48,79861,5,0
352,48,79969,1,0
352,48,80065,1,0
416,48,80257,1,2
416,112,80449,1,0
416,112,80546,1,0
416,112,80642,1,2
352,112,80834,1,2
352,176,81026,1,2
352,176,81123,1,0
352,176,81219,1,0
352,176,81315,1,0
352,176,81411,1,2
416,176,81603,1,2
416,176,81699,1,0
416,240,81892,1,2
416,240,81988,1,0
352,240,82180,1,2
352,304,82373,1,8
288,304,82565,1,2
240,256,82757,1,4
256,192,82949,5,4
192,160,83142,1,0
208,96,83334,1,0
160,48,83526,1,4
256,192,84103,1,8
256,192,84296,1,8
256,192,84488,1,4
320,160,84680,1,0
288,96,84872,1,0
336,48,85065,1,4
256,256,85642,5,8
112,256,86026,5,8
112,192,86219,1,0
112,128,86411,1,4
112,64,86603,1,0
144,64,86721,1,0
176,64,86817,1,8
240,64,86988,1,0
304,64,87180,1,8
368,64,87372,1,0
368,128,87565,1,8
304,128,87757,1,0
240,128,87949,1,8
176,128,88142,1,0
176,160,88250,1,0
176,192,88346,1,8
240,192,88526,1,0
304,192,88719,1,8
304,320,89103,5,8
240,320,89296,1,0
176,320,89488,1,6
176,256,89680,1,0
176,224,89779,1,0
176,192,89874,1,8
240,192,90065,1,12
304,192,90257,1,2
304,256,90449,1,4
240,256,90642,1,6
240,192,90834,1,2
240,128,91026,1,6
240,64,91212,1,0
208,64,91307,1,0
176,64,91411,1,8
176,128,91603,1,12
240,128,91796,1,12
368,192,92180,5,4
384,128,92372,1,0
336,80,92565,1,2
384,128,92741,1,8
352,136,92836,1,0
320,144,92949,1,8
304,208,93142,1,4
256,160,93334,1,2
272,96,93505,1,4
240,104,93600,1,0
208,112,93719,1,8
192,176,93911,1,0
240,224,94103,1,8
304,208,94269,1,12
336,200,94365,1,0
368,192,94488,1,8
320,144,94680,1,12
336,80,94872,1,12
208,112,95257,5,12
192,176,95449,1,0
208,112,95642,1,12
192,176,95798,1,0
224,168,95893,1,0
256,160,96026,1,12
192,176,96219,1,4
240,224,96411,1,12
192,176,96562,1,4
200,144,96658,1,0
208,112,96796,1,12
192,176,96988,1,0
144,128,97180,1,8
192,176,97372,1,0
176,240,97565,1,8
128,192,97757,1,8
192,176,97949,1,2
304,272,98334,5,4
256,224,98526,1,4
304,272,98719,1,6
320,208,98911,1,4
304,272,99103,1,0
368,256,99296,1,4
304,272,99488,1,2
352,320,99620,1,0
328,296,99715,1,0
304,272,99872,1,4
288,336,100065,1,4
304,272,100257,1,12
240,288,100449,1,0
304,272,100642,1,12
304,272,100834,1,8
304,272,101026,1,6
