osu file format v14

[General]
AudioFilename: The DERP song.mp3
AudioLeadIn: 0
PreviewTime: -1
Countdown: 1
SampleSet: None
StackLeniency: 0.7
Mode: 0
LetterboxInBreaks: 1
WidescreenStoryboard: 1

[Editor]
DistanceSpacing: 1.7
BeatDivisor: 1
GridSize: 32
TimelineZoom: 1

[Metadata]
Title:Derp Song
TitleUnicode:Derp Song
Artist:Derp
ArtistUnicode:Derp
Creator:Sakura2k5
Version:Relax derp
Source:
Tags:
BeatmapID:762284
BeatmapSetID:316343

[Difficulty]
HPDrainRate:0
CircleSize:2
OverallDifficulty:0
ApproachRate:0
SliderMultiplier:1.4
SliderTickRate:1

[Events]
//Background and Video events
0,0,"imgres.jpg",0,0
//Break Periods
//Storyboard Layer 0 (Background)
//Storyboard Layer 1 (Fail)
//Storyboard Layer 2 (Pass)
//Storyboard Layer 3 (Foreground)
//Storyboard Sound Samples

[TimingPoints]
0,333.333333333333,4,1,1,100,1,0

[Colours]
Combo1 : 210,28,215
Combo2 : 198,192,4
Combo3 : 0,255,255

[HitObjects]
256,192,7200,5,0,0:0:0:0:
96,192,7800,1,0,0:0:0:0:
256,32,8000,1,0,0:0:0:0:
416,192,8200,1,0,2:0:0:0:
256,352,8400,1,0,0:0:0:0:
64,96,8800,1,0,0:0:0:0:
448,96,9000,1,0,0:0:0:0:
256,288,9200,1,0,0:0:0:0:
192,192,10000,1,0,0:0:0:0:
320,192,10200,1,0,0:0:0:0:
224,192,10600,1,0,0:0:0:0:
288,192,10800,1,0,0:0:0:0:
256,192,11000,1,0,0:0:0:0:
256,32,11400,1,0,0:0:0:0:
192,128,11800,1,0,0:0:0:0:
320,128,12000,1,0,0:0:0:0:
64,192,12600,5,0,0:0:0:0:
448,192,12800,1,0,0:0:0:0:
256,64,13200,1,0,0:0:0:0:
256,352,13400,1,0,0:0:0:0:
256,256,13600,1,0,0:0:0:0:
256,352,13800,1,0,0:0:0:0:
416,64,14000,1,0,0:0:0:0:
96,64,14400,1,0,0:0:0:0:
256,352,14600,2,0,L|256:-32,1,280
128,192,15200,5,0,0:0:0:0:
384,192,15600,1,0,0:0:0:0:
256,64,15800,1,0,0:0:0:0:
256,192,16000,1,0,0:0:0:0:
192,288,16400,1,0,0:0:0:0:
320,288,16800,1,0,0:0:0:0:
256,192,17000,1,0,0:0:0:0:
256,128,17200,1,0,0:0:0:0:
32,64,18200,5,0,0:0:0:0:
128,64,18400,1,0,0:0:0:0:
224,64,18600,1,0,0:0:0:0:
320,64,18800,1,0,0:0:0:0:
416,64,19200,1,0,0:0:0:0:
256,320,19400,1,0,0:0:0:0:
256,192,19600,1,0,0:0:0:0:
256,192,19800,1,0,0:0:0:0:
256,192,20000,1,0,0:0:0:0:
192,192,20400,1,0,0:0:0:0:
320,192,20800,1,0,0:0:0:0:
192,192,21000,1,0,0:0:0:0:
224,64,21400,5,0,0:0:0:0:
256,128,21600,1,0,0:0:0:0:
288,64,21800,1,0,0:0:0:0:
256,96,22200,1,0,0:0:0:0:
256,64,22600,1,0,0:0:0:0:
128,192,23000,2,0,L|512:192,2,280
256,288,24400,1,0,0:0:0:0:
256,352,24600,1,0,0:0:0:0:
256,320,24800,1,0,0:0:0:0:
224,320,25000,1,0,0:0:0:0:
288,320,25200,1,0,0:0:0:0:
256,192,25600,1,0,0:0:0:0:
256,192,26200,1,0,0:0:0:0:
224,96,26800,5,0,0:0:0:0:
256,64,27200,1,0,0:0:0:0:
288,96,27400,1,0,0:0:0:0:
128,96,28400,1,0,0:0:0:0:
128,192,28600,1,0,0:0:0:0:
128,288,28800,1,0,0:0:0:0:
384,96,29000,1,0,0:0:0:0:
384,192,29200,1,0,0:0:0:0:
384,288,29400,1,0,0:0:0:0:
256,192,29800,1,0,0:0:0:0:
160,192,30600,5,0,0:0:0:0:
160,192,30800,1,0,0:0:0:0:
256,192,31200,1,0,0:0:0:0:
352,192,31800,1,0,0:0:0:0:
352,192,32000,1,0,0:0:0:0:
32,64,32400,5,0,0:0:0:0:
480,64,33000,5,0,0:0:0:0:
32,320,33600,5,0,0:0:0:0:
480,320,34200,5,0,0:0:0:0:
128,32,34800,5,0,0:0:0:0:
128,128,35000,5,0,0:0:0:0:
128,224,35200,5,0,0:0:0:0:
128,320,35400,5,0,0:0:0:0:
224,32,35600,5,0,0:0:0:0:
224,128,35800,5,0,0:0:0:0:
224,224,36000,5,0,0:0:0:0:
224,320,36200,5,0,0:0:0:0:
320,32,36400,5,0,0:0:0:0:
320,128,36600,5,0,0:0:0:0:
320,224,36800,5,0,0:0:0:0:
320,320,37000,5,0,0:0:0:0:
256,192,37200,12,0,40200,0:0:0:0:
256,64,42600,5,0,0:0:0:0:
224,64,43000,1,0,0:0:0:0:
288,64,43400,1,0,0:0:0:0:
256,96,43800,1,0,0:0:0:0:
256,32,44000,1,0,0:0:0:0:
224,32,44200,1,0,0:0:0:0:
288,32,44400,1,0,0:0:0:0:
288,96,44600,1,0,0:0:0:0:
224,96,45000,1,0,0:0:0:0:
224,64,45200,1,0,0:0:0:0:
128,192,46000,1,0,0:0:0:0:
384,192,46400,1,0,0:0:0:0:
256,320,46600,1,0,0:0:0:0:
256,64,46800,1,0,0:0:0:0:
256,160,47000,1,0,0:0:0:0:
224,192,47200,1,0,0:0:0:0:
256,224,47400,1,0,0:0:0:0:
288,192,47600,1,0,0:0:0:0:
0,0,48200,5,0,0:0:0:0:
0,320,48800,5,0,0:0:0:0:
0,160,49400,5,0,0:0:0:0:
256,192,50200,5,0,0:0:0:0:
224,160,50400,1,0,0:0:0:0:
256,160,50800,1,0,0:0:0:0:
288,160,51200,1,0,0:0:0:0:
288,192,51400,1,0,0:0:0:0:
288,224,51600,1,0,0:0:0:0:
256,224,51800,1,0,0:0:0:0:
224,224,52000,1,0,0:0:0:0:
96,128,52200,1,0,0:0:0:0:
256,32,52600,1,0,0:0:0:0:
256,64,53000,1,0,0:0:0:0:
96,192,53600,5,0,0:0:0:0:
256,192,54000,1,0,0:0:0:0:
256,32,54400,1,0,0:0:0:0:
448,192,54800,1,0,0:0:0:0:
256,192,55200,1,0,0:0:0:0:
256,160,55400,1,0,0:0:0:0:
288,160,55800,1,0,0:0:0:0:
288,192,56000,1,0,0:0:0:0:
288,224,56400,1,0,0:0:0:0:
256,224,57000,1,0,0:0:0:0:
224,224,57200,1,0,0:0:0:0:
224,192,57400,1,0,0:0:0:0:
224,160,57600,1,0,0:0:0:0:
128,192,58200,5,0,0:0:0:0:
128,32,58600,1,0,0:0:0:0:
384,32,59000,1,0,0:0:0:0:
384,192,59200,1,0,0:0:0:0:
128,320,59600,1,0,0:0:0:0:
384,320,59800,1,0,0:0:0:0:
256,128,60000,1,0,0:0:0:0:
256,256,60200,1,0,0:0:0:0:
256,192,61200,2,0,L|256:352,3,140
256,192,62000,2,0,L|256:32,2,140
416,128,63200,2,0,B|-32:224|-64:224|704:96|128:416|256:224|256:224|32:-32|320:-32|-64:96|576:160|96:224|128:0|-64:128,2,1120
