osu file format v9

[General]
AudioFilename: superperforator.mp3
AudioLeadIn: 0
PreviewTime: -1
Countdown: 0
SampleSet: Soft
StackLeniency: 0.7
Mode: 0
LetterboxInBreaks: 1

[Editor]
DistanceSpacing: 1
BeatDivisor: 4
GridSize: 16

[Metadata]
Title:Superperforator
Artist:Der Schuh des Manitu
Creator:Aqua
Version:Normal
Source:Der Schuh des Manitu
Tags:

[Difficulty]
HPDrainRate:5
CircleSize:5
OverallDifficulty:5
ApproachRate:5
SliderMultiplier:1.4
SliderTickRate:1

[Events]
//Background and Video events
0,0,"181014178_ec1edec1ab.jpg"
Video,0,"Der Schuh des Manitu - Superperforator Song.avi"
//Break Periods
2,32187,33109
2,39619,46115
//Storyboard Layer 0 (Background)
//Storyboard Layer 1 (Fail)
//Storyboard Layer 2 (Pass)
//Storyboard Layer 3 (Foreground)
//Storyboard Sound Samples
//Background Colour Transformations
3,100,163,162,255

[TimingPoints]
10620.2218973135,464.504141828598,4,2,0,100,1,0
23161,-100,4,1,0,49,0,0
23626,-100,4,1,0,51,0,1
38490,-100,4,2,0,100,0,0
39767,-100,4,2,0,100,0,0
39883,-100,4,2,0,100,0,0
47316,-100,4,1,0,51,0,0
54283,-100,4,1,0,100,0,1

[HitObjects]
256,192,8762,1,0
256,192,9226,1,0
256,192,9691,1,2
256,272,10155,2,0,B|256:128,1,140
224,48,11084,5,0
288,48,11316,1,0
256,112,11549,2,0,B|256:192,1,70,2|0
256,256,12013,5,0
352,160,12478,1,0
448,256,12942,1,0
448,112,13407,1,2
400,64,13639,1,0
336,48,13871,2,0,B|272:96,1,70
224,128,14336,1,0
96,176,14800,6,0,B|144:224|144:224|160:176|160:176|192:208,1,140,0|2
224,240,15497,1,0
288,208,15729,1,0
432,192,16194,5,0
160,192,17123,5,0
160,192,17355,1,0
368,176,18052,6,0,B|368:272,1,70
304,208,18516,2,0,B|304:128,1,70
240,176,18981,2,0,B|240:272,1,70
256,288,19910,5,0
192,272,20142,1,0
160,208,20374,1,0
176,144,20607,1,0
224,96,20839,1,2
352,144,21303,5,8
256,32,21768,1,8
176,144,22232,1,8
256,256,22697,1,12
256,208,23161,5,0
256,256,23394,1,0
256,304,23626,2,0,B|352:304,1,70
320,256,24090,2,8,B|320:176,1,70
368,192,24555,2,2,B|464:192,1,70
432,144,25019,5,0
432,96,25252,1,0
384,96,25484,2,0,B|288:96,2,70,8|8|2
384,144,26181,1,2
336,144,26413,2,4,B|256:144,1,70
144,192,27342,6,0,B|288:192,1,140
336,256,28271,2,0,B|176:256,1,140
256,192,29200,5,8
256,144,29432,1,2
256,96,29664,1,8
256,48,29897,1,0
208,48,30129,2,2,B|112:48,1,70
144,96,30593,5,0
144,144,30826,1,0
144,192,31058,1,4
224,192,31522,5,0
272,192,31755,1,0
320,192,31987,1,4
256,32,34309,5,0
256,112,34774,1,0
256,192,35238,1,0
256,240,35471,1,0
256,288,35703,1,0
336,288,36167,6,0,B|320:240|256:320|208:224,1,140
176,304,37096,2,0,B|192:256|96:288|144:176,1,140
256,192,38025,5,2
352,192,38490,5,0
304,192,38722,1,0
256,192,38954,1,0
208,192,39187,1,0
160,192,39419,1,0
256,144,47315,5,0
256,192,47548,1,0
256,240,47780,1,0
256,240,48244,5,0
256,192,48477,1,0
256,144,48709,1,0
256,64,49173,5,0
256,320,50102,5,0
144,192,51032,5,0
192,192,51264,1,0
240,192,51496,1,0
288,192,51728,1,0
336,192,51961,1,0
384,192,52193,1,0
256,192,54283,5,6
