osu file format v9

[General]
AudioFilename: superperforator.mp3
AudioLeadIn: 0
PreviewTime: -1
Countdown: 0
SampleSet: Soft
StackLeniency: 0.7
Mode: 0
LetterboxInBreaks: 1

[Editor]
DistanceSpacing: 0.8
BeatDivisor: 4
GridSize: 16

[Metadata]
Title:Superperforator
Artist:Der Schuh des Manitu
Creator:Aqua
Version:Easy
Source:Der Schuh des Manitu
Tags:

[Difficulty]
HPDrainRate:5
CircleSize:4
OverallDifficulty:5
ApproachRate:5
SliderMultiplier:1.4
SliderTickRate:1

[Events]
//Background and Video events
0,0,"181014178_ec1edec1ab.jpg"
Video,0,"Der Schuh des Manitu - Superperforator Song.avi"
//Break Periods
2,32187,33574
2,39619,46116
//Storyboard Layer 0 (Background)
//Storyboard Layer 1 (Fail)
//Storyboard Layer 2 (Pass)
//Storyboard Layer 3 (Foreground)
//Storyboard Sound Samples
//Background Colour Transformations
3,100,163,162,255

[TimingPoints]
10620.2218973135,464.504141828598,4,2,0,100,1,0
23643,-100,4,1,0,50,0,1
38527,-100,4,2,0,100,0,0
47083,-100,4,1,0,51,0,0
54283,-100,4,1,0,100,0,1

[HitObjects]
144,192,8762,1,2
256,192,9226,1,0
368,192,9691,1,2
352,80,10155,2,0,B|304:48|288:112|208:48,1,140,0|2
112,80,11084,2,0,B|128:144|80:160|160:224,1,140,0|2
256,192,12013,5,0
256,304,12478,1,2
368,304,12942,1,0
368,192,13407,2,0,B|368:48,1,140,2|0
256,64,14336,6,0,B|160:64|176:64,1,70
192,112,14800,6,0,B|288:112,1,70
272,160,15265,6,0,B|176:160,1,70,0|2
192,208,15729,5,2
80,192,16194,5,0
416,192,17123,5,0
256,48,18052,5,0
256,160,18516,1,0
256,272,18981,1,0
144,272,19910,6,0,B|144:128,1,140
256,96,20839,2,0,B|256:272,1,140
368,272,21768,2,0,B|368:96,1,140
256,192,22697,1,4
256,288,23626,5,0
256,176,24090,1,8
256,64,24555,1,0
320,160,25019,2,0,B|256:288,1,140,8|0
192,160,25948,2,0,B|256:288,1,140,8|0
256,176,26877,1,4
192,80,27342,6,0,B|336:80,1,140
320,192,28271,2,0,B|160:192,1,140
256,272,29200,5,8
256,160,29664,1,0
256,48,30129,2,0,B|240:80|240:80|272:80|272:80|240:96|240:96|272:96|272:96|240:112,1,140,8|0
256,208,31058,5,0
320,304,31522,1,0
192,304,31987,1,4
256,80,34774,5,0
256,304,35703,1,0
128,192,36632,5,0
256,192,37096,1,0
384,192,37561,1,0
256,272,38490,6,0,B|256:352,4,70
256,176,47316,6,0,B|256:256,2,70
256,176,48245,6,0,B|256:96,2,70
256,288,49174,5,0
256,64,50103,5,0
144,192,51032,5,0
256,192,51496,1,0
368,192,51961,1,0
256,192,54283,5,4
