osu file format v9

[General]
AudioFilename: Depeche Mode - Wrong.mp3
AudioLeadIn: 0
PreviewTime: 22603
Countdown: 0
SampleSet: Normal
StackLeniency: 0.7
Mode: 0
LetterboxInBreaks: 0
EpilepsyWarning: 1

[Editor]
DistanceSpacing: 0.9
BeatDivisor: 4
GridSize: 8

[Metadata]
Title:Wrong
Artist:Depeche Mode
Creator:gyt
Version:Right to Left
Source:
Tags:synthpop alternative dance

[Difficulty]
HPDrainRate:6
CircleSize:5
OverallDifficulty:6
ApproachRate:6
SliderMultiplier:1.4
SliderTickRate:1

[Events]
//Background and Video events
0,0,"dm_wrong_video_wallpaper_05_1024.jpg"
//Break Periods
2,55222,57086
2,94602,103975
//Storyboard Layer 0 (Background)
//Storyboard Layer 1 (Fail)
//Storyboard Layer 2 (Pass)
//Storyboard Layer 3 (Foreground)
Sprite,Foreground,Centre,"White.png",320,240 F,1,94036,95501,0.72,0 F,0,106491,106674,0.112,0.005821244 F,0,107956,108139,0.1160001,0.007046549 F,0,109055,109238,0.09599999,0 F,0,109605,109788,0.116,0.009234415 F,1,110154,110887,0.276,0.0412524 F,0,111986,112169,0.1200001,0.01673856 F,0,112352,112535,0.112,0.01912792 F,0,113451,113634,0.112,0.03347712 F,0,113817,114000,0.1280001,0 F,0,114916,115099,0.116,0 F,0,115466,115649,0.108,0.009644903 F,1,116015,116748,0.5360001,0 F,0,117847,118030,0.2639999,0.01166714 F,0,118213,118396,0.1039999,0 F,0,119312,119495,0.272,0.01339521 F,0,119678,119862,0.116,0 F,0,120777,120961,0.276,0.01581012 F,0,121144,121327,0.272,0.01644026 F,0,122243,122426,0.2840001,0 F,0,122609,122792,0.1240001,0 F,0,123708,123891,0.276,0 F,0,124074,124257,0.112,0 F,0,125173,125356,0.2800001,0 F,0,125540,125723,0.116,0 F,0,126639,126822,0.2840001,0 F,0,127005,127188,0.108,0 F,0,127371,127554,0.2679999,0 F,0,127737,127921,0.276,0 F,0,128104,128287,0.1200001,0 F,0,128470,128653,0.272,0 F,0,128836,129020,0.116,0 F,1,129203,129935,0.7240002,0 F,0,139460,140925,0,0.116 F,1,141291,141658,0.2800001,0 F,0,145321,146786,0,0.2359999 F,0,147153,147519,0.544,0.116 F,0,148252,148618,0.392,0 F,0,149717,149900,0.116,0 F,0,151182,152647,0,0.348 F,0,153014,153380,0.728,0.1200001 F,0,154113,154479,0.38,0 F,0,155578,155761,0.1280001,0 F,0,157043,158509,0,0.472 F,0,158875,159241,0.728,0.228 F,0,159974,160340,0.5093441,0.009344251 F,0,161439,161622,0.112,0 F,0,162904,164370,0.276,0 F,0,164736,164919,0.276,0 F,0,165102,165286,0.2839999,0 F,0,166201,166385,0.276,0 F,0,166568,166751,0.272,0 F,0,167667,167850,0.2695,0.001500008 F,0,168216,168399,0.112,0 F,1,168766,169865,0.2679999,0 F,0,170597,170780,0.2840001,0 F,0,170964,171147,0.26,0 F,0,172063,172246,0.276,0 F,0,172429,172612,0.272,0 F,0,173528,173711,0.2714316,0 F,0,174077,174260,0.116,0 F,1,174627,175359,0.2724496,0.004449693 F,0,176458,176642,0.2724498,0.004449693 F,0,176825,177008,0.2724496,0.004449693 F,0,177924,178107,0.28,0.0190945 F,0,178290,178473,0.2910945,0.0190945 F,0,179389,179572,0.2790945,0 F,1,179938,180122,0.108,0.04280116 F,1,180488,181587,0.3034491,0.02344907 F,0,182320,182503,0.1354511,0.02345116 F,0,182686,182869,0.2954511,0.02345116 F,0,183785,183968,0.1348828,0.03088286 F,0,184151,184334,0.2948828,0.03088286 F,0,185250,185433,0.3083255,0.03232548 F,0,185800,185983,0.1363255,0.03232548 F,0,186715,186899,0.3003254,0.03232548 F,0,187082,187265,0.3112385,0.03523853 F,0,187448,187631,0.3022549,0.03825493 F,1,187814,189280,0.724,0.07101176
//Storyboard Sound Samples
//Background Colour Transformations
3,100,0,0,0

[TimingPoints]
624,366.322730325417,4,2,0,100,1,0
23981,-100,4,1,0,70,0,0
25080,-100,4,2,0,100,0,0
25446,-100,4,1,0,70,0,0
26545,-100,4,2,0,100,0,0
26911,-100,4,1,0,70,0,0
29293,-100,4,2,0,100,0,0
29843,-100,4,1,0,70,0,0
31125,-100,4,2,0,100,0,0
31308,-100,4,1,0,70,0,0
32590,-100,4,2,0,100,0,0
32773,-100,4,1,0,70,0,0
34875,-100,4,1,1,70,0,0
35058,-100,4,2,0,100,0,0
35705,-100,4,1,0,70,0,0
36804,-100,4,2,0,100,0,0
37170,-100,4,1,0,70,0,0
38269,-100,4,2,0,100,0,0
38635,-100,4,1,0,70,0,0
39087,-100,4,2,0,100,0,0
39551,-100,4,2,0,75,0,0
39734,-100,4,2,0,100,0,0
39917,-100,4,2,0,75,0,0
40100,-100,4,1,0,70,0,0
41200,-100,4,2,0,100,0,0
41566,-100,4,1,0,70,0,0
42666,-100,4,2,0,100,0,0
43032,-100,4,1,0,70,0,0
44131,-100,4,2,0,100,0,0
44497,-100,4,1,0,70,0,0
44949,-100,4,2,0,100,0,0
45046,-100,4,2,0,75,0,0
45315,-100,4,2,0,100,0,0
45961,-100,4,2,0,75,0,0
46329,-100,4,1,0,70,0,0
47428,-100,4,2,0,100,0,0
55022,-100,4,2,0,50,0,0
58053,-100,4,2,0,100,0,0
59152,-100,4,1,0,70,0,0
61534,-100,4,2,0,100,0,0
62083,-100,4,1,0,70,0,0
63182,-100,4,2,0,100,0,0
63549,-100,4,1,0,70,0,0
66113,-100,4,2,0,100,0,0
66479,-100,4,1,0,70,0,0
67395,-100,4,2,0,100,0,0
67944,-100,4,1,0,70,0,0
69044,-100,4,2,0,100,0,0
69410,-100,4,1,1,70,0,0
70225,-100,4,2,0,100,0,0
70876,-100,4,1,0,70,0,0
71975,-100,4,2,0,100,0,0
72341,-100,4,1,0,70,0,0
73624,-100,4,2,0,100,0,0
73807,-100,4,1,0,70,0,0
74254,-100,4,2,0,100,0,0
74722,-100,4,2,0,75,0,0
74905,-100,4,2,0,100,0,0
75088,-100,4,2,0,75,0,0
75272,-100,4,1,0,70,0,0
76555,-100,4,2,0,100,0,0
76738,-100,4,1,0,70,0,0
77837,-100,4,2,0,100,0,0
78203,-100,4,1,0,70,0,0
79486,-100,4,2,0,100,0,0
79669,-100,4,1,0,70,0,0
80116,-100,4,2,0,100,0,0
80218,-100,4,2,0,75,0,0
80482,-100,4,2,0,100,0,0
81133,-100,4,2,0,75,0,0
81501,-100,4,1,0,70,0,0
82600,-100,4,2,0,100,0,0
94402,-100,4,2,0,0,0,0
104948,-100,4,2,0,100,0,0
106047,-100,4,1,0,70,0,0
114840,-100,4,1,0,70,0,0
115099,-100,4,1,0,30,0,0
115206,-100,4,1,0,70,0,0
115649,-100,4,1,0,40,0,0
115756,-100,4,1,0,70,0,0
116381,-100,4,1,0,50,0,0
116855,-100,4,1,0,70,0,0
117114,-100,4,1,0,40,0,0
117221,-100,4,1,0,70,0,0
118030,-100,4,1,0,30,0,0
118137,-100,4,1,0,70,0,0
118396,-100,4,1,0,40,0,0
118870,-100,4,1,0,70,0,0
119495,-100,4,1,0,40,0,0
119602,-100,4,1,0,70,0,0
119862,-100,4,1,0,50,0,0
120336,-100,4,1,0,70,0,0
120702,-100,4,1,0,70,0,0
120961,-100,4,1,0,30,0,0
121068,-100,4,1,0,70,0,0
121327,-100,4,1,0,40,0,0
121434,-100,4,1,0,70,0,0
122167,-100,4,1,0,70,0,0
122426,-100,4,1,0,50,0,0
122534,-100,4,1,0,60,0,0
122792,-100,4,1,0,60,0,0
123266,-100,4,1,0,70,0,0
123891,-100,4,1,0,30,0,0
123998,-100,4,1,0,70,0,0
124257,-100,4,1,0,40,0,0
124732,-100,4,1,0,70,0,0
125356,-100,4,1,0,40,0,0
125464,-100,4,1,0,70,0,0
125723,-100,4,1,0,50,0,0
126196,-100,4,1,0,70,0,0
126564,-100,4,1,0,70,0,0
126822,-100,4,1,0,30,0,0
127005,-100,4,1,0,70,0,0
127188,-100,4,1,0,30,0,0
127371,-100,4,1,0,70,0,0
127554,-100,4,1,0,40,0,0
127737,-100,4,1,0,70,0,0
127921,-100,4,1,0,40,0,0
128104,-100,4,1,0,70,0,0
128287,-100,4,1,0,50,0,0
128470,-100,4,1,0,70,0,0
128653,-100,4,1,0,50,0,0
128836,-100,4,1,0,70,0,0
129020,-100,4,1,0,60,0,0
129203,-100,4,1,0,70,0,0
129569,-100,4,1,0,60,0,0
130227,-100,4,2,0,100,0,0
130594,-100,4,2,0,100,0,0
131767,-100,4,2,0,100,0,0
136456,-100,4,2,0,100,0,0
136896,-100,4,2,0,60,0,0
137188,-100,4,2,0,30,0,0
137554,-100,4,2,0,100,0,0
139277,-100,4,2,0,60,0,0
139386,-100,4,1,0,30,0,0
142024,-100,4,2,0,60,0,0
142318,-100,4,2,0,100,0,0
142684,-100,4,2,0,60,0,0
143050,-100,4,2,0,30,0,0
143416,-100,4,2,0,100,0,0
144149,-100,4,2,0,30,0,0
144405,-100,4,2,0,20,0,0
144588,-100,4,2,0,60,0,0
144771,-100,4,2,0,30,0,0
144955,-100,4,2,0,100,0,0
145138,-100,4,2,0,50,0,0
145321,-100,4,1,0,40,0,0
147885,-100,4,1,0,30,0,0
148179,-100,4,1,0,60,0,0
148435,-100,4,1,0,30,0,0
148618,-100,4,2,0,40,0,0
148801,-100,4,2,0,30,0,0
148984,-100,4,2,0,80,0,0
149167,-100,4,2,0,40,0,0
149351,-100,4,2,0,100,0,0
149534,-100,4,2,0,50,0,0
149717,-100,4,1,0,60,0,0
149900,-100,4,1,0,30,0,0
150083,-100,4,2,0,40,0,0
150266,-100,4,2,0,30,0,0
150449,-100,4,2,0,80,0,0
150633,-100,4,2,0,40,0,0
150816,-100,4,2,0,100,0,0
150999,-100,4,2,0,50,0,0
151182,-100,4,1,0,50,0,0
153746,-100,4,1,0,40,0,0
154041,-100,4,1,0,60,0,0
154479,-100,4,1,0,30,0,0
154774,-100,4,2,0,100,0,0
155029,-100,4,2,0,60,0,0
155212,-100,4,1,0,50,0,0
155395,-100,4,1,0,30,0,0
155578,-100,4,1,0,70,0,0
155944,-100,4,1,0,40,0,0
156311,-100,4,2,0,100,0,0
156494,-100,4,2,0,60,0,0
156677,-100,4,1,0,50,0,0
156860,-100,4,1,0,30,0,0
157043,-100,4,1,0,60,0,0
159608,-100,4,1,0,50,0,0
159903,-100,4,1,0,70,0,0
160340,-100,4,1,0,40,0,0
160636,-100,4,2,0,100,0,0
160890,-100,4,2,0,60,0,0
161073,-100,4,1,0,50,0,0
161256,-100,4,1,0,30,0,0
161439,-100,4,1,0,70,0,0
161806,-100,4,1,0,40,0,0
162100,-100,4,2,0,100,0,0
162355,-100,4,2,0,60,0,0
162538,-100,4,1,0,50,0,0
162721,-100,4,1,0,30,0,0
162904,-100,4,1,0,70,0,0
163271,-100,4,1,0,50,0,0
163381,-100,4,1,0,30,0,0
163567,-100,4,2,0,75,0,0
164666,-100,4,1,0,70,0,0
165398,-100,4,2,0,100,0,0
165765,-100,4,2,0,100,0,0
166018,-100,4,2,0,100,0,0
166201,-100,4,1,0,70,0,0
166864,-100,4,2,0,100,0,0
167413,-100,4,2,0,80,0,0
167597,-100,4,1,0,70,0,0
168330,-100,4,2,0,100,0,0
168582,-100,4,2,0,100,0,0
168766,-100,4,1,0,50,0,0
169865,-100,4,1,0,30,0,0
170048,-100,4,2,0,75,0,0
170527,-100,4,1,0,70,0,0
171260,-100,4,2,0,100,0,0
171626,-100,4,2,0,100,0,0
171879,-100,4,2,0,100,0,0
172063,-100,4,1,0,70,0,0
172359,-100,4,1,0,70,0,0
172612,-100,4,2,0,60,0,0
172795,-100,4,2,0,80,0,0
172978,-100,4,2,0,80,0,0
173162,-100,4,2,0,100,0,0
173345,-100,4,2,0,100,0,0
173528,-100,4,1,0,70,0,0
174260,-100,4,1,0,50,0,0
174444,-100,4,1,0,30,0,0
174627,-100,4,1,0,60,0,0
175359,-100,4,1,0,50,0,0
175543,-100,4,1,0,70,0,0
175726,-100,4,2,0,100,0,0
176458,-100,4,1,0,70,0,0
177122,-100,4,2,0,100,0,0
177489,-100,4,2,0,100,0,0
177855,-100,4,1,0,70,0,0
178587,-100,4,2,0,100,0,0
178954,-100,4,2,0,100,0,0
179320,-100,4,1,0,70,0,0
179755,-100,4,2,0,100,0,0
180053,-100,4,1,0,70,0,0
180305,-100,4,1,0,40,0,0
180488,-100,4,1,0,70,0,0
181587,-100,4,1,0,60,0,0
181885,-100,4,2,0,100,0,0
182251,-100,4,1,0,70,0,0
182983,-100,4,2,0,100,0,0
183351,-100,4,2,0,100,0,0
183717,-100,4,1,0,70,0,0
184449,-100,4,2,0,100,0,0
184816,-100,4,2,0,100,0,0
185182,-100,4,1,0,70,0,0
185616,-100,4,2,0,100,0,0
185800,-100,4,2,0,75,0,0
185983,-100,4,2,0,100,0,0
186647,-100,4,2,0,75,0,0
187013,-100,4,1,0,70,0,0
189280,-100,4,2,0,100,0,0
189646,-100,4,2,0,50,0,0
190012,-100,4,2,0,25,0,0
190379,-100,4,2,0,0,0,0

[Colours]
Combo1 : 128,128,128
Combo2 : 128,128,64
Combo3 : 128,64,64
Combo4 : 119,96,51

[HitObjects]
480,192,22969,6,0,B|384:192,1,70
344,192,23336,1,0
216,192,23702,1,0
152,192,23885,1,0
184,248,24068,1,0
56,248,24434,1,4
304,192,25167,5,0
240,192,25350,1,0
272,136,25533,1,0
144,136,25900,1,4
392,192,26632,5,0
328,192,26816,1,0
360,248,26999,1,0
232,248,27365,1,0
200,192,27548,1,8
72,192,27915,1,0
40,248,28098,1,4
464,136,29380,5,0
400,136,29563,1,0
336,136,29746,1,0
272,136,29929,1,0
160,192,30296,1,4
472,248,31211,5,0
440,192,31395,1,0
328,248,31761,1,4
32,136,32677,5,0
64,192,32860,1,0
192,192,33226,1,0
224,136,33409,1,8
96,136,33776,1,0
64,192,33959,1,4
384,192,34875,6,0,B|288:192,1,70
248,192,35241,1,0
184,192,35424,1,0
120,192,35607,1,0
152,136,35790,1,0
24,136,36157,1,4
272,192,36889,5,0
208,192,37073,1,0
240,248,37256,1,0
112,248,37622,1,4
360,192,38355,5,0
424,192,38538,1,0
392,136,38721,2,0,B|232:136,1,140,0|0
192,136,39271,2,8,B|96:136,1,70,0|0
152,192,39637,1,8
184,248,39820,1,0
248,248,40003,1,8
216,192,40186,1,0
88,192,40553,1,4
336,248,41285,5,0
272,248,41468,1,0
304,192,41652,2,0,B|144:192,1,140,0|4
408,136,42751,5,0
344,136,42934,1,0
376,192,43117,2,0,B|216:192,1,140,0|4
488,192,44216,5,0
424,192,44399,1,0
456,248,44582,2,0,B|296:248,1,140,0|0
256,248,45132,2,0,B|160:248,1,70,8|0
216,192,45498,1,0
248,136,45681,1,0
312,136,45864,1,0
280,192,46048,1,8
152,192,46414,1,0
24,192,46780,1,4
272,248,47513,6,0,B|176:248,1,70
136,248,47879,2,0,B|40:248,1,70,0|0
104,192,48245,2,0,B|8:192,1,70,0|0
64,136,48612,2,2,B|288:136,1,210,2|0
304,192,49344,2,0,B|208:192,1,70
168,192,49711,2,0,C|86:192,1,70
128,248,50077,2,0,B|280:248,1,140,0|0
392,248,50810,6,0,B|296:248,1,70,0|0
360,192,51176,2,0,B|256:192,1,70
320,136,51542,2,0,B|168:136,1,140,0|0
112,248,52275,2,0,B|208:248,1,70
144,192,52641,2,0,B|240:192,1,70
176,136,53008,2,0,B|336:136,1,140,0|0
440,136,53740,2,0,B|344:136,1,70,0|0
400,192,54107,2,0,B|304:192,1,70,0|0
368,248,54473,2,2,B|128:248,1,210,2|0
488,192,58136,6,0,B|392:192,1,70
352,192,58502,1,0
224,192,58869,2,0,B|128:192,1,70
184,136,59235,1,0
56,136,59601,1,0
88,192,59785,1,4
408,136,60700,5,0
440,192,60884,1,8
336,248,61250,1,4
440,192,61616,2,0,B|360:192,1,70,0|0
304,192,61983,1,0
336,248,62166,1,0
208,248,62532,1,0
80,248,62898,1,4
184,192,63265,2,0,B|88:192,1,70
48,192,63631,1,0
80,248,63814,1,8
144,136,64180,1,4
464,192,65096,5,0
336,192,65463,1,4
88,192,66195,1,0
24,192,66378,1,0
56,248,66562,1,0
120,136,66928,1,4
296,192,67477,5,0
232,192,67661,1,0
168,192,67844,1,0
200,136,68027,1,0
136,248,68393,1,4
384,192,69126,5,0
448,192,69309,1,0
416,248,69492,1,0
352,136,69858,2,0,B|192:136,1,140
240,192,70408,5,0
304,192,70591,1,0
368,192,70774,1,0
336,248,70957,1,0
272,136,71324,1,4
24,192,72056,5,0
88,192,72240,1,0
120,136,72423,1,0
56,248,72789,1,4
368,192,73705,5,0
400,248,73888,2,0,B|240:248,1,140
200,248,74438,2,0,B|104:248,1,70,0|0
160,192,74804,1,8
192,136,74987,1,0
256,136,75170,1,8
224,192,75353,1,0
96,192,75720,1,4
408,136,76635,5,0
344,136,76819,2,0,B|184:136,1,140,0|4
424,256,77918,5,0
360,256,78101,1,0
296,256,78284,2,0,B|136:256,1,140,0|4
456,192,79566,5,0
488,136,79749,2,0,B|328:136,1,140
288,136,80299,2,0,B|192:136,1,70,8|0
248,192,80665,1,0
280,248,80848,1,0
344,248,81031,1,0
312,192,81215,1,8
184,192,81581,1,0
56,192,81947,1,4
304,136,82680,6,0,B|208:136,1,70
168,136,83046,2,0,B|72:136,1,70,0|0
128,192,83412,2,0,B|32:192,1,70,0|0
88,248,83779,2,2,B|312:248,1,210,2|0
328,192,84511,2,0,B|232:192,1,70
192,192,84878,2,0,C|118:192,1,70
152,136,85244,2,0,B|304:136,1,140,0|0
416,136,85977,6,0,B|320:136,1,70
384,192,86343,2,0,B|288:192,1,70
352,248,86709,2,0,B|184:248,1,140,0|0
144,136,87442,2,0,B|240:136,1,70
176,192,87808,2,0,B|272:192,1,70
208,248,88175,2,0,B|376:248,1,140,0|0
472,248,88907,2,0,B|376:248,1,70
440,192,89274,2,0,B|344:192,1,70
408,136,89640,6,0,B|184:136,1,210,2|0
232,192,90373,2,0,B|136:192,1,70
200,248,90739,2,0,B|104:248,1,70
64,248,91105,1,0
312,192,91838,6,0,B|216:192,1,70
280,136,92204,2,0,B|184:136,1,70
144,136,92571,1,0
392,192,93303,6,0,B|296:192,1,70
352,248,93669,2,0,B|256:248,1,70
216,248,94036,2,0,C|62:248,1,140,2|0
480,192,105025,5,0
416,192,105209,1,0
352,192,105392,1,0
288,192,105575,1,0
224,192,105758,1,0
160,192,105941,1,0
192,136,106124,1,0
64,136,106491,1,4
312,192,107223,5,0
248,192,107407,1,0
280,248,107590,1,8
152,248,107956,1,4
336,192,108506,5,0
272,192,108689,1,0
208,192,108872,1,0
240,136,109055,2,0,B|80:136,1,140,8|0
128,192,109605,2,0,B|32:192,1,70,8|0
88,248,109971,1,0
24,248,110154,1,4
400,192,111253,5,8
336,192,111436,1,0
272,192,111619,1,8
208,192,111802,1,0
240,248,111986,1,4
112,248,112352,1,4
360,192,113085,5,0
296,192,113268,1,8
328,136,113451,1,4
200,136,113817,1,4
448,192,114550,5,0
384,192,114733,1,8
416,248,114916,2,4,B|320:248,1,70,4|0
280,248,115283,1,8
312,192,115466,2,0,B|216:192,1,70,4|0
176,192,115832,1,8
208,136,116015,2,4,B|48:136,1,140,4|0
216,248,116931,6,0,B|112:248,1,70,0|0
176,192,117297,1,8
240,192,117480,1,0
304,192,117664,1,0
272,136,117847,2,4,B|176:136,1,70,4|0
136,136,118213,2,4,B|40:136,1,70,8|0
224,248,118946,5,0
288,248,119129,1,0
256,192,119312,2,8,B|160:192,1,70,4|0
120,192,119678,2,4,B|24:192,1,70,8|0
232,136,120411,5,0
264,192,120594,1,0
296,248,120777,2,0,B|200:248,1,70,4|0
160,248,121144,2,4,B|64:248,1,70
120,192,121510,1,8
152,136,121693,1,0
216,136,121876,1,8
280,136,122059,1,0
256,192,122243,2,0,B|160:192,1,70,4|0
120,192,122609,2,0,B|24:192,1,70,8|0
232,136,123342,5,0
296,136,123525,1,0
328,192,123708,2,12,B|232:192,1,70,4|0
224,248,124074,2,0,B|128:248,1,70,8|0
352,248,124807,5,0
288,248,124990,1,0
256,192,125173,2,12,B|160:192,1,70,4|0
152,136,125540,2,0,B|56:136,1,70,8|0
256,192,126272,5,0
320,192,126455,1,0
288,136,126639,2,0,B|192:136,1,70,4|0
160,160,127005,2,0,B|160:256,1,70,8|0
224,248,127371,2,0,B|320:248,1,70,4|0
360,248,127737,2,0,B|456:248,1,70,4|0
488,224,128104,2,0,B|488:128,1,70,8|0
424,136,128470,2,0,B|328:136,1,70,4|0
320,192,128836,2,0,B|232:192,1,70,8|0
224,248,129203,2,0,B|72:248,1,140,4|4
368,248,130302,5,0
480,192,130668,2,0,B|32:192,1,420,2|0
176,136,132133,1,0
480,248,133232,1,0
368,192,133599,1,2
32,136,134698,1,2
144,192,135064,1,2
368,248,136163,5,0
480,192,136529,2,0,B|320:192,1,140,2|0
216,192,137262,1,0
88,192,137628,1,0
216,192,137995,1,2
256,248,139093,6,2,B|160:248,1,70,2|0
216,192,139460,2,2,L|376:192|376:136|16:136,1,560,0|4
88,248,141291,2,0,B|392:248,1,280,0|0
480,192,142390,6,0,B|384:192,1,70,2|0
344,192,142757,1,0
216,192,143123,1,0
88,192,143489,1,0
216,192,143856,1,2
328,248,144222,2,2,L|232:248,1,70
288,192,144588,2,2,L|192:192,1,70
248,136,144955,6,2,L|152:136,1,70
112,136,145321,2,2,L|24:136|24:248|392:248,1,560,0|0
328,136,147153,2,0,L|232:136|232:192|376:192,1,280,0|0
488,192,148252,6,0,L|392:192,1,70,4|0
448,136,148618,2,0,L|352:136,1,70
416,192,148984,2,0,L|320:192,1,70
384,248,149351,2,0,L|288:248,1,70,0|0
344,192,149717,2,0,L|248:192,1,70,8|0
312,136,150083,2,0,L|216:136,1,70
272,192,150449,2,0,L|176:192,1,70
232,248,150816,6,0,L|136:248,1,70,0|0
128,192,151182,2,2,L|24:192|24:136|440:136,1,560,0|0
312,192,153014,2,0,L|232:192|232:248|376:248,1,280
480,192,154113,6,8,L|328:192,1,140,4|0
232,136,154845,2,0,L|136:136,1,70
200,192,155212,2,0,L|304:192,1,70
232,248,155578,2,0,L|72:248,1,140,8|0
200,192,156311,2,0,L|104:192,1,70
160,136,156677,6,0,L|64:136,1,70
128,192,157043,2,2,L|32:192|32:248|448:248,1,560,0|0
328,192,158875,2,0,L|240:192|240:136|408:136,1,280
488,192,159974,6,0,L|336:192,1,140,4|0
232,248,160707,2,0,L|136:248,1,70
208,192,161073,2,0,L|112:192,1,70
160,136,161439,2,0,L|0:136,1,140,8|0
136,192,162172,2,0,L|46:192,1,70
104,248,162538,6,0,L|192:248,1,70
208,192,162904,2,2,L|208:176|208:136|112:136,1,140,0|0
32,192,163637,6,0,B|128:192,1,70
168,192,164003,1,0
296,192,164370,1,0
360,192,164553,1,0
328,248,164736,1,0
456,248,165102,1,4
328,248,165469,1,0
216,192,165835,6,0,L|304:192,1,70,2|0
240,136,166201,1,0
368,136,166568,1,4
240,136,166934,1,2
120,192,167300,5,0
184,192,167484,1,0
152,248,167667,1,0
280,248,168033,1,0
312,192,168216,1,8
344,136,168399,6,0,L|248:136,1,70,0|0
240,192,168766,2,2,L|184:192|184:304|120:304|120:248|32:248|32:192,1,420,0|2
32,136,170048,5,0
96,136,170231,1,0
160,136,170414,1,0
224,136,170597,1,0
336,192,170964,1,4
224,136,171330,1,0
96,136,171696,6,0,L|0:136,1,70,2|0
40,192,172063,1,0
152,248,172429,2,0,L|248:248,1,70,4|0
248,192,172795,2,0,L|344:192,1,70
344,136,173162,2,0,L|440:136,1,70,0|0
448,192,173528,1,0
336,248,173894,1,0
368,192,174077,1,8
304,192,174260,6,0,L|208:192,1,70
208,136,174627,2,2,L|192:136|168:136|168:136|136:136|112:136|80:136|80:136|24:136|24:192|64:192,1,280,0|0
128,192,175543,6,0,B|224:192,1,70
264,192,175909,1,0
328,192,176092,1,0
392,192,176275,1,0
360,136,176458,1,0
488,136,176825,1,4
360,136,177191,1,2
248,192,177557,6,0,L|320:192,1,70,2|0
272,248,177924,1,0
400,248,178290,1,4
272,248,178656,1,2
152,192,179023,5,0
216,192,179206,1,0
184,136,179389,2,0,B|344:136,1,140,0|0
296,192,179938,1,0
264,248,180122,6,0,L|168:248,1,70
216,192,180488,2,2,L|128:192|128:136|32:136|32:192|80:192|80:248|40:248,1,420,0|0
184,248,181953,5,0
248,248,182136,1,0
216,192,182320,2,0,B|376:192,1,140,0|4
240,136,183052,1,2
88,136,183419,6,0,L|176:136,1,70,2|0
120,192,183785,2,0,B|280:192,1,140,0|4
152,248,184518,1,2
24,192,184884,5,0
88,192,185067,1,0
56,248,185250,2,0,B|216:248,1,140,0|0
256,248,185800,2,0,B|352:248,1,70,8|0
296,192,186166,1,0
264,136,186349,1,0
200,136,186532,1,0
232,192,186715,1,8
356,192,187082,1,0
496,192,187448,2,0,L|336:192,1,140,4|4
256,192,189280,12,0,190745
