osu file format v9

[General]
AudioFilename: Depeche Mode - Wrong.mp3
AudioLeadIn: 0
PreviewTime: 22603
Countdown: 0
SampleSet: Normal
StackLeniency: 0.7
Mode: 0
LetterboxInBreaks: 0
EpilepsyWarning: 1

[Editor]
DistanceSpacing: 0.9
BeatDivisor: 4
GridSize: 8

[Metadata]
Title:Wrong
Artist:Depeche Mode
Creator:gyt
Version:Down to Up
Source:
Tags:synthpop alternative dance

[Difficulty]
HPDrainRate:4
CircleSize:4
OverallDifficulty:4
ApproachRate:4
SliderMultiplier:1.1
SliderTickRate:1

[Events]
//Background and Video events
0,0,"depeche-mode.jpg"
//Break Periods
2,55039,56816
2,94602,103705
2,132333,137773
//Storyboard Layer 0 (Background)
//Storyboard Layer 1 (Fail)
//Storyboard Layer 2 (Pass)
//Storyboard Layer 3 (Foreground)
Sprite,Foreground,Centre,"White.png",320,240 F,1,94036,95501,0.72,0 F,0,106491,106674,0.112,0.005821244 F,0,107956,108139,0.1160001,0.007046549 F,0,109055,109238,0.09599999,0 F,0,109605,109788,0.116,0.009234415 F,1,110154,110887,0.276,0.0412524 F,0,111986,112169,0.1200001,0.01673856 F,0,112352,112535,0.112,0.01912792 F,0,113451,113634,0.112,0.03347712 F,0,113817,114000,0.1280001,0 F,0,114916,115099,0.116,0 F,0,115466,115649,0.108,0.009644903 F,1,116015,116748,0.5360001,0 F,0,117847,118030,0.2639999,0.01166714 F,0,118213,118396,0.1039999,0 F,0,119312,119495,0.272,0.01339521 F,0,119678,119862,0.116,0 F,0,120777,120961,0.276,0.01581012 F,0,121144,121327,0.272,0.01644026 F,0,122243,122426,0.2840001,0 F,0,122609,122792,0.1240001,0 F,0,123708,123891,0.276,0 F,0,124074,124257,0.112,0 F,0,125173,125356,0.2800001,0 F,0,125540,125723,0.116,0 F,0,126639,126822,0.2840001,0 F,0,127005,127188,0.108,0 F,0,127371,127554,0.2679999,0 F,0,127737,127921,0.276,0 F,0,128104,128287,0.1200001,0 F,0,128470,128653,0.272,0 F,0,128836,129020,0.116,0 F,1,129203,129935,0.7240002,0 F,0,139460,140925,0,0.116 F,1,141291,141658,0.2800001,0 F,0,145321,146786,0,0.2359999 F,0,147153,147519,0.544,0.116 F,0,148252,148618,0.392,0 F,0,149717,149900,0.116,0 F,0,151182,152647,0,0.348 F,0,153014,153380,0.728,0.1200001 F,0,154113,154479,0.38,0 F,0,155578,155761,0.1280001,0 F,0,157043,158509,0,0.472 F,0,158875,159241,0.728,0.228 F,0,159974,160340,0.5093441,0.009344251 F,0,161439,161622,0.112,0 F,0,162904,164370,0.276,0 F,0,164736,164919,0.276,0 F,0,165102,165286,0.2839999,0 F,0,166201,166385,0.276,0 F,0,166568,166751,0.272,0 F,0,167667,167850,0.2695,0.001500008 F,0,168216,168399,0.112,0 F,1,168766,169865,0.2679999,0 F,0,170597,170780,0.2840001,0 F,0,170964,171147,0.26,0 F,0,172063,172246,0.276,0 F,0,172429,172612,0.272,0 F,0,173528,173711,0.2714316,0 F,0,174077,174260,0.116,0 F,1,174627,175359,0.2724496,0.004449693 F,0,176458,176642,0.2724498,0.004449693 F,0,176825,177008,0.2724496,0.004449693 F,0,177924,178107,0.28,0.0190945 F,0,178290,178473,0.2910945,0.0190945 F,0,179389,179572,0.2790945,0 F,1,179938,180122,0.108,0.04280116 F,1,180488,181587,0.3034491,0.02344907 F,0,182320,182503,0.1354511,0.02345116 F,0,182686,182869,0.2954511,0.02345116 F,0,183785,183968,0.1348828,0.03088286 F,0,184151,184334,0.2948828,0.03088286 F,0,185250,185433,0.3083255,0.03232548 F,0,185800,185983,0.1363255,0.03232548 F,0,186715,186899,0.3003254,0.03232548 F,0,187082,187265,0.3112385,0.03523853 F,0,187448,187631,0.3022549,0.03825493 F,1,187814,189280,0.724,0.07101176
//Storyboard Sound Samples
//Background Colour Transformations
3,100,0,0,0

[TimingPoints]
624,366.322730325417,4,2,0,100,1,0
23980,-100,4,1,0,70,0,0
25080,-100,4,2,0,100,0,0
25446,-100,4,1,0,70,0,0
26545,-100,4,2,0,100,0,0
26911,-100,4,1,0,70,0,0
29293,-100,4,2,0,100,0,0
29843,-100,4,1,0,70,0,0
31125,-100,4,2,0,100,0,0
31395,-100,4,1,0,70,0,0
32585,-100,4,2,0,100,0,0
32773,-100,4,1,0,70,0,0
34875,-100,4,1,1,70,0,0
35424,-100,4,2,0,100,0,0
35705,-100,4,1,0,70,0,0
36804,-100,4,2,0,100,0,0
37170,-100,4,1,0,70,0,0
38269,-100,4,2,0,100,0,0
38635,-100,4,1,1,70,0,0
39271,-100,4,2,0,75,0,0
39820,-100,4,2,0,100,0,0
40100,-100,4,1,0,70,0,0
41200,-100,4,2,0,100,0,0
41652,-100,4,1,1,70,0,0
42666,-100,4,2,0,100,0,0
43117,-100,4,1,1,70,0,0
44131,-100,4,2,0,100,0,0
44497,-100,4,1,1,70,0,0
45132,-100,4,2,0,75,0,0
45681,-100,4,2,0,100,0,0
45961,-100,4,1,0,70,0,0
47428,-100,4,2,0,100,0,0
54839,-100,4,2,0,50,0,0
58053,-100,4,2,0,100,0,0
59152,-100,4,1,0,70,0,0
61534,-100,4,2,0,100,0,0
62083,-100,4,1,0,70,0,0
63182,-100,4,2,0,100,0,0
63549,-100,4,1,0,70,0,0
66113,-100,4,2,0,100,0,0
66479,-100,4,1,0,70,0,0
67395,-100,4,2,0,100,0,0
67944,-100,4,1,0,70,0,0
69044,-100,4,2,0,100,0,0
69410,-100,4,1,1,70,0,0
69858,-100,4,2,0,75,0,0
70143,-100,4,2,0,100,0,0
70876,-100,4,1,0,70,0,0
71975,-100,4,2,0,100,0,0
72341,-100,4,1,0,70,0,0
73624,-100,4,2,0,100,0,0
73807,-100,4,1,1,70,0,0
74438,-100,4,2,0,75,0,0
74987,-100,4,2,0,100,0,0
75271,-100,4,1,0,70,0,0
76555,-100,4,2,0,100,0,0
76819,-100,4,1,1,70,0,0
77837,-100,4,2,0,100,0,0
78284,-100,4,1,1,70,0,0
79486,-100,4,2,0,100,0,0
79669,-100,4,1,1,70,0,0
80299,-100,4,2,0,75,0,0
80848,-100,4,2,0,100,0,0
81133,-100,4,1,0,70,0,0
82600,-100,4,2,0,100,0,0
94402,-100,4,2,0,0,0,0
104948,-100,4,2,0,100,0,0
106047,-100,4,1,0,70,0,0
129569,-100,4,1,0,0,0,0
130668,-100,4,2,0,100,0,0
131034,-100,4,2,0,50,0,0
131401,-100,4,2,0,25,0,0
131767,-100,4,2,0,0,0,0
138727,-100,4,1,0,45,0,0
140925,-100,4,1,0,50,0,0
146786,-100,4,1,0,55,0,0
152647,-100,4,1,0,60,0,0
158509,-100,4,1,0,65,0,0
162172,-100,4,1,0,70,0,0
163637,-100,4,1,0,50,0,0
164003,-100,4,1,0,70,0,0
164370,-100,4,1,0,50,0,0
164736,-100,4,1,0,70,0,0
165835,-100,4,1,0,70,0,0
166018,-100,4,1,0,50,0,0
166201,-100,4,1,0,70,0,0
167300,-100,4,1,0,50,0,0
167667,-100,4,1,0,70,0,0
169865,-100,4,1,0,50,0,0
170231,-100,4,1,0,70,0,0
170597,-100,4,1,0,70,0,0
171879,-100,4,1,0,50,0,0
172063,-100,4,1,0,70,0,0
173345,-100,4,1,0,50,0,0
173528,-100,4,1,0,70,0,0
176092,-100,4,1,0,50,0,0
176458,-100,4,1,0,70,0,0
177557,-100,4,1,0,70,0,0
177741,-100,4,1,0,50,0,0
177924,-100,4,1,0,70,0,0
179023,-100,4,1,0,50,0,0
179389,-100,4,1,0,70,0,0
181953,-100,4,1,0,50,0,0
182320,-100,4,1,0,70,0,0
183419,-100,4,1,0,70,0,0
183785,-100,4,1,0,70,0,0
184884,-100,4,1,0,60,0,0
185250,-100,4,1,0,70,0,0
189280,-100,4,2,0,100,0,0
189646,-100,4,2,0,50,0,0
190012,-100,4,2,0,25,0,0
190379,-100,4,2,0,0,0,0

[Colours]
Combo1 : 100,100,100
Combo2 : 210,210,210
Combo3 : 150,150,150

[HitObjects]
256,352,22969,6,0,B|256:224,1,110
160,272,23702,2,0,B|160:208,1,55
128,176,24068,1,0
128,80,24434,1,4
256,232,25167,6,0,B|256:168,1,55
288,136,25533,1,0
288,40,25899,1,4
96,80,26632,6,0,B|96:160,1,55
128,176,26999,2,0,C|128:352,2,165,0|8|4
432,352,29380,6,0,L|432:272,1,55,0|0
336,328,29929,2,4,C|336:216,1,110,0|4
88,200,31211,6,0,L|88:128,1,55,0|0
184,176,31761,1,4
416,80,32677,5,0
384,120,32860,2,0,L|384:296,2,165,0|8|4
256,328,34875,6,0,C|256:136,1,165,0|0
160,192,35790,2,4,C|160:64,1,110,0|4
48,248,36889,6,0,B|48:192,1,55
80,152,37256,2,0,C|80:32,1,110,0|4
280,32,38355,6,0,B|280:104,1,55
312,128,38721,2,0,B|312:312,2,165,0|8|0
408,160,40186,2,0,L|408:288,1,110,0|4
232,352,41285,6,0,L|232:224,1,110
304,176,42018,1,4
480,272,42751,2,0,L|480:144,1,110
408,96,43483,1,4
232,32,44216,6,0,B|232:104,1,55
200,128,44582,2,0,B|200:312,2,165,0|8|0
104,160,46047,2,0,L|104:288,1,110,0|8
32,336,46780,1,4
192,224,47513,5,0
256,296,47879,1,0
320,224,48245,1,0
256,144,48612,6,2,B|256:32,1,110,2|0
352,72,49344,1,0
424,136,49710,1,0
352,200,50076,1,0
160,248,50810,6,0,C|160:120,2,110
352,248,52275,2,0,C|352:120,2,110
256,72,53740,2,0,B|256:200,1,110
184,256,54473,2,2,B|184:144,1,110,2|0
256,352,58136,6,0,B|256:224,1,110
352,208,58869,1,0
352,112,59235,1,0
256,112,59601,2,0,C|256:32,1,55
256,304,60700,6,0,L|256:240,1,55
160,208,61250,1,4
160,112,61616,2,0,B|160:48,1,55,0|0
64,56,62166,2,0,B|64:176,2,110,0|0|4
160,56,63265,1,0
256,56,63631,2,0,L|256:120,1,55,0|8
256,208,64180,1,4
456,352,65096,6,0,B|456:224,1,110,0|4
256,272,66195,2,0,B|256:216,1,55
288,176,66562,2,0,B|288:64,1,110,0|4
184,176,67477,2,0,L|184:240,1,55
88,200,68027,6,0,C|88:72,1,110,0|4
224,240,69126,2,0,B|224:176,1,55
256,144,69492,2,0,C|256:16,1,110,0|2
328,168,70408,2,0,L|328:232,1,55
424,192,70957,6,0,C|424:80,1,110,0|4
288,232,72056,2,0,B|288:176,1,55
256,136,72423,2,0,C|256:24,1,110,0|4
224,272,73705,5,0
192,232,73888,2,0,B|192:40,2,165,0|8|0
96,200,75353,2,0,L|96:80,1,110,0|4
304,224,76635,6,0,B|304:152,1,55
376,104,77185,1,4
232,240,77918,2,0,B|232:120,1,110
160,64,78650,1,4
288,272,79566,5,0
320,232,79749,2,0,B|320:40,2,165,0|8|0
416,200,81215,2,0,C|416:80,1,110,0|8
488,24,81947,1,4
288,32,82680,5,0
216,96,83046,1,0
288,160,83412,1,0
216,224,83779,6,2,B|216:344,1,110,2|0
312,336,84511,1,0
384,272,84877,1,0
312,208,85243,1,0
160,80,85977,6,0,C|160:192,2,110
352,80,87442,2,0,C|352:200,2,110
256,256,88907,2,0,C|256:128,1,110
184,72,89640,6,0,B|184:192,1,110,2|0
184,280,90373,1,0
256,344,90739,1,0
328,280,91105,1,0
352,80,91838,6,0,C|352:192,2,110
184,192,93303,2,0,C|184:304,1,110
256,232,94036,2,0,L|256:104,1,110,2|0
256,352,105025,6,0,L|256:224,1,110
352,272,105758,2,0,B|352:216,1,55
384,176,106124,1,0
384,80,106491,1,4
256,232,107223,6,0,B|256:168,1,55
224,136,107590,1,8
224,40,107956,1,4
112,136,108506,6,0,L|112:216,1,55
40,264,109055,2,0,B|40:88,1,165,8|0
112,32,109971,2,0,L|112:88,1,55,0|4
256,352,111253,6,0,L|256:224,1,110,0|0
352,272,111986,2,4,C|352:160,1,110
464,328,113085,6,0,B|464:264,1,55
432,232,113451,2,4,C|432:104,1,110
256,24,114550,6,0,B|256:80,1,55
224,120,114916,2,4,B|224:304,2,165
304,352,116931,6,0,B|304:160,1,165,0|0
208,216,117847,1,4
208,120,118213,1,8
96,280,118946,6,0,B|96:224,1,55
64,184,119312,1,4
64,88,119678,1,8
192,240,120411,6,0,B|192:160,1,55
224,144,120777,2,4,B|224:16,2,110,4|4|8
320,128,121876,2,0,B|320:208,1,55
352,224,122243,1,4
352,320,122609,1,8
152,336,123342,6,0,B|152:264,1,55
120,240,123708,2,0,C|120:128,1,110,4|8
256,272,124807,2,0,B|256:216,1,55,0|0
288,176,125173,2,8,C|288:48,1,110,4|8
480,128,126272,6,0,B|480:208,1,55
448,224,126639,2,0,C|448:352,2,110,4|8|4
352,256,127737,2,0,L|352:128,1,110,4|8
352,48,128470,1,4
256,48,128836,1,8
256,144,129203,2,0,B|256:272,1,110,4|0
256,192,130668,12,0,132133
256,32,139093,5,0
352,72,139460,2,2,B|352:248,2,165,0|8|0
160,112,141291,2,0,B|160:280,1,165,4|0
296,344,142390,1,8
256,48,143489,1,0
352,80,143856,1,8
296,160,144222,1,4
256,352,144955,5,0
160,312,145321,1,4
256,136,146054,1,0
176,192,146420,1,8
264,232,146786,1,0
352,272,147153,2,0,B|352:96,1,165,4|0
216,48,148252,2,0,B|216:176,1,110,8|0
256,352,149351,1,0
352,312,149717,2,0,B|352:184,1,110,8|0
256,32,150816,5,0
160,72,151183,2,0,B|160:208,1,110,0|8
216,264,151915,1,8
256,176,152281,1,0
256,80,152647,1,4
352,112,153014,2,0,B|352:288,1,165,4|0
216,344,154113,1,8
256,48,155212,1,8
160,80,155579,1,8
256,352,156677,5,0
352,320,157043,2,2,B|352:96,1,220,0|8
256,136,158142,1,8
256,232,158509,1,8
160,272,158875,2,0,B|160:96,1,165,4|0
296,40,159974,1,8
256,336,161073,5,0
160,304,161440,1,4
368,96,162538,1,0
368,192,162905,1,4
256,32,163637,6,0,B|256:160,1,110,0|0
160,112,164370,2,0,B|160:176,1,55
128,208,164736,1,0
128,304,165102,1,4
256,152,165835,6,0,B|256:216,1,55,0|0
288,248,166201,1,0
288,344,166567,1,4
96,304,167300,6,0,B|96:224,1,55
128,208,167667,2,0,C|128:32,2,165,0|8|4
376,40,169865,6,0,L|376:120,2,55
280,56,170597,2,4,C|280:168,1,110,0|4
88,184,171696,6,0,L|88:256,2,55
184,208,172429,1,4
416,304,173345,5,0
384,264,173528,2,0,L|384:88,2,165,0|8|4
256,56,175543,6,0,C|256:248,1,165,0|0
160,192,176458,2,4,C|160:320,1,110,0|4
48,136,177557,6,0,B|48:192,1,55
80,232,177924,2,0,C|80:352,1,110,0|4
280,352,179023,6,0,B|280:280,1,55
312,256,179389,2,0,B|312:72,2,165,0|8|0
408,224,180854,2,0,L|408:96,1,110,0|4
232,32,181953,6,0,L|232:160,1,110
304,208,182686,1,4
480,112,183419,2,0,L|480:240,1,110
408,288,184151,1,4
232,352,184884,6,0,B|232:280,1,55
200,256,185250,2,0,B|200:72,2,165,0|8|0
104,224,186715,2,0,L|104:96,1,110,0|8
32,48,187448,1,4
32,144,187814,1,4
256,192,189280,12,0,190745
