osu file format v9

[General]
AudioFilename: Depeche Mode - Wrong.mp3
AudioLeadIn: 0
PreviewTime: 22603
Countdown: 0
SampleSet: Normal
StackLeniency: 0.7
Mode: 0
LetterboxInBreaks: 0
EpilepsyWarning: 1

[Editor]
DistanceSpacing: 0.9
BeatDivisor: 4
GridSize: 8

[Metadata]
Title:Wrong
Artist:Depeche Mode
Creator:gyt
Version:CrossWise
Source:
Tags:synthpop alternative dance

[Difficulty]
HPDrainRate:3
CircleSize:3
OverallDifficulty:3
ApproachRate:3
SliderMultiplier:0.9
SliderTickRate:1

[Events]
//Background and Video events
0,0,"band_2_2009_01_1024.jpg"
//Break Periods
2,53207,56696
2,94235,103585
2,129769,137653
//Storyboard Layer 0 (Background)
//Storyboard Layer 1 (Fail)
//Storyboard Layer 2 (Pass)
//Storyboard Layer 3 (Foreground)
Sprite,Foreground,Centre,"White.png",320,240 F,1,94036,95501,0.72,0 F,0,106491,106674,0.112,0.005821244 F,0,107956,108139,0.1160001,0.007046549 F,0,109055,109238,0.09599999,0 F,0,109605,109788,0.116,0.009234415 F,1,110154,110887,0.276,0.0412524 F,0,111986,112169,0.1200001,0.01673856 F,0,112352,112535,0.112,0.01912792 F,0,113451,113634,0.112,0.03347712 F,0,113817,114000,0.1280001,0 F,0,114916,115099,0.116,0 F,0,115466,115649,0.108,0.009644903 F,1,116015,116748,0.5360001,0 F,0,117847,118030,0.2639999,0.01166714 F,0,118213,118396,0.1039999,0 F,0,119312,119495,0.272,0.01339521 F,0,119678,119862,0.116,0 F,0,120777,120961,0.276,0.01581012 F,0,121144,121327,0.272,0.01644026 F,0,122243,122426,0.2840001,0 F,0,122609,122792,0.1240001,0 F,0,123708,123891,0.276,0 F,0,124074,124257,0.112,0 F,0,125173,125356,0.2800001,0 F,0,125540,125723,0.116,0 F,0,126639,126822,0.2840001,0 F,0,127005,127188,0.108,0 F,0,127371,127554,0.2679999,0 F,0,128104,128287,0.1200001,0 F,0,128836,129020,0.116,0 F,1,129203,129935,0.7240002,0 F,0,139460,140925,0,0.116 F,1,141291,141658,0.2800001,0 F,0,147153,147519,0.544,0.116 F,0,148252,148618,0.392,0 F,0,149717,149900,0.116,0 F,0,151182,151365,0.112,0 F,0,152281,152464,0.1240001,0 F,0,152647,152831,0.12,0 F,0,154113,154479,0.38,0 F,0,157043,158509,0,0.372 F,0,158875,159241,0.6320001,0.228 F,0,159974,160340,0.5093441,0.009344251 F,0,161439,161622,0.112,0 F,0,162904,163088,0.128,0 F,0,164736,164919,0.276,0 F,0,165102,165286,0.2839999,0 F,0,166201,166385,0.276,0 F,0,166568,166751,0.272,0 F,0,167667,167850,0.2695,0.001500008 F,0,168216,168399,0.112,0 F,1,168766,169865,0.2679999,0 F,0,170597,170780,0.2840001,0 F,0,170964,171147,0.26,0 F,0,172063,172246,0.276,0 F,0,172429,172612,0.272,0 F,0,173528,173711,0.2714316,0 F,0,174077,174260,0.116,0 F,1,174627,175359,0.2724496,0.004449693 F,0,176458,176642,0.2724498,0.004449693 F,0,176825,177008,0.2724496,0.004449693 F,0,177924,178107,0.28,0.0190945 F,0,178290,178473,0.2910945,0.0190945 F,0,179389,179572,0.2790945,0 F,1,179938,180122,0.108,0.04280116 F,1,180488,181587,0.3034491,0.02344907 F,0,182320,182503,0.1354511,0.02345116 F,0,182686,182869,0.2954511,0.02345116 F,0,183785,183968,0.1348828,0.03088286 F,0,184151,184334,0.2948828,0.03088286 F,0,185250,185433,0.3083255,0.03232548 F,0,185800,185983,0.1363255,0.03232548 F,0,186715,186899,0.3003254,0.03232548 F,0,187082,187265,0.3112385,0.03523853 F,0,187448,187631,0.3022549,0.03825493 F,1,187814,189280,0.724,0.07101176
//Storyboard Sound Samples
//Background Colour Transformations
3,100,0,0,0

[TimingPoints]
624,366.322730325417,4,2,0,100,1,0
23980,-100,4,1,0,70,0,0
25446,-100,4,1,0,70,0,0
26911,-100,4,1,0,70,0,0
29843,-100,4,1,0,70,0,0
31303,-100,4,1,0,70,0,0
32860,-100,4,1,0,70,0,0
34875,-100,4,1,1,70,0,0
35424,-100,4,2,0,100,0,0
35705,-100,4,1,0,70,0,0
37170,-100,4,1,0,70,0,0
38635,-100,4,1,1,70,0,0
39271,-100,4,2,0,75,0,0
39734,-100,4,2,0,100,0,0
40100,-100,4,1,0,70,0,0
41560,-100,4,1,0,70,0,0
43025,-100,4,1,0,70,0,0
44497,-100,4,1,1,70,0,0
45132,-100,4,2,0,75,0,0
45961,-100,4,1,0,70,0,0
47428,-100,4,2,0,100,0,0
58053,-100,4,2,0,100,0,0
59152,-100,4,1,0,70,0,0
62083,-100,4,1,0,70,0,0
63549,-100,4,1,0,70,0,0
66479,-100,4,1,0,70,0,0
67944,-100,4,1,0,70,0,0
69410,-100,4,1,1,70,0,0
69858,-100,4,2,0,75,0,0
70876,-100,4,1,0,70,0,0
72341,-100,4,1,0,70,0,0
73807,-100,4,1,1,70,0,0
74438,-100,4,2,0,75,0,0
74904,-100,4,2,0,100,0,0
75271,-100,4,1,0,70,0,0
76738,-100,4,1,0,70,0,0
78203,-100,4,1,0,70,0,0
79669,-100,4,1,1,70,0,0
80299,-100,4,2,0,75,0,0
81133,-100,4,1,0,70,0,0
82600,-100,4,2,0,100,0,0
94323,-100,4,2,0,0,0,0
104948,-100,4,2,0,100,0,0
106047,-100,4,1,0,70,0,0
129569,-100,4,1,0,0,0,0
138727,-100,4,1,0,45,0,0
140925,-100,4,1,0,50,0,0
146786,-100,4,1,0,55,0,0
152647,-100,4,1,0,60,0,0
158509,-100,4,1,0,65,0,0
162172,-100,4,1,0,70,0,0
189280,-100,4,2,0,100,0,0
189646,-100,4,2,0,50,0,0
190012,-100,4,2,0,25,0,0
190379,-100,4,2,0,0,0,0

[Colours]
Combo1 : 128,128,192
Combo2 : 255,128,64
Combo3 : 128,64,64

[HitObjects]
40,192,22969,2,0,B|144:192,1,90,0|2
176,344,24068,1,0
256,344,24434,1,4
472,232,25533,1,0
392,232,25900,1,4
160,152,26999,6,0,B|312:152,1,135,0|8
344,40,28098,1,4
40,312,29929,5,0
40,232,30296,1,4
216,72,31395,1,0
216,152,31761,1,4
384,328,32860,6,0,B|384:176,1,135,0|8
472,112,33959,1,4
272,112,34875,6,0,B|128:112,1,135,0|0
136,192,35790,2,4,C|240:192,1,90,0|4
464,152,37256,2,0,C|360:152,1,90,0|4
216,336,38721,6,0,B|216:184,1,135,0|8
176,88,39820,1,0
256,88,40186,2,0,L|344:88,1,90,0|4
152,232,41652,5,0
152,152,42018,1,4
392,192,43117,1,0
312,192,43483,1,4
80,120,44582,6,0,B|80:272,1,135,0|8
272,192,46048,1,0
352,192,46414,1,8
432,192,46780,1,4
40,280,48612,6,2,B|40:184,1,90,2|0
216,352,50077,1,2
296,40,51542,1,2
480,192,52641,2,0,C|376:192,1,90,2|2
256,40,58136,6,0,B|256:144,1,90,0|2
216,288,59235,1,0
216,208,59601,2,0,C|216:144,1,45
40,64,60700,2,0,L|40:120,1,45
40,192,61250,1,4
240,152,62166,6,0,B|336:152,1,90,0|0
408,152,62898,1,4
272,232,63631,2,0,L|208:232,1,45,0|8
144,232,64180,1,4
216,40,65096,5,0
216,120,65463,1,4
296,352,66562,1,0
296,272,66928,1,4
352,40,68027,5,0
272,40,68393,1,4
48,152,69492,2,0,C|144:152,1,90,0|2
376,192,70957,6,0,C|376:96,1,90,0|4
136,104,72423,2,0,C|136:200,1,90,0|4
328,344,73888,6,0,B|192:344,1,135,0|8
256,240,74987,1,0
256,160,75353,2,0,L|256:72,1,90,0|4
472,192,76819,5,0
392,192,77185,1,4
152,152,78284,1,0
152,232,78650,1,4
392,192,79749,6,0,B|256:192,1,135,0|8
72,272,81215,1,0
72,192,81581,1,8
72,112,81947,1,4
480,96,83779,6,2,B|480:192,1,90,2|0
296,32,85244,1,2
216,344,86709,1,2
32,192,87808,2,0,C|128:192,1,90,2|2
440,232,89640,6,2,B|440:128,1,90,2|0
296,344,91105,1,2
216,32,92571,1,2
32,192,93669,2,0,C|136:192,1,90,2|2
256,344,105025,6,0,L|256:240,1,90,0|2
296,96,106124,1,0
296,176,106491,1,4
472,344,107590,1,0
472,264,107956,1,4
256,152,109055,6,0,B|104:152,1,135,8|8
120,232,109971,2,0,L|176:232,1,45,0|4
408,192,111253,6,0,L|312:192,1,90,0|0
256,248,111986,2,4,C|256:344,1,90
32,248,113451,2,4,C|32:144,1,90
272,152,114916,6,4,B|416:152,1,135
344,48,116015,1,4
152,96,116931,6,0,B|152:248,1,135,0|0
232,232,117847,1,4
232,152,118213,1,8
472,152,119312,1,4
472,232,119678,1,8
256,344,120777,5,4
176,344,121144,1,4
176,264,121510,1,8
296,152,122243,2,0,B|400:152,1,90,4|8
160,232,123708,5,4
160,152,124074,1,8
392,232,125173,1,4
312,232,125540,1,8
72,192,126639,5,4
72,272,127005,1,8
152,272,127371,1,4
256,152,128104,1,8
400,232,128836,1,8
320,232,129203,2,0,B|320:336,1,90,4|0
40,344,139093,5,0
112,304,139460,2,0,B|112:24,1,270,0|0
216,152,141291,5,4
360,232,142024,1,0
440,232,142390,1,8
216,152,143489,1,0
216,72,143856,1,8
440,152,144955,5,0
360,152,145321,1,8
120,152,146420,1,8
120,232,146786,1,8
40,232,147153,1,4
216,64,148252,6,0,B|216:160,1,90,8|0
72,344,149717,2,0,B|168:344,2,90,8|0|0
216,264,151182,6,0,B|216:160,1,90,8|0
296,176,151915,1,0
376,176,152281,1,8
376,96,152647,1,8
256,192,153014,12,8,155578
472,344,156677,5,0
432,272,157043,2,0,B|152:272,1,270,8|0
88,232,158509,1,0
88,152,158875,1,4
256,328,159974,5,4
40,80,161440,1,8
232,232,162538,1,0
312,232,162905,1,8
472,192,163637,6,0,B|368:192,1,90,0|8
336,40,164736,1,0
256,40,165102,1,4
40,152,166201,1,0
120,152,166568,1,4
352,232,167667,6,0,B|200:232,1,135,0|8
168,344,168766,1,4
472,72,170597,5,0
472,152,170964,1,4
296,312,172063,1,0
296,232,172429,1,4
128,56,173528,6,0,B|128:208,1,135,0|8
40,272,174627,1,4
240,272,175543,6,0,B|384:272,1,135,0|0
376,192,176458,2,4,C|272:192,1,90,0|4
48,232,177924,2,0,C|152:232,1,90,0|4
296,48,179389,6,0,B|296:200,1,135,0|8
336,296,180488,1,0
256,296,180854,2,0,L|168:296,1,90,0|4
360,152,182320,5,0
360,232,182686,1,4
120,192,183785,1,0
200,192,184151,1,4
432,264,185250,6,0,B|432:112,1,135,0|8
240,192,186716,1,0
160,192,187082,1,8
80,192,187448,1,4
80,272,187814,1,4
256,192,189280,12,0,190745
