osu file format v12

[General]
AudioFilename: Depech Mode - Depeche Mode-Precious (audiopoisk.com).mp3
AudioLeadIn: 0
PreviewTime: 54956
Countdown: 0
SampleSet: Normal
StackLeniency: 0.7
Mode: 1
LetterboxInBreaks: 0
WidescreenStoryboard: 0

[Editor]
DistanceSpacing: 0.9
BeatDivisor: 4
GridSize: 4

[Metadata]
Title:Precious
TitleUnicode:Precious
Artist:Depeche Mode
ArtistUnicode:Depeche Mode
Creator:-Bakari-
Version:OniZoda
Source:
Tags:_Gezo_ Alternative dance Playing the Angel Martin Gore Dave Gahan Andy Fletcher Mute Slow-ru
BeatmapID:259201
BeatmapSetID:94522

[Difficulty]
HPDrainRate:5
CircleSize:5
OverallDifficulty:5
ApproachRate:5
SliderMultiplier:1.4
SliderTickRate:2

[Events]
//Background and Video events
0,0,"bg.jpg",0,0
Video,-1093,"vid.avi"
//Break Periods
//Storyboard Layer 0 (Background)
//Storyboard Layer 1 (Fail)
//Storyboard Layer 2 (Pass)
//Storyboard Layer 3 (Foreground)
//Storyboard Sound Samples
//Background Colour Transformations
3,100,163,162,255

[TimingPoints]
9241,571.428571428571,4,1,0,55,1,0
54955,-100,4,1,0,55,0,1
72098,-100,4,1,0,55,0,0
123526,-100,4,1,0,55,0,1
141813,-100,4,1,0,55,0,0
192098,-100,4,1,0,55,0,1
209813,-100,4,1,0,55,0,0

[Colours]
Combo1 : 182,160,146
Combo2 : 176,169,113
Combo3 : 208,208,225
Combo4 : 129,122,167

[HitObjects]
272,144,9241,1,0,0:0:0:0:
272,144,9527,1,0,0:0:0:0:
272,144,9813,1,8,0:0:0:0:
272,144,9956,1,0,0:0:0:0:
272,144,10099,1,0,0:0:0:0:
272,144,10384,1,0,0:0:0:0:
272,144,10670,1,8,0:0:0:0:
272,144,10956,1,0,0:0:0:0:
272,144,11527,1,0,0:0:0:0:
272,144,11813,1,0,0:0:0:0:
272,144,12098,1,8,0:0:0:0:
272,144,12241,1,0,0:0:0:0:
272,144,12384,1,0,0:0:0:0:
272,144,12670,1,0,0:0:0:0:
272,144,12813,1,0,0:0:0:0:
272,144,12956,1,8,0:0:0:0:
272,144,13241,1,8,0:0:0:0:
272,144,13527,1,0,0:0:0:0:
272,144,14098,1,0,0:0:0:0:
272,144,14384,1,8,0:0:0:0:
272,144,14670,1,0,0:0:0:0:
272,144,14813,1,8,0:0:0:0:
272,144,14956,1,0,0:0:0:0:
272,144,15241,1,0,0:0:0:0:
272,144,15527,1,8,0:0:0:0:
272,144,16098,1,0,0:0:0:0:
272,144,16384,1,0,0:0:0:0:
272,144,16670,1,8,0:0:0:0:
272,144,16956,1,0,0:0:0:0:
272,144,17098,1,8,0:0:0:0:
272,144,17241,1,0,0:0:0:0:
272,144,17384,1,0,0:0:0:0:
272,144,17527,1,8,0:0:0:0:
272,144,17813,1,8,0:0:0:0:
272,144,18098,1,0,0:0:0:0:
272,144,18670,1,0,0:0:0:0:
272,144,18956,1,8,0:0:0:0:
272,144,19241,1,0,0:0:0:0:
272,144,19527,1,0,0:0:0:0:
272,144,19813,1,0,0:0:0:0:
272,144,20098,1,8,0:0:0:0:
272,144,20670,1,0,0:0:0:0:
272,144,20956,1,0,0:0:0:0:
272,144,21241,1,8,0:0:0:0:
272,144,21813,1,0,0:0:0:0:
272,144,21956,1,0,0:0:0:0:
272,144,22098,1,0,0:0:0:0:
272,144,22384,1,8,0:0:0:0:
272,144,22670,1,0,0:0:0:0:
272,144,22956,1,0,0:0:0:0:
272,144,23241,1,8,0:0:0:0:
272,144,23527,1,0,0:0:0:0:
272,144,24098,1,0,0:0:0:0:
272,144,24384,1,8,0:0:0:0:
272,144,24670,1,0,0:0:0:0:
272,144,25241,1,0,0:0:0:0:
272,144,25527,1,0,0:0:0:0:
272,144,25813,1,8,0:0:0:0:
272,144,26098,1,0,0:0:0:0:
272,144,26241,1,0,0:0:0:0:
272,144,26384,1,0,0:0:0:0:
272,144,26670,1,0,0:0:0:0:
272,144,26813,1,8,0:0:0:0:
272,144,26956,1,8,0:0:0:0:
272,144,27241,1,8,0:0:0:0:
272,144,27527,1,0,0:0:0:0:
272,144,28098,1,8,0:0:0:0:
272,144,28670,1,0,0:0:0:0:
272,144,28956,1,0,0:0:0:0:
272,144,29241,1,8,0:0:0:0:
272,144,29813,1,0,0:0:0:0:
272,144,30098,1,8,0:0:0:0:
272,144,30241,1,0,0:0:0:0:
272,144,30384,1,8,0:0:0:0:
272,144,30670,1,8,0:0:0:0:
272,144,30956,1,0,0:0:0:0:
272,144,31098,1,8,0:0:0:0:
272,144,31384,1,8,0:0:0:0:
36,152,31527,1,0,0:0:0:0:
36,152,31813,1,0,0:0:0:0:
272,144,31956,1,8,0:0:0:0:
272,144,32098,1,0,0:0:0:0:
272,144,32670,1,8,0:0:0:0:
272,144,33241,1,0,0:0:0:0:
272,144,33527,1,0,0:0:0:0:
272,144,33813,1,8,0:0:0:0:
272,144,34384,1,0,0:0:0:0:
272,144,34527,1,0,0:0:0:0:
272,144,34670,1,8,0:0:0:0:
272,144,34956,1,8,0:0:0:0:
272,144,35241,1,0,0:0:0:0:
272,144,35527,1,0,0:0:0:0:
272,144,35813,1,8,0:0:0:0:
272,144,36098,1,8,0:0:0:0:
272,144,36384,1,8,0:0:0:0:
272,144,36670,1,4,0:0:0:0:
272,144,37241,1,8,0:0:0:0:
272,144,37813,1,0,0:0:0:0:
272,144,37956,1,0,0:0:0:0:
272,144,38098,1,0,0:0:0:0:
272,144,38384,1,8,0:0:0:0:
272,144,38670,1,0,0:0:0:0:
272,144,38956,1,0,0:0:0:0:
272,144,39527,1,8,0:0:0:0:
272,144,39813,1,0,0:0:0:0:
272,144,40098,1,8,0:0:0:0:
272,144,40241,1,8,0:0:0:0:
272,144,40384,1,8,0:0:0:0:
272,144,40670,1,8,0:0:0:0:
272,144,40956,1,0,0:0:0:0:
272,144,41527,1,0,0:0:0:0:
272,144,41813,1,8,0:0:0:0:
272,144,42098,1,0,0:0:0:0:
272,144,42241,1,0,0:0:0:0:
272,144,42384,1,0,0:0:0:0:
272,144,42670,1,8,0:0:0:0:
272,144,42956,1,0,0:0:0:0:
272,144,43527,1,0,0:0:0:0:
272,144,43813,1,8,0:0:0:0:
272,144,44098,1,0,0:0:0:0:
272,144,44384,1,8,0:0:0:0:
272,144,44670,1,8,0:0:0:0:
272,144,44813,1,8,0:0:0:0:
272,144,44956,1,8,0:0:0:0:
272,144,45241,1,8,0:0:0:0:
272,144,45527,1,0,0:0:0:0:
272,144,46098,1,0,0:0:0:0:
272,144,46384,1,8,0:0:0:0:
272,144,46670,1,0,0:0:0:0:
272,144,47241,1,0,0:0:0:0:
272,144,47527,1,8,0:0:0:0:
272,144,47813,1,0,0:0:0:0:
272,144,48098,1,0,0:0:0:0:
272,144,48241,1,0,0:0:0:0:
272,144,48384,1,0,0:0:0:0:
272,144,48670,1,8,0:0:0:0:
272,144,48956,1,0,0:0:0:0:
272,144,49241,1,8,0:0:0:0:
272,144,49384,1,8,0:0:0:0:
272,144,49527,1,8,0:0:0:0:
272,144,49813,1,8,0:0:0:0:
272,144,50098,1,0,0:0:0:0:
272,144,50384,1,0,0:0:0:0:
272,144,50956,1,8,0:0:0:0:
272,144,51527,1,0,0:0:0:0:
272,144,51813,1,0,0:0:0:0:
272,144,52098,1,8,0:0:0:0:
272,144,52670,1,0,0:0:0:0:
272,144,52956,1,0,0:0:0:0:
272,144,53098,1,0,0:0:0:0:
272,144,53241,1,8,0:0:0:0:
272,144,53527,1,0,0:0:0:0:
272,144,53813,1,8,0:0:0:0:
272,144,54098,1,0,0:0:0:0:
272,144,54384,1,0,0:0:0:0:
272,144,54527,1,0,0:0:0:0:
272,144,54670,1,8,0:0:0:0:
272,144,54956,1,8,0:0:0:0:
272,144,55241,1,0,0:0:0:0:
272,144,55527,1,8,0:0:0:0:
272,144,56098,1,8,0:0:0:0:
272,144,56384,1,0,0:0:0:0:
272,144,56670,1,8,0:0:0:0:
272,144,57241,1,8,0:0:0:0:
232,156,57527,1,0,0:0:0:0:
272,144,57813,1,0,0:0:0:0:
272,144,58384,1,8,0:0:0:0:
272,144,58670,1,0,0:0:0:0:
272,144,58956,1,0,0:0:0:0:
272,144,59241,1,0,0:0:0:0:
272,144,59527,1,8,0:0:0:0:
272,144,59670,1,8,0:0:0:0:
272,144,59813,1,0,0:0:0:0:
272,144,60098,1,0,0:0:0:0:
272,144,60670,1,0,0:0:0:0:
272,144,60956,1,0,0:0:0:0:
272,144,61241,1,8,0:0:0:0:
272,144,61527,1,0,0:0:0:0:
272,144,61813,1,0,0:0:0:0:
272,144,61956,1,0,0:0:0:0:
272,144,62098,1,0,0:0:0:0:
272,144,62384,1,8,0:0:0:0:
272,144,62956,1,0,0:0:0:0:
272,144,63098,1,0,0:0:0:0:
272,144,63241,1,0,0:0:0:0:
272,144,63527,1,8,0:0:0:0:
272,144,63813,1,0,0:0:0:0:
272,144,64098,1,8,0:0:0:0:
272,144,64241,1,8,0:0:0:0:
272,144,64384,1,0,0:0:0:0:
272,144,64670,1,8,0:0:0:0:
272,144,65241,1,0,0:0:0:0:
272,144,65527,1,0,0:0:0:0:
272,144,65813,1,8,0:0:0:0:
272,144,66098,1,0,0:0:0:0:
272,144,66241,1,8,0:0:0:0:
272,144,66384,1,0,0:0:0:0:
272,144,66670,1,0,0:0:0:0:
272,144,66956,1,8,0:0:0:0:
272,144,67527,1,0,0:0:0:0:
272,144,67813,1,0,0:0:0:0:
272,144,68098,1,8,0:0:0:0:
272,144,68384,1,0,0:0:0:0:
272,144,68670,1,0,0:0:0:0:
272,144,68813,1,0,0:0:0:0:
272,144,68956,1,8,0:0:0:0:
272,144,69241,1,8,0:0:0:0:
272,144,69527,1,0,0:0:0:0:
272,144,69813,1,0,0:0:0:0:
272,144,70098,1,8,0:0:0:0:
272,144,70384,1,0,0:0:0:0:
272,144,70956,1,0,0:0:0:0:
272,144,71241,1,0,0:0:0:0:
272,144,71527,1,8,0:0:0:0:
272,144,71813,1,0,0:0:0:0:
272,144,72098,1,0,0:0:0:0:
272,144,72241,1,8,0:0:0:0:
272,144,72384,1,0,0:0:0:0:
272,144,72670,1,8,0:0:0:0:
272,144,72956,1,8,0:0:0:0:
272,144,73241,1,0,0:0:0:0:
272,144,73813,1,8,0:0:0:0:
272,144,74670,1,0,0:0:0:0:
272,144,74956,1,8,0:0:0:0:
272,144,75527,1,0,0:0:0:0:
272,144,75813,1,0,0:0:0:0:
272,144,76098,1,8,0:0:0:0:
272,144,76384,1,0,0:0:0:0:
272,144,76956,1,0,0:0:0:0:
272,144,77241,1,8,0:0:0:0:
272,144,77527,1,8,0:0:0:0:
272,144,77670,1,8,0:0:0:0:
272,144,77813,1,0,0:0:0:0:
272,144,78384,1,8,0:0:0:0:
272,144,78956,1,0,0:0:0:0:
272,144,79241,1,0,0:0:0:0:
272,144,79527,1,8,0:0:0:0:
272,144,80098,1,0,0:0:0:0:
272,144,80384,1,0,0:0:0:0:
272,144,80670,1,8,0:0:0:0:
272,144,80956,1,0,0:0:0:0:
272,144,81241,1,8,0:0:0:0:
272,144,81384,1,0,0:0:0:0:
272,144,81527,1,8,0:0:0:0:
272,144,81813,1,8,0:0:0:0:
272,144,82098,1,0,0:0:0:0:
272,144,82670,1,0,0:0:0:0:
272,144,82956,1,8,0:0:0:0:
272,144,83241,1,0,0:0:0:0:
272,144,83527,1,0,0:0:0:0:
272,144,83670,1,0,0:0:0:0:
272,144,83813,1,0,0:0:0:0:
272,144,84098,1,8,0:0:0:0:
272,144,84384,1,8,0:0:0:0:
272,144,84670,1,0,0:0:0:0:
272,144,85241,1,8,0:0:0:0:
272,144,85527,1,0,0:0:0:0:
272,144,85813,1,8,0:0:0:0:
272,144,85956,1,0,0:0:0:0:
272,144,86098,1,8,0:0:0:0:
272,144,86384,1,8,0:0:0:0:
272,144,86670,1,0,0:0:0:0:
272,144,87241,1,0,0:0:0:0:
272,144,87527,1,8,0:0:0:0:
272,144,88098,1,0,0:0:0:0:
272,144,88384,1,0,0:0:0:0:
272,144,88670,1,8,0:0:0:0:
272,144,89241,1,0,0:0:0:0:
272,144,89384,1,0,0:0:0:0:
272,144,89527,1,0,0:0:0:0:
272,144,89813,1,8,0:0:0:0:
272,144,90098,1,0,0:0:0:0:
272,144,90384,1,0,0:0:0:0:
272,144,90670,1,8,0:0:0:0:
272,144,90956,1,8,0:0:0:0:
272,144,91527,1,0,0:0:0:0:
272,144,91813,1,0,0:0:0:0:
272,144,92098,1,8,0:0:0:0:
272,144,92384,1,0,0:0:0:0:
272,144,92670,1,8,0:0:0:0:
272,144,92813,1,8,0:0:0:0:
272,144,92956,1,8,0:0:0:0:
272,144,93241,1,0,0:0:0:0:
272,144,93813,1,0,0:0:0:0:
272,144,94098,1,0,0:0:0:0:
272,144,94384,1,8,0:0:0:0:
272,144,94670,1,0,0:0:0:0:
272,144,94956,1,0,0:0:0:0:
272,144,95241,1,8,0:0:0:0:
272,144,95384,1,0,0:0:0:0:
272,144,95527,1,8,0:0:0:0:
272,144,95813,1,8,0:0:0:0:
272,144,96098,1,0,0:0:0:0:
272,144,96670,1,8,0:0:0:0:
272,144,97241,1,0,0:0:0:0:
272,144,97384,1,0,0:0:0:0:
272,144,97527,1,0,0:0:0:0:
272,144,97813,1,8,0:0:0:0:
272,144,98384,1,0,0:0:0:0:
272,144,98527,1,0,0:0:0:0:
272,144,98670,1,0,0:0:0:0:
272,144,98956,1,8,0:0:0:0:
272,144,99241,1,0,0:0:0:0:
272,144,99384,1,0,0:0:0:0:
272,144,99527,1,0,0:0:0:0:
272,144,99813,1,8,0:0:0:0:
272,144,100098,1,8,0:0:0:0:
272,144,100384,1,0,0:0:0:0:
272,144,100670,1,0,0:0:0:0:
272,144,100956,1,8,0:0:0:0:
272,144,101241,1,0,0:0:0:0:
272,144,101813,1,0,0:0:0:0:
272,144,102098,1,0,0:0:0:0:
272,144,102384,1,8,0:0:0:0:
272,144,102956,1,0,0:0:0:0:
272,144,103241,1,8,0:0:0:0:
272,144,103527,1,0,0:0:0:0:
272,144,103813,1,0,0:0:0:0:
272,144,103956,1,0,0:0:0:0:
272,144,104098,1,0,0:0:0:0:
272,144,104384,1,0,0:0:0:0:
272,144,104670,1,8,0:0:0:0:
272,144,105241,1,0,0:0:0:0:
272,144,105527,1,0,0:0:0:0:
272,144,105813,1,8,0:0:0:0:
272,144,106098,1,0,0:0:0:0:
272,144,106384,1,0,0:0:0:0:
272,144,106527,1,0,0:0:0:0:
272,144,106670,1,0,0:0:0:0:
272,144,106956,1,8,0:0:0:0:
272,144,107527,1,0,0:0:0:0:
272,144,107813,1,0,0:0:0:0:
272,144,108098,1,8,0:0:0:0:
272,144,108384,1,0,0:0:0:0:
272,144,108670,1,8,0:0:0:0:
272,144,108813,1,8,0:0:0:0:
272,144,108956,1,8,0:0:0:0:
272,144,109241,1,8,0:0:0:0:
272,144,109527,1,0,0:0:0:0:
272,144,110098,1,0,0:0:0:0:
272,144,110384,1,8,0:0:0:0:
272,144,110670,1,0,0:0:0:0:
272,144,110956,1,0,0:0:0:0:
272,144,111098,1,0,0:0:0:0:
272,144,111241,1,0,0:0:0:0:
272,144,111527,1,8,0:0:0:0:
272,144,111813,1,0,0:0:0:0:
272,144,112098,1,0,0:0:0:0:
272,144,112384,1,8,0:0:0:0:
272,144,112527,1,0,0:0:0:0:
272,144,112670,1,0,0:0:0:0:
272,144,112956,1,0,0:0:0:0:
272,144,113241,1,8,0:0:0:0:
272,144,113384,1,8,0:0:0:0:
272,144,113527,1,8,0:0:0:0:
272,144,113813,1,8,0:0:0:0:
272,144,114098,1,0,0:0:0:0:
272,144,114670,1,0,0:0:0:0:
272,144,114956,1,8,0:0:0:0:
272,144,115241,1,0,0:0:0:0:
272,144,115527,1,0,0:0:0:0:
272,144,115670,1,0,0:0:0:0:
272,144,115813,1,0,0:0:0:0:
272,144,116098,1,8,0:0:0:0:
272,144,116384,1,0,0:0:0:0:
272,144,116527,1,0,0:0:0:0:
272,144,116670,1,0,0:0:0:0:
272,144,117241,1,8,0:0:0:0:
272,144,117527,1,0,0:0:0:0:
272,144,117813,1,0,0:0:0:0:
272,144,118098,1,8,0:0:0:0:
272,144,118241,1,8,0:0:0:0:
272,144,118384,1,8,0:0:0:0:
272,144,118670,1,8,0:0:0:0:
272,144,118956,1,0,0:0:0:0:
272,144,119527,1,8,0:0:0:0:
272,144,120384,1,0,0:0:0:0:
272,144,120670,1,8,0:0:0:0:
272,144,120956,1,0,0:0:0:0:
272,144,121241,1,0,0:0:0:0:
272,144,121384,1,0,0:0:0:0:
272,144,121527,1,0,0:0:0:0:
272,144,121813,1,8,0:0:0:0:
272,144,122098,1,0,0:0:0:0:
272,144,122384,1,8,0:0:0:0:
272,144,122527,1,0,0:0:0:0:
272,144,122670,1,8,0:0:0:0:
272,144,122956,1,8,0:0:0:0:
272,144,123241,1,0,0:0:0:0:
272,144,123527,1,8,0:0:0:0:
272,144,124098,1,0,0:0:0:0:
272,144,124670,1,8,0:0:0:0:
272,144,124956,1,0,0:0:0:0:
272,144,125241,1,0,0:0:0:0:
272,144,125527,1,8,0:0:0:0:
272,144,125670,1,0,0:0:0:0:
272,144,125813,1,8,0:0:0:0:
272,144,126098,1,0,0:0:0:0:
272,144,126384,1,0,0:0:0:0:
272,144,126956,1,8,0:0:0:0:
272,144,127241,1,0,0:0:0:0:
272,144,127527,1,0,0:0:0:0:
272,144,127813,1,8,0:0:0:0:
272,144,127956,1,0,0:0:0:0:
272,144,128098,1,8,0:0:0:0:
272,144,128384,1,0,0:0:0:0:
272,144,128670,1,0,0:0:0:0:
272,144,129241,1,8,0:0:0:0:
272,144,129384,1,0,0:0:0:0:
272,144,129670,1,0,0:0:0:0:
272,144,129813,1,8,0:0:0:0:
272,144,130098,1,8,0:0:0:0:
272,144,130384,1,0,0:0:0:0:
272,144,130670,1,0,0:0:0:0:
272,144,130956,1,8,0:0:0:0:
272,144,131241,1,0,0:0:0:0:
272,144,131527,1,8,0:0:0:0:
272,144,131670,1,0,0:0:0:0:
272,144,131956,1,0,0:0:0:0:
272,144,132098,1,0,0:0:0:0:
272,144,132384,1,0,0:0:0:0:
272,144,132670,1,8,0:0:0:0:
272,144,132956,1,8,0:0:0:0:
272,144,133241,1,0,0:0:0:0:
272,144,133813,1,8,0:0:0:0:
272,144,134098,1,0,0:0:0:0:
272,144,134384,1,0,0:0:0:0:
272,144,134670,1,8,0:0:0:0:
272,144,134956,1,8,0:0:0:0:
272,144,135098,1,0,0:0:0:0:
272,144,135241,1,0,0:0:0:0:
272,144,135527,1,8,0:0:0:0:
272,144,135813,1,0,0:0:0:0:
272,144,136098,1,0,0:0:0:0:
272,144,136241,1,0,0:0:0:0:
272,144,136384,1,8,0:0:0:0:
272,144,136670,1,8,0:0:0:0:
272,144,136956,1,0,0:0:0:0:
272,144,137241,1,0,0:0:0:0:
272,144,137384,1,0,0:0:0:0:
272,144,137527,1,8,0:0:0:0:
272,144,137813,1,8,0:0:0:0:
272,144,138098,1,0,0:0:0:0:
272,144,138670,1,0,0:0:0:0:
272,144,138956,1,8,0:0:0:0:
272,144,139241,1,0,0:0:0:0:
272,144,139813,1,0,0:0:0:0:
272,144,140098,1,8,0:0:0:0:
272,144,140384,1,0,0:0:0:0:
272,144,140956,1,0,0:0:0:0:
272,144,141241,1,8,0:0:0:0:
272,144,141527,1,0,0:0:0:0:
272,144,141670,1,0,0:0:0:0:
272,144,141813,1,0,0:0:0:0:
272,144,142384,1,8,0:0:0:0:
272,144,142956,1,0,0:0:0:0:
272,144,143241,1,0,0:0:0:0:
272,144,143527,1,8,0:0:0:0:
272,144,144098,1,0,0:0:0:0:
272,144,144384,1,0,0:0:0:0:
272,144,144527,1,0,0:0:0:0:
272,144,144670,1,8,0:0:0:0:
272,144,144956,1,0,0:0:0:0:
272,144,145527,1,0,0:0:0:0:
272,144,145670,1,0,0:0:0:0:
272,144,145813,1,8,0:0:0:0:
272,144,146098,1,8,0:0:0:0:
272,144,146384,1,0,0:0:0:0:
272,144,146670,1,0,0:0:0:0:
272,144,146956,1,8,0:0:0:0:
272,144,147241,1,0,0:0:0:0:
272,144,147527,1,0,0:0:0:0:
272,144,147670,1,0,0:0:0:0:
272,144,147813,1,0,0:0:0:0:
272,144,148098,1,8,0:0:0:0:
272,144,148670,1,0,0:0:0:0:
272,144,148813,1,0,0:0:0:0:
272,144,148956,1,0,0:0:0:0:
272,144,149241,1,8,0:0:0:0:
272,144,149527,1,0,0:0:0:0:
272,144,149813,1,8,0:0:0:0:
272,144,149956,1,8,0:0:0:0:
272,144,150098,1,8,0:0:0:0:
272,144,150384,1,0,0:0:0:0:
272,144,150527,1,0,0:0:0:0:
272,144,150670,1,8,0:0:0:0:
272,144,150956,1,8,0:0:0:0:
272,144,151241,1,0,0:0:0:0:
272,144,151527,1,0,0:0:0:0:
272,144,151813,1,8,0:0:0:0:
272,144,151956,1,0,0:0:0:0:
272,144,152098,1,0,0:0:0:0:
272,144,152241,1,8,0:0:0:0:
272,144,152384,1,0,0:0:0:0:
272,144,152670,1,8,0:0:0:0:
272,144,152956,1,0,0:0:0:0:
272,144,153241,1,0,0:0:0:0:
272,144,153527,1,8,0:0:0:0:
272,144,153813,1,0,0:0:0:0:
272,144,154098,1,8,0:0:0:0:
272,144,154241,1,0,0:0:0:0:
272,144,154384,1,0,0:0:0:0:
272,144,154527,1,8,0:0:0:0:
272,144,154670,1,0,0:0:0:0:
272,144,154956,1,8,0:0:0:0:
272,144,155241,1,8,0:0:0:0:
272,144,155527,1,0,0:0:0:0:
272,144,155813,1,0,0:0:0:0:
272,144,156098,1,8,0:0:0:0:
272,144,156384,1,0,0:0:0:0:
272,144,156527,1,8,0:0:0:0:
272,144,156670,1,0,0:0:0:0:
272,144,156813,1,0,0:0:0:0:
272,144,156956,1,8,0:0:0:0:
272,144,157241,1,8,0:0:0:0:
272,144,157527,1,0,0:0:0:0:
272,144,157813,1,8,0:0:0:0:
272,144,157956,1,0,0:0:0:0:
272,144,158098,1,0,0:0:0:0:
272,144,158241,1,8,0:0:0:0:
272,144,158384,1,8,0:0:0:0:
272,144,158670,1,0,0:0:0:0:
272,144,158956,1,8,0:0:0:0:
272,144,159098,1,0,0:0:0:0:
272,144,159241,1,0,0:0:0:0:
272,144,159384,1,8,0:0:0:0:
272,144,159527,1,0,0:0:0:0:
272,144,159813,1,8,0:0:0:0:
272,144,160098,1,0,0:0:0:0:
272,144,160241,1,0,0:0:0:0:
272,144,160384,1,8,0:0:0:0:
272,144,160670,1,0,0:0:0:0:
272,144,160956,1,8,0:0:0:0:
272,144,161241,1,0,0:0:0:0:
272,144,161384,1,8,0:0:0:0:
272,144,161527,1,0,0:0:0:0:
272,144,161670,1,0,0:0:0:0:
272,144,161813,1,8,0:0:0:0:
272,144,162098,1,8,0:0:0:0:
272,144,162384,1,0,0:0:0:0:
272,144,162527,1,8,0:0:0:0:
272,144,162670,1,0,0:0:0:0:
272,144,162813,1,0,0:0:0:0:
272,144,162956,1,8,0:0:0:0:
272,144,163241,1,0,0:0:0:0:
272,144,163527,1,8,0:0:0:0:
272,144,163813,1,0,0:0:0:0:
272,144,163956,1,0,0:0:0:0:
272,144,164098,1,8,0:0:0:0:
272,144,164241,1,8,0:0:0:0:
272,144,164527,1,0,0:0:0:0:
272,144,164670,1,8,0:0:0:0:
272,144,164956,1,0,0:0:0:0:
272,144,165241,1,8,0:0:0:0:
272,144,165527,1,0,0:0:0:0:
272,144,165813,1,8,0:0:0:0:
272,144,165956,1,0,0:0:0:0:
272,144,166098,1,8,0:0:0:0:
272,144,166241,1,0,0:0:0:0:
272,144,166384,1,8,0:0:0:0:
272,144,166670,1,0,0:0:0:0:
272,144,166956,1,8,0:0:0:0:
272,144,167241,1,0,0:0:0:0:
272,144,167527,1,8,0:0:0:0:
272,144,167670,1,0,0:0:0:0:
272,144,167813,1,8,0:0:0:0:
272,144,167956,1,0,0:0:0:0:
272,144,168098,1,8,0:0:0:0:
272,144,168384,1,0,0:0:0:0:
272,144,168527,1,0,0:0:0:0:
272,144,168670,1,8,0:0:0:0:
272,144,168956,1,8,0:0:0:0:
272,144,169241,1,8,0:0:0:0:
272,144,169527,1,0,0:0:0:0:
272,144,169813,1,8,0:0:0:0:
272,144,170098,1,0,0:0:0:0:
272,144,170384,1,0,0:0:0:0:
272,144,170527,1,8,0:0:0:0:
272,144,170670,1,0,0:0:0:0:
272,144,170956,1,8,0:0:0:0:
272,144,171241,1,0,0:0:0:0:
272,144,171527,1,0,0:0:0:0:
272,144,171670,1,0,0:0:0:0:
272,144,171813,1,0,0:0:0:0:
272,144,172098,1,8,0:0:0:0:
272,144,172384,1,0,0:0:0:0:
272,144,172670,1,0,0:0:0:0:
272,144,172813,1,0,0:0:0:0:
272,144,172956,1,8,0:0:0:0:
272,144,173241,1,8,0:0:0:0:
272,144,173527,1,0,0:0:0:0:
272,144,173813,1,0,0:0:0:0:
272,144,174098,1,8,0:0:0:0:
272,144,174384,1,0,0:0:0:0:
272,144,174670,1,8,0:0:0:0:
272,144,174956,1,0,0:0:0:0:
272,144,175098,1,0,0:0:0:0:
272,144,175241,1,8,0:0:0:0:
272,144,175527,1,8,0:0:0:0:
272,144,176098,1,0,0:0:0:0:
272,144,176384,1,0,0:0:0:0:
272,144,176670,1,8,0:0:0:0:
272,144,176956,1,0,0:0:0:0:
272,144,177241,1,0,0:0:0:0:
272,144,177384,1,0,0:0:0:0:
272,144,177527,1,0,0:0:0:0:
272,144,177813,1,8,0:0:0:0:
272,144,177956,1,8,0:0:0:0:
272,144,178098,1,0,0:0:0:0:
272,144,178384,1,0,0:0:0:0:
272,144,178956,1,8,0:0:0:0:
272,144,179527,1,0,0:0:0:0:
272,144,179813,1,0,0:0:0:0:
96,160,180098,1,8,0:0:0:0:
272,144,180670,1,0,0:0:0:0:
272,144,181241,1,8,0:0:0:0:
272,144,181527,1,0,0:0:0:0:
272,144,181813,1,0,0:0:0:0:
272,144,181956,1,0,0:0:0:0:
272,144,182098,1,0,0:0:0:0:
272,144,182384,1,8,0:0:0:0:
272,144,182527,1,0,0:0:0:0:
272,144,182670,1,0,0:0:0:0:
272,144,182956,1,0,0:0:0:0:
272,144,183527,1,8,0:0:0:0:
272,144,183813,1,0,0:0:0:0:
272,144,184098,1,0,0:0:0:0:
272,144,184241,1,8,0:0:0:0:
272,144,184384,1,8,0:0:0:0:
272,144,184670,1,8,0:0:0:0:
272,144,184956,1,0,0:0:0:0:
272,144,185241,1,0,0:0:0:0:
272,144,185813,1,8,0:0:0:0:
272,144,186098,1,0,0:0:0:0:
272,144,186384,1,0,0:0:0:0:
272,144,186527,1,8,0:0:0:0:
272,144,186670,1,8,0:0:0:0:
272,144,186956,1,8,0:0:0:0:
272,144,187098,1,8,0:0:0:0:
272,144,187241,1,0,0:0:0:0:
272,144,187527,1,0,0:0:0:0:
272,144,187813,1,0,0:0:0:0:
272,144,188098,1,8,0:0:0:0:
272,144,188384,1,0,0:0:0:0:
272,144,188670,1,0,0:0:0:0:
272,144,188956,1,0,0:0:0:0:
272,144,189241,1,8,0:0:0:0:
272,144,189527,1,0,0:0:0:0:
272,144,189813,1,0,0:0:0:0:
272,144,190384,1,8,0:0:0:0:
272,144,190670,1,0,0:0:0:0:
272,144,190956,1,0,0:0:0:0:
272,144,191098,1,0,0:0:0:0:
272,144,191241,1,8,0:0:0:0:
272,144,191527,1,8,0:0:0:0:
272,144,191670,1,8,0:0:0:0:
272,144,191813,1,0,0:0:0:0:
272,144,191956,1,0,0:0:0:0:
272,144,192098,1,8,0:0:0:0:
272,144,192527,1,0,0:0:0:0:
272,144,192956,1,0,0:0:0:0:
272,144,193241,1,8,0:0:0:0:
272,144,193527,1,0,0:0:0:0:
272,144,193813,1,0,0:0:0:0:
272,144,193956,1,8,0:0:0:0:
272,144,194098,1,0,0:0:0:0:
272,144,194384,1,8,0:0:0:0:
272,144,194670,1,0,0:0:0:0:
272,144,194956,1,0,0:0:0:0:
272,144,195527,1,8,0:0:0:0:
272,144,195813,1,0,0:0:0:0:
272,144,196098,1,8,0:0:0:0:
272,144,196241,1,0,0:0:0:0:
272,144,196384,1,8,0:0:0:0:
272,144,196670,1,0,0:0:0:0:
272,144,196813,1,0,0:0:0:0:
272,144,196956,1,8,0:0:0:0:
272,144,197241,1,8,0:0:0:0:
272,144,197527,1,0,0:0:0:0:
272,144,197813,1,8,0:0:0:0:
272,144,198098,1,0,0:0:0:0:
272,144,198384,1,0,0:0:0:0:
272,144,198527,1,0,0:0:0:0:
272,144,198670,1,8,0:0:0:0:
272,144,198956,1,0,0:0:0:0:
272,144,199098,1,0,0:0:0:0:
272,144,199241,1,8,0:0:0:0:
272,144,199527,1,0,0:0:0:0:
272,144,199670,1,0,0:0:0:0:
272,144,199813,1,8,0:0:0:0:
272,144,200098,1,0,0:0:0:0:
272,144,200384,1,8,0:0:0:0:
272,144,200670,1,0,0:0:0:0:
272,144,200813,1,0,0:0:0:0:
272,144,200956,1,8,0:0:0:0:
272,144,201241,1,0,0:0:0:0:
272,144,201384,1,0,0:0:0:0:
272,144,201527,1,8,0:0:0:0:
272,144,201813,1,0,0:0:0:0:
272,144,201956,1,0,0:0:0:0:
272,144,202098,1,8,0:0:0:0:
272,144,202384,1,0,0:0:0:0:
272,144,202670,1,8,0:0:0:0:
272,144,202956,1,8,0:0:0:0:
272,144,203098,1,8,0:0:0:0:
272,144,203241,1,0,0:0:0:0:
272,144,203527,1,8,0:0:0:0:
272,144,203813,1,0,0:0:0:0:
272,144,204098,1,0,0:0:0:0:
272,144,204384,1,0,0:0:0:0:
272,144,204670,1,8,0:0:0:0:
272,144,205241,1,0,0:0:0:0:
272,144,205527,1,0,0:0:0:0:
272,144,205813,1,8,0:0:0:0:
272,144,206098,1,0,0:0:0:0:
272,144,206384,1,0,0:0:0:0:
272,144,206670,1,8,0:0:0:0:
272,144,206956,1,0,0:0:0:0:
272,144,207241,1,0,0:0:0:0:
272,144,207527,1,8,0:0:0:0:
272,144,208098,1,0,0:0:0:0:
272,144,208384,1,0,0:0:0:0:
272,144,208670,1,8,0:0:0:0:
272,144,208956,1,0,0:0:0:0:
272,144,209098,1,0,0:0:0:0:
272,144,209241,1,8,0:0:0:0:
272,144,209384,1,0,0:0:0:0:
272,144,209527,1,8,0:0:0:0:
272,144,209670,1,0,0:0:0:0:
272,144,209813,1,8,0:0:0:0:
272,144,210384,1,0,0:0:0:0:
272,144,210670,1,0,0:0:0:0:
272,144,210956,1,8,0:0:0:0:
272,144,211241,1,0,0:0:0:0:
272,144,211527,1,0,0:0:0:0:
272,144,211813,1,0,0:0:0:0:
272,144,212098,1,8,0:0:0:0:
272,144,212670,1,0,0:0:0:0:
272,144,213098,1,0,0:0:0:0:
272,144,213241,1,8,0:0:0:0:
272,144,213527,1,0,0:0:0:0:
272,144,213813,1,0,0:0:0:0:
272,144,214098,1,0,0:0:0:0:
272,144,214241,1,0,0:0:0:0:
272,144,214384,1,8,0:0:0:0:
272,144,214670,1,8,0:0:0:0:
272,144,214956,1,0,0:0:0:0:
272,144,215384,1,0,0:0:0:0:
272,144,215527,1,8,0:0:0:0:
272,144,215813,1,0,0:0:0:0:
272,144,216098,1,0,0:0:0:0:
272,144,216384,1,0,0:0:0:0:
272,144,216670,1,8,0:0:0:0:
272,144,217241,1,0,0:0:0:0:
272,144,217670,1,0,0:0:0:0:
272,144,217813,1,8,0:0:0:0:
272,144,218098,1,0,0:0:0:0:
272,144,218241,1,0,0:0:0:0:
272,144,218384,1,8,0:0:0:0:
272,144,218670,1,8,0:0:0:0:
272,144,218956,1,0,0:0:0:0:
272,144,219241,1,8,0:0:0:0:
272,144,219527,1,0,0:0:0:0:
272,144,220098,1,8,0:0:0:0:
272,144,220670,1,0,0:0:0:0:
272,144,220813,1,0,0:0:0:0:
272,144,220956,1,0,0:0:0:0:
272,144,221241,1,8,0:0:0:0:
272,144,221813,1,0,0:0:0:0:
272,144,222098,1,0,0:0:0:0:
272,144,222384,1,8,0:0:0:0:
272,144,222670,1,0,0:0:0:0:
272,144,222956,1,8,0:0:0:0:
272,144,223098,1,0,0:0:0:0:
272,144,223241,1,8,0:0:0:0:
272,144,223527,1,8,0:0:0:0:
272,144,223813,1,0,0:0:0:0:
272,144,224098,1,0,0:0:0:0:
272,144,224670,1,8,0:0:0:0:
272,144,224956,1,0,0:0:0:0:
272,144,225241,1,0,0:0:0:0:
272,144,225527,1,8,0:0:0:0:
272,144,225813,1,8,0:0:0:0:
272,144,226098,1,8,0:0:0:0:
272,144,226384,1,0,0:0:0:0:
272,144,226956,1,8,0:0:0:0:
272,144,227241,1,0,0:0:0:0:
272,144,227527,1,8,0:0:0:0:
272,144,227670,1,8,0:0:0:0:
272,144,227813,1,8,0:0:0:0:
272,144,228098,1,8,0:0:0:0:
272,144,228384,1,0,0:0:0:0:
272,144,228670,1,0,0:0:0:0:
272,144,228956,1,0,0:0:0:0:
272,144,229241,1,8,0:0:0:0:
272,144,229813,1,0,0:0:0:0:
272,144,230384,1,8,0:0:0:0:
272,144,230956,1,0,0:0:0:0:
272,144,231241,1,0,0:0:0:0:
272,144,231527,1,8,0:0:0:0:
272,144,232098,1,0,0:0:0:0:
272,144,232384,1,8,0:0:0:0:
272,144,232670,1,8,0:0:0:0:
272,144,232956,1,0,0:0:0:0:
256,192,233241,12,0,235527,0:0:0:0:
