osu file format v12

[General]
AudioFilename: baka.mp3
AudioLeadIn: 1015
PreviewTime: 50302
Countdown: 0
SampleSet: Normal
StackLeniency: 0.7
Mode: 0
LetterboxInBreaks: 0
WidescreenStoryboard: 0

[Editor]
DistanceSpacing: 1
BeatDivisor: 4
GridSize: 4

[Metadata]
Title:Jinkela is always with you
TitleUnicode:金坷垃与你同在
Artist:DepXe
ArtistUnicode:DepXe
Creator:lkx_Shore
Version:Normal
Source:Bilibili Douga
Tags:LiangFeiFan Angry German Kid KBC Sky City Gangnam Style Aniki Youyongjiaolian Swimming Coach PSY tenkuu no shiro rapyuta carrying you ending studio ghibli laputa abuduola moebg
BeatmapID:275567
BeatmapSetID:74110

[Difficulty]
HPDrainRate:4
CircleSize:3
OverallDifficulty:4
ApproachRate:5
SliderMultiplier:1.2
SliderTickRate:1

[Events]
//Background and Video events
0,0,"bg.jpg",0,0
Video,0,"1.avi"
//Break Periods
//Storyboard Layer 0 (Background)
//Storyboard Layer 1 (Fail)
//Storyboard Layer 2 (Pass)
//Storyboard Layer 3 (Foreground)
//Storyboard Sound Samples
//Background Colour Transformations
3,100,163,162,255

[TimingPoints]
962,428.571428571429,4,1,0,70,1,0
49390,-100,4,1,0,50,0,0
50676,-100,4,1,0,70,0,1
64283,-100,4,1,0,70,0,0
64390,-100,4,1,0,70,0,1
78104,-100,4,1,0,70,0,0
81533,-100,4,1,0,70,0,0
84104,-100,4,1,0,70,0,0

[Colours]
Combo1 : 255,0,0
Combo2 : 0,255,0
Combo3 : 255,255,0
Combo4 : 0,128,255

[HitObjects]
64,256,962,2,0,P|116:280|172:260,1,120,4|8,0:0|0:0,0:0:0:0:
200,144,1819,2,0,P|256:124|312:144,1,120,0|8,0:0|0:0,0:0:0:0:
340,260,2676,2,0,P|396:280|448:256,1,120,0|8,0:0|0:0,0:0:0:0:
448,136,3533,1,0,0:0:0:0:
348,72,3962,1,8,0:0:0:0:
348,72,4390,6,0,L|256:72,2,90,2|2|2,0:0|0:0|0:0,0:0:0:0:
376,128,5247,2,0,L|472:128,2,90,2|2|2,0:0|0:0|0:0,0:0:0:0:
348,180,6104,2,0,P|304:188|276:228,2,90,2|2|2,0:0|0:0|0:0,0:0:0:0:
400,212,6962,6,0,P|424:268|476:296,1,120
356,316,7819,6,0,L|232:316,1,120,4|8,0:0|0:0,0:0:0:0:
180,300,8462,1,0,0:0:0:0:
136,260,8676,2,0,P|108:202|133:152,2,120,0|8|0,0:0|0:0|0:0,0:0:0:0:
232,332,9962,5,8,0:0:0:0:
308,240,10390,2,0,L|436:240,1,120,0|8,0:0|0:0,0:0:0:0:
448,124,11247,2,0,B|380:104|332:136|332:136|256:136,1,180
212,136,12104,1,0,0:0:0:0:
120,60,12533,1,8,0:0:0:0:
48,156,12962,6,0,B|48:248|48:248|132:256|144:344,1,240,4|8,0:0|0:0,0:0:0:0:
256,304,14247,1,8,0:0:0:0:
256,304,14676,2,0,B|288:268|332:276|332:276|368:256,1,120,0|8,0:0|0:0,0:0:0:0:
348,144,15533,1,0,0:0:0:0:
252,72,15962,1,8,0:0:0:0:
132,60,16390,6,0,P|64:92|60:188,1,180
160,252,17462,1,0,0:0:0:0:
208,284,17676,2,0,L|268:284,1,60,8|0,0:0|0:0,0:0:0:0:
324,308,18104,6,0,P|382:303|427:265,1,120,4|8,0:0|0:0,0:0:0:0:
432,204,18747,1,0,0:0:0:0:
384,164,18962,2,0,P|325:168|280:206,1,120,0|8,0:0|0:0,0:0:0:0:
256,192,19819,12,4,21533,0:0:0:0:
108,296,21962,5,8,0:0:0:0:
48,192,22390,2,0,P|88:136|140:128,1,120,0|8,0:0|0:0,0:0:0:0:
204,228,23247,2,0,P|256:328|372:328,1,240,0|0,0:0|0:0,0:0:0:0:
460,244,24533,1,8,0:0:0:0:
436,128,24962,6,0,P|388:76|284:80,1,180
248,124,25819,2,0,L|120:124,2,120,0|8|0,0:0|0:0|0:0,0:0:0:0:
316,220,27104,2,0,P|368:248|376:304,2,120,8|0|8,0:0|0:0|0:0,0:0:0:0:
224,296,28390,6,0,P|164:268|144:164,1,180,4|0,0:0|0:0,0:0:0:0:
232,80,29462,1,8,0:0:0:0:
320,160,29890,1,0,0:0:0:0:
320,160,30104,6,0,P|368:172|408:160,2,90,2|2|2,0:0|0:0|0:0,0:0:0:0:
268,128,30962,2,0,B|212:156|212:116|152:132,1,120,0|8,0:0|0:0,0:0:0:0:
72,232,31819,2,0,P|100:256|108:296,1,60
140,328,32247,2,0,L|200:332,1,60,8|0,0:0|0:0,0:0:0:0:
260,336,32676,1,0,0:0:0:0:
372,292,33104,1,8,0:0:0:0:
276,220,33533,1,4,0:0:0:0:
256,192,33747,12,4,35247,0:0:0:0:
92,192,35890,5,0,0:0:0:0:
144,160,36104,2,8,B|184:156|212:184|212:184|220:232,1,120
240,348,36962,2,0,L|296:328,1,60,0|8,0:0|0:0,0:0:0:0:
408,288,37604,1,8,0:0:0:0:
296,240,38033,1,8,0:0:0:0:
176,260,38462,1,0,0:0:0:0:
176,260,38676,6,0,P|172:176|236:104,2,180,0|0|8,0:0|0:0|0:0,0:0:0:0:
52,316,40390,2,0,L|52:252,1,60,0|8,0:0|0:0,0:0:0:0:
52,136,41033,1,8,0:0:0:0:
148,64,41462,1,8,0:0:0:0:
148,64,41676,2,0,P|192:88|224:88,1,60,8|8,0:0|0:0,0:0:0:0:
260,92,42104,6,0,P|312:64|372:72,1,120,4|8,0:0|0:0,0:0:0:0:
396,188,42962,2,0,P|344:216|284:208,1,120,0|8,0:0|0:0,0:0:0:0:
176,160,43819,2,0,B|144:144|132:112|132:112|88:164|112:224,1,180,0|0,0:0|0:0,0:0:0:0:
116,276,44676,2,0,L|244:276,1,120,8|0,0:0|0:0,0:0:0:0:
356,280,45533,6,0,P|420:256|440:208,1,120,0|8,0:0|0:0,0:0:0:0:
412,96,46390,2,0,P|349:67|301:87,1,120,0|8,0:0|0:0,0:0:0:0:
260,196,47247,1,4,0:0:0:0:
256,192,47462,12,0,48962,0:0:0:0:
148,136,49390,6,0,L|148:220,1,60,2|2,0:0|0:0,0:0:0:0:
148,256,49819,2,0,P|120:264|88:256,2,60,2|2|2,0:0|0:0|0:0,0:0:0:0:
260,216,50676,6,0,P|328:204|384:288,1,180,4|0,0:0|0:0,0:0:0:0:
392,348,51533,2,0,L|488:292,2,90,2|2|2,0:0|0:0|0:0,0:0:0:0:
340,320,52390,2,0,L|212:320,1,120,4|0,0:0|0:0,0:0:0:0:
100,328,53247,1,0,0:0:0:0:
36,224,53676,1,8,0:0:0:0:
116,132,54104,6,0,P|184:108|228:124,1,120,0|8,0:0|0:0,0:0:0:0:
340,80,54962,2,0,P|416:72|448:96,1,120,0|8,0:0|0:0,0:0:0:0:
388,200,55819,6,0,L|388:308,2,90,2|2|2,0:0|0:0|0:0,0:0:0:0:
340,164,56676,2,0,L|263:240,2,90,2|2|2,0:0|0:0|0:0,0:0:0:0:
316,108,57533,6,0,B|268:88|228:108|228:108|188:128|140:112,1,180,4|0,0:0|0:0,0:0:0:0:
100,68,58390,2,0,L|100:200,1,120,0|8,0:0|0:0,0:0:0:0:
104,308,59247,2,0,P|152:276|212:288,1,120,0|8,0:0|0:0,0:0:0:0:
308,356,60104,2,0,L|440:324,1,120,0|8,0:0|0:0,0:0:0:0:
424,208,60962,6,0,P|448:144|384:64,2,180,2|2|2,0:0|0:0|0:0,0:0:0:0:
304,216,62676,1,4,0:0:0:0:
256,192,62890,12,4,64390,0:0:0:0:
56,184,64819,1,0,0:0:0:0:
96,296,65247,2,0,P|164:280|204:308,1,120,0|8,0:0|0:0,0:0:0:0:
316,344,66104,2,0,L|420:308,2,90,2|2|2,0:0|0:0|0:0,0:0:0:0:
256,360,66962,1,0,0:0:0:0:
256,240,67390,1,8,0:0:0:0:
364,184,67819,6,0,P|404:148|360:48,1,180
300,48,68676,1,0,0:0:0:0:
216,132,69104,1,8,0:0:0:0:
96,140,69533,6,0,L|116:48,2,90,2|2|2,0:0|0:0|0:0,0:0:0:0:
84,200,70390,2,0,B|140:240|120:304|120:304|196:296,1,180
236,288,71247,6,0,L|328:276,2,90,2|2|2,0:0|0:0|0:0,0:0:0:0:
168,188,72319,1,0,0:0:0:0:
252,104,72747,1,0,0:0:0:0:
288,152,72962,6,0,P|324:176|372:176,2,90,2|2|2,0:0|0:0|0:0,0:0:0:0:
252,104,73819,2,0,L|124:104,1,120,0|8,0:0|0:0,0:0:0:0:
84,216,74676,6,0,P|112:228|144:224,1,60
196,204,75104,2,0,L|272:216,1,60,8|0,0:0|0:0,0:0:0:0:
312,196,75533,2,0,P|340:244|320:304,2,120,0|8|4,0:0|0:0|0:1,0:0:0:0:
256,192,76604,12,4,78104,0:0:0:0:
472,184,78533,5,0,0:0:0:0:
404,284,78962,2,0,P|344:268|308:220,1,120
372,120,79819,1,0,0:0:0:0:
472,184,80247,1,8,0:0:0:0:
404,284,80676,1,0,0:0:0:0:
308,216,81104,1,8,0:0:0:0:
196,260,81533,6,0,L|96:260,2,90,2|2|2,0:0|0:0|0:0,0:0:0:0:
236,216,82390,2,0,L|336:216,2,90,2|2|2,0:0|0:0|0:0,0:0:0:0:
192,172,83247,2,0,L|92:172,2,90,2|2|2,0:0|0:0|0:0,0:0:0:0:
236,132,84104,6,0,P|288:108|344:132,1,120,2|4,0:0|0:0,0:0:0:0:
