osu file format v14

[General]
AudioFilename: db240878ca17e44ef002d6546e9b038e.mp3
AudioLeadIn: 0
PreviewTime: -1
Countdown: 1
SampleSet: Normal
StackLeniency: 0.7
Mode: 2
LetterboxInBreaks: 1
WidescreenStoryboard: 0

[Editor]
Bookmarks: 40495,68720,131714
DistanceSpacing: 0.8
BeatDivisor: 12
GridSize: 16
TimelineZoom: 5.499997

[Metadata]
Title:Red Lips
TitleUnicode:Red Lips
Artist:Deorro
ArtistUnicode:Deorro
Creator:224
Version:224STEP
Source:
Tags:
BeatmapID:676807
BeatmapSetID:301884

[Difficulty]
HPDrainRate:6.9
CircleSize:4
OverallDifficulty:9.4
ApproachRate:9.3
SliderMultiplier:2.5
SliderTickRate:1

[Events]
//Background and Video events
0,0,"aha.....SEX.......jpg",0,0
//Break Periods
2,32787,33806
2,69738,77438
2,102599,103617
//Storyboard Layer 0 (Background)
//Storyboard Layer 1 (Fail)
//Storyboard Layer 2 (Pass)
//Storyboard Layer 3 (Foreground)
//Storyboard Sound Samples

[TimingPoints]
8726,545.404963185165,4,1,0,100,1,0
8726,-100,4,1,0,40,0,0
17452,-100,4,1,0,90,0,0
17997,-66.6666666666667,4,1,0,60,0,0
19634,-66.6666666666667,4,1,0,90,0,0
20179,-66.6666666666667,4,1,0,60,0,0
21815,-66.6666666666667,4,1,0,90,0,0
22361,-66.6666666666667,4,1,0,60,0,0
23997,-66.6666666666667,4,1,0,90,0,0
24542,-66.6666666666667,4,1,0,60,0,0
26178,-66.6666666666667,4,1,0,50,0,0
30542,-66.6666666666667,4,1,0,70,0,0
34360,-66.6666666666667,4,1,0,100,0,0
34905,-66.6666666666667,4,1,0,30,0,0
35178,-66.6666666666667,4,1,0,50,0,0
35223,-66.6666666666667,4,1,0,5,0,0
35314,-66.6666666666667,4,1,0,50,0,0
35359,-66.6666666666667,4,1,0,5,0,0
35450,-66.6666666666667,4,1,0,50,0,0
35496,-66.6666666666667,4,1,0,5,0,0
35587,-66.6666666666667,4,1,0,50,0,0
35632,-66.6666666666667,4,1,0,5,0,0
35723,-66.6666666666667,4,1,0,50,0,0
35768,-66.6666666666667,4,1,0,5,0,0
35859,-66.6666666666667,4,1,0,50,0,0
35905,-66.6666666666667,4,1,0,5,0,0
35996,-66.6666666666667,4,1,0,50,0,0
36041,-66.6666666666667,4,1,0,5,0,0
36132,-66.6666666666667,4,1,0,50,0,0
36178,-66.6666666666667,4,1,0,5,0,0
36541,-66.6666666666667,4,1,0,70,0,0
36814,-66.6666666666667,4,1,0,20,0,0
37087,-66.6666666666667,4,1,0,40,0,0
37359,-66.6666666666667,4,1,0,50,0,0
37405,-66.6666666666667,4,1,0,5,0,0
37496,-66.6666666666667,4,1,0,50,0,0
37541,-66.6666666666667,4,1,0,5,0,0
37632,-66.6666666666667,4,1,0,50,0,0
37677,-66.6666666666667,4,1,0,5,0,0
37768,-66.6666666666667,4,1,0,50,0,0
37814,-66.6666666666667,4,1,0,5,0,0
37905,-66.6666666666667,4,1,0,50,0,0
37950,-66.6666666666667,4,1,0,5,0,0
38041,-66.6666666666667,4,1,0,50,0,0
38086,-66.6666666666667,4,1,0,5,0,0
38177,-66.6666666666667,4,1,0,40,0,0
38723,-66.6666666666667,4,1,0,70,0,0
39268,-66.6666666666667,4,1,0,20,0,0
39541,-66.6666666666667,4,1,0,50,0,0
39586,-66.6666666666667,4,1,0,5,0,0
39677,-66.6666666666667,4,1,0,50,0,0
39723,-66.6666666666667,4,1,0,5,0,0
39814,-66.6666666666667,4,1,0,50,0,0
39859,-66.6666666666667,4,1,0,5,0,0
39950,-66.6666666666667,4,1,0,50,0,0
39995,-66.6666666666667,4,1,0,5,0,0
40086,-66.6666666666667,4,1,0,50,0,0
40132,-66.6666666666667,4,1,0,5,0,0
40223,-66.6666666666667,4,1,0,50,0,0
40268,-66.6666666666667,4,1,0,5,0,0
40359,-66.6666666666667,4,1,0,50,0,0
40404,-66.6666666666667,4,1,0,5,0,0
40495,-66.6666666666667,4,1,0,50,0,0
40541,-66.6666666666667,4,1,0,5,0,0
40904,-66.6666666666667,4,1,0,70,0,0
41177,-66.6666666666667,4,1,0,20,0,0
41450,-66.6666666666667,4,1,0,40,0,0
41723,-66.6666666666667,4,1,0,50,0,0
41768,-66.6666666666667,4,1,0,5,0,0
41859,-66.6666666666667,4,1,0,50,0,0
41904,-66.6666666666667,4,1,0,5,0,0
41995,-66.6666666666667,4,1,0,50,0,0
42041,-66.6666666666667,4,1,0,5,0,0
42132,-66.6666666666667,4,1,0,50,0,0
42177,-66.6666666666667,4,1,0,5,0,0
42268,-66.6666666666667,4,1,0,50,0,0
42313,-66.6666666666667,4,1,0,5,0,0
42404,-66.6666666666667,4,1,0,50,0,0
42450,-66.6666666666667,4,1,0,5,0,0
42541,-66.6666666666667,4,1,0,10,0,0
43086,-66.6666666666667,4,1,0,60,0,0
43222,-66.6666666666667,4,1,0,5,0,0
43313,-66.6666666666667,4,1,0,60,0,0
43631,-66.6666666666667,4,1,0,30,0,0
43904,-66.6666666666667,4,1,0,50,0,0
43950,-66.6666666666667,4,1,0,5,0,0
44040,-66.6666666666667,4,1,0,50,0,0
44086,-66.6666666666667,4,1,0,5,0,0
44177,-66.6666666666667,4,1,0,50,0,0
44222,-66.6666666666667,4,1,0,5,0,0
44313,-66.6666666666667,4,1,0,50,0,0
44359,-66.6666666666667,4,1,0,5,0,0
44450,-66.6666666666667,4,1,0,50,0,0
44495,-66.6666666666667,4,1,0,5,0,0
44586,-66.6666666666667,4,1,0,50,0,0
44631,-66.6666666666667,4,1,0,5,0,0
44722,-66.6666666666667,4,1,0,50,0,0
44768,-66.6666666666667,4,1,0,5,0,0
44859,-66.6666666666667,4,1,0,50,0,0
44904,-66.6666666666667,4,1,0,5,0,0
45268,-66.6666666666667,4,1,0,70,0,0
45540,-66.6666666666667,4,1,0,20,0,0
45813,-66.6666666666667,4,1,0,40,0,0
46040,-66.6666666666667,4,1,0,50,0,0
46086,-66.6666666666667,4,1,0,5,0,0
46177,-66.6666666666667,4,1,0,50,0,0
46222,-66.6666666666667,4,1,0,5,0,0
46313,-66.6666666666667,4,1,0,50,0,0
46358,-66.6666666666667,4,1,0,5,0,0
46449,-66.6666666666667,4,1,0,50,0,0
46495,-66.6666666666667,4,1,0,5,0,0
46586,-66.6666666666667,4,1,0,50,0,0
46631,-66.6666666666667,4,1,0,5,0,0
46722,-66.6666666666667,4,1,0,50,0,0
46767,-66.6666666666667,4,1,0,5,0,0
46858,-66.6666666666667,4,1,0,50,0,0
46904,-66.6666666666667,4,1,0,5,0,0
47449,-66.6666666666667,4,1,0,60,0,0
47949,-66.6666666666667,4,1,0,30,0,0
48267,-66.6666666666667,4,1,0,50,0,0
48313,-66.6666666666667,4,1,0,5,0,0
48404,-66.6666666666667,4,1,0,50,0,0
48449,-66.6666666666667,4,1,0,5,0,0
48540,-66.6666666666667,4,1,0,50,0,0
48586,-66.6666666666667,4,1,0,5,0,0
48676,-66.6666666666667,4,1,0,50,0,0
48722,-66.6666666666667,4,1,0,5,0,0
48813,-66.6666666666667,4,1,0,50,0,0
48858,-66.6666666666667,4,1,0,5,0,0
48949,-66.6666666666667,4,1,0,50,0,0
48995,-66.6666666666667,4,1,0,5,0,0
49085,-66.6666666666667,4,1,0,50,0,0
49131,-66.6666666666667,4,1,0,5,0,0
49222,-66.6666666666667,4,1,0,50,0,0
49267,-66.6666666666667,4,1,0,5,0,0
49631,-66.6666666666667,4,1,0,70,0,0
49904,-66.6666666666667,4,1,0,20,0,0
50176,-66.6666666666667,4,1,0,40,0,0
50585,-66.6666666666667,4,1,0,60,0,0
51131,-66.6666666666667,4,1,0,40,0,0
51676,-66.6666666666667,4,1,0,20,0,0
52085,-66.6666666666667,4,1,0,5,0,0
52358,-66.6666666666667,4,1,0,30,0,0
52631,-66.6666666666667,4,1,0,50,0,0
52676,-66.6666666666667,4,1,0,5,0,0
52767,-66.6666666666667,4,1,0,50,0,0
52812,-66.6666666666667,4,1,0,5,0,0
52903,-66.6666666666667,4,1,0,50,0,0
52949,-66.6666666666667,4,1,0,5,0,0
53040,-66.6666666666667,4,1,0,50,0,0
53085,-66.6666666666667,4,1,0,5,0,0
53176,-66.6666666666667,4,1,0,50,0,0
53221,-66.6666666666667,4,1,0,5,0,0
53312,-66.6666666666667,4,1,0,50,0,0
53358,-66.6666666666667,4,1,0,5,0,0
53449,-66.6666666666667,4,1,0,50,0,0
53494,-66.6666666666667,4,1,0,5,0,0
53585,-66.6666666666667,4,1,0,50,0,0
53631,-66.6666666666667,4,1,0,5,0,0
53994,-66.6666666666667,4,1,0,100,0,0
54267,-66.6666666666667,4,1,0,20,0,0
54540,-66.6666666666667,4,1,0,40,0,0
54767,-66.6666666666667,4,1,0,50,0,0
54812,-66.6666666666667,4,1,0,5,0,0
54903,-66.6666666666667,4,1,0,50,0,0
54949,-66.6666666666667,4,1,0,5,0,0
55039,-66.6666666666667,4,1,0,50,0,0
55085,-66.6666666666667,4,1,0,5,0,0
55176,-66.6666666666667,4,1,0,50,0,0
55221,-66.6666666666667,4,1,0,5,0,0
55312,-66.6666666666667,4,1,0,50,0,0
55358,-66.6666666666667,4,1,0,5,0,0
55449,-66.6666666666667,4,1,0,50,0,0
55494,-66.6666666666667,4,1,0,5,0,0
55630,-66.6666666666667,4,1,0,40,0,0
56176,-66.6666666666667,4,1,0,70,0,0
56721,-66.6666666666667,4,1,0,30,0,0
56994,-66.6666666666667,4,1,0,50,0,0
57039,-66.6666666666667,4,1,0,5,0,0
57130,-66.6666666666667,4,1,0,50,0,0
57176,-66.6666666666667,4,1,0,5,0,0
57267,-66.6666666666667,4,1,0,50,0,0
57312,-66.6666666666667,4,1,0,5,0,0
57403,-66.6666666666667,4,1,0,50,0,0
57448,-66.6666666666667,4,1,0,5,0,0
57539,-66.6666666666667,4,1,0,50,0,0
57585,-66.6666666666667,4,1,0,5,0,0
57676,-66.6666666666667,4,1,0,50,0,0
57721,-66.6666666666667,4,1,0,5,0,0
57812,-66.6666666666667,4,1,0,50,0,0
57857,-66.6666666666667,4,1,0,5,0,0
57948,-66.6666666666667,4,1,0,50,0,0
57994,-66.6666666666667,4,1,0,5,0,0
58357,-66.6666666666667,4,1,0,70,0,0
58630,-66.6666666666667,4,1,0,20,0,0
58903,-66.6666666666667,4,1,0,40,0,0
59039,-66.6666666666667,4,1,0,50,0,0
59085,-66.6666666666667,4,1,0,5,0,0
59175,-66.6666666666667,4,1,0,50,0,0
59221,-66.6666666666667,4,1,0,5,0,0
59312,-66.6666666666667,4,1,0,50,0,0
59357,-66.6666666666667,4,1,0,5,0,0
59448,-66.6666666666667,4,1,0,50,0,0
59494,-66.6666666666667,4,1,0,5,0,0
59585,-66.6666666666667,4,1,0,50,0,0
59630,-66.6666666666667,4,1,0,5,0,0
59721,-66.6666666666667,4,1,0,50,0,0
59766,-66.6666666666667,4,1,0,5,0,0
59857,-66.6666666666667,4,1,0,50,0,0
59903,-66.6666666666667,4,1,0,5,0,0
60539,-66.6666666666667,4,1,0,60,0,0
60721,-66.6666666666667,4,1,0,5,0,0
60812,-66.6666666666667,4,1,0,70,0,0
61084,-66.6666666666667,4,1,0,30,0,0
61357,-66.6666666666667,4,1,0,50,0,0
61403,-66.6666666666667,4,1,0,5,0,0
61493,-66.6666666666667,4,1,0,50,0,0
61539,-66.6666666666667,4,1,0,5,0,0
61630,-66.6666666666667,4,1,0,50,0,0
61675,-66.6666666666667,4,1,0,5,0,0
61766,-66.6666666666667,4,1,0,50,0,0
61812,-66.6666666666667,4,1,0,5,0,0
61902,-66.6666666666667,4,1,0,50,0,0
61948,-66.6666666666667,4,1,0,5,0,0
62039,-66.6666666666667,4,1,0,50,0,0
62084,-66.6666666666667,4,1,0,5,0,0
62175,-66.6666666666667,4,1,0,50,0,0
62221,-66.6666666666667,4,1,0,5,0,0
62312,-66.6666666666667,4,1,0,50,0,0
62357,-66.6666666666667,4,1,0,5,0,0
62721,-66.6666666666667,4,1,0,70,0,0
62993,-66.6666666666667,4,1,0,20,0,0
63266,-66.6666666666667,4,1,0,40,0,0
63539,-66.6666666666667,4,1,0,50,0,0
63584,-66.6666666666667,4,1,0,5,0,0
63675,-66.6666666666667,4,1,0,50,0,0
63721,-66.6666666666667,4,1,0,5,0,0
63811,-66.6666666666667,4,1,0,50,0,0
63857,-66.6666666666667,4,1,0,5,0,0
63948,-66.6666666666667,4,1,0,50,0,0
63993,-66.6666666666667,4,1,0,5,0,0
64084,-66.6666666666667,4,1,0,50,0,0
64130,-66.6666666666667,4,1,0,5,0,0
64220,-66.6666666666667,4,1,0,50,0,0
64266,-66.6666666666667,4,1,0,5,0,0
64902,-66.6666666666667,4,1,0,60,0,0
65448,-66.6666666666667,4,1,0,20,0,0
65720,-66.6666666666667,4,1,0,50,0,0
65766,-66.6666666666667,4,1,0,5,0,0
65857,-66.6666666666667,4,1,0,50,0,0
65902,-66.6666666666667,4,1,0,5,0,0
65993,-66.6666666666667,4,1,0,50,0,0
66038,-66.6666666666667,4,1,0,5,0,0
66129,-66.6666666666667,4,1,0,50,0,0
66175,-66.6666666666667,4,1,0,5,0,0
66266,-66.6666666666667,4,1,0,50,0,0
66311,-66.6666666666667,4,1,0,5,0,0
66402,-66.6666666666667,4,1,0,50,0,0
66448,-66.6666666666667,4,1,0,5,0,0
66538,-66.6666666666667,4,1,0,50,0,0
66584,-66.6666666666667,4,1,0,5,0,0
66675,-66.6666666666667,4,1,0,50,0,0
66720,-66.6666666666667,4,1,0,5,0,0
67084,-66.6666666666667,4,1,0,70,0,0
67357,-66.6666666666667,4,1,0,20,0,0
67629,-66.6666666666667,4,1,0,40,0,0
68038,-66.6666666666667,4,1,0,60,0,0
68584,-66.6666666666667,4,1,0,40,0,0
69129,-66.6666666666667,4,1,0,20,0,0
69538,-66.6666666666667,4,1,0,5,0,0
77992,-100,4,1,0,50,0,0
87264,-100,4,1,0,90,0,0
87809,-100,4,1,0,60,0,0
89445,-100,4,1,0,90,0,0
89991,-100,4,1,0,60,0,0
91627,-100,4,1,0,90,0,0
95990,-100,4,1,0,50,0,0
100354,-100,4,1,0,70,0,0
104171,-100,4,1,0,100,0,0
104717,-66.6666666666667,4,1,0,10,0,0
105808,-66.6666666666667,4,1,0,50,0,0
105853,-66.6666666666667,4,1,0,5,0,0
105944,-66.6666666666667,4,1,0,50,0,0
105989,-66.6666666666667,4,1,0,5,0,0
106353,-66.6666666666667,4,1,0,70,0,0
106626,-66.6666666666667,4,1,0,20,0,0
106898,-66.6666666666667,4,1,0,40,0,0
107171,-66.6666666666667,4,1,0,50,0,0
107217,-66.6666666666667,4,1,0,5,0,0
107307,-66.6666666666667,4,1,0,50,0,0
107353,-66.6666666666667,4,1,0,5,0,0
107444,-66.6666666666667,4,1,0,50,0,0
107489,-66.6666666666667,4,1,0,5,0,0
107580,-66.6666666666667,4,1,0,50,0,0
107626,-66.6666666666667,4,1,0,5,0,0
107717,-66.6666666666667,4,1,0,50,0,0
107762,-66.6666666666667,4,1,0,5,0,0
107853,-66.6666666666667,4,1,0,50,0,0
107898,-66.6666666666667,4,1,0,5,0,0
107989,-66.6666666666667,4,1,0,10,0,0
108262,-66.6666666666667,4,1,0,50,0,0
108489,-66.6666666666667,4,1,0,10,0,0
108853,-66.6666666666667,4,1,0,20,0,0
109125,-66.6666666666667,4,1,0,40,0,0
110171,-66.6666666666667,4,1,0,50,0,0
110216,-66.6666666666667,4,1,0,5,0,0
110307,-66.6666666666667,4,1,0,50,0,0
110353,-66.6666666666667,4,1,0,5,0,0
110444,-66.6666666666667,4,1,0,50,0,0
110489,-66.6666666666667,4,1,0,5,0,0
110853,-66.6666666666667,4,1,0,70,0,0
110989,-66.6666666666667,4,1,0,20,0,0
111262,-66.6666666666667,4,1,0,40,0,0
111534,-66.6666666666667,4,1,0,50,0,0
111580,-66.6666666666667,4,1,0,5,0,0
111671,-66.6666666666667,4,1,0,50,0,0
111716,-66.6666666666667,4,1,0,5,0,0
111807,-66.6666666666667,4,1,0,50,0,0
111852,-66.6666666666667,4,1,0,5,0,0
111943,-66.6666666666667,4,1,0,50,0,0
111989,-66.6666666666667,4,1,0,5,0,0
112080,-66.6666666666667,4,1,0,50,0,0
112125,-66.6666666666667,4,1,0,5,0,0
112216,-66.6666666666667,4,1,0,50,0,0
112262,-66.6666666666667,4,1,0,5,0,0
112898,-66.6666666666667,4,1,0,60,0,0
113080,-66.6666666666667,4,1,0,5,0,0
113171,-66.6666666666667,4,1,0,70,0,0
113443,-66.6666666666667,4,1,0,20,0,0
113989,-66.6666666666667,4,1,0,40,0,0
114261,-66.6666666666667,4,1,0,50,0,0
114307,-66.6666666666667,4,1,0,5,0,0
114398,-66.6666666666667,4,1,0,50,0,0
114443,-66.6666666666667,4,1,0,5,0,0
114534,-66.6666666666667,4,1,0,50,0,0
114580,-66.6666666666667,4,1,0,5,0,0
114670,-66.6666666666667,4,1,0,50,0,0
114716,-66.6666666666667,4,1,0,5,0,0
114807,-66.6666666666667,4,1,0,50,0,0
114852,-66.6666666666667,4,1,0,5,0,0
115216,-66.6666666666667,4,1,0,70,0,0
115398,-66.6666666666667,4,1,0,20,0,0
115670,-66.6666666666667,4,1,0,40,0,0
115898,-66.6666666666667,4,1,0,50,0,0
115943,-66.6666666666667,4,1,0,5,0,0
116034,-66.6666666666667,4,1,0,50,0,0
116079,-66.6666666666667,4,1,0,5,0,0
116170,-66.6666666666667,4,1,0,50,0,0
116216,-66.6666666666667,4,1,0,5,0,0
116307,-66.6666666666667,4,1,0,50,0,0
116352,-66.6666666666667,4,1,0,5,0,0
116443,-66.6666666666667,4,1,0,50,0,0
116488,-66.6666666666667,4,1,0,5,0,0
116579,-66.6666666666667,4,1,0,50,0,0
116625,-66.6666666666667,4,1,0,5,0,0
117261,-66.6666666666667,4,1,0,70,0,0
117806,-66.6666666666667,4,1,0,30,0,0
118079,-66.6666666666667,4,1,0,5,0,0
118352,-66.6666666666667,4,1,0,50,0,0
118397,-66.6666666666667,4,1,0,5,0,0
118488,-66.6666666666667,4,1,0,50,0,0
118534,-66.6666666666667,4,1,0,5,0,0
118625,-66.6666666666667,4,1,0,50,0,0
118670,-66.6666666666667,4,1,0,5,0,0
118761,-66.6666666666667,4,1,0,50,0,0
118806,-66.6666666666667,4,1,0,5,0,0
118897,-66.6666666666667,4,1,0,50,0,0
118943,-66.6666666666667,4,1,0,5,0,0
119034,-66.6666666666667,4,1,0,50,0,0
119079,-66.6666666666667,4,1,0,5,0,0
119443,-66.6666666666667,4,1,0,70,0,0
119715,-66.6666666666667,4,1,0,20,0,0
119988,-66.6666666666667,4,1,0,40,0,0
120397,-66.6666666666667,4,1,0,60,0,0
120943,-66.6666666666667,4,1,0,40,0,0
121488,-66.6666666666667,4,1,0,20,0,0
121897,-66.6666666666667,4,1,0,5,0,0
122170,-66.6666666666667,4,1,0,30,0,0
123306,-66.6666666666667,4,1,0,50,0,0
123351,-66.6666666666667,4,1,0,5,0,0
123442,-66.6666666666667,4,1,0,50,0,0
123488,-66.6666666666667,4,1,0,5,0,0
123851,-66.6666666666667,4,1,0,70,0,0

[HitObjects]
168,176,8726,5,8,0:0:0:0:
432,180,8998,2,0,L|292:180,1,125,2|2,0:0|0:0,0:0:0:0:
208,272,9544,2,2,L|108:172,2,125
400,240,10362,2,0,L|440:100,1,125,2|8,0:0|0:0,0:0:0:0:
168,156,11453,5,8,0:0:0:0:
316,152,11725,1,2,0:0:0:0:
128,156,11998,1,2,0:0:0:0:
356,152,12271,1,2,0:0:0:0:
168,156,12543,1,2,0:0:0:0:
316,152,12815,1,8,0:0:0:0:
144,288,13634,6,0,L|216:156,1,125,8|2,0:0|0:0,0:0:0:0:
336,268,14180,1,2,0:0:0:0:
260,264,14452,1,2,0:0:0:0:
188,264,14725,1,2,0:0:0:0:
352,256,14998,2,0,L|248:132,1,125,2|8,0:0|0:0,0:0:0:0:
184,132,15816,5,8,0:0:0:0:
392,132,16088,1,2,0:0:0:0:
256,208,16361,2,0,L|256:76,1,125,2|2,0:0|0:0,0:0:0:0:
112,316,16907,2,0,L|132:172,1,125,2|2,0:0|0:0,0:0:0:0:
44,192,17452,1,12,0:0:0:0:
468,196,17725,1,12,0:0:0:0:
48,144,17997,5,2,0:0:0:0:
224,144,18088,1,0,0:0:0:0:
400,144,18179,1,0,0:0:0:0:
464,160,18270,5,2,0:0:0:0:
288,160,18361,1,0,0:0:0:0:
112,160,18452,1,0,0:0:0:0:
48,176,18543,5,2,0:0:0:0:
224,176,18634,1,0,0:0:0:0:
400,176,18725,1,0,0:0:0:0:
464,192,18816,5,2,0:0:0:0:
288,192,18907,1,0,0:0:0:0:
112,192,18998,1,0,0:0:0:0:
48,208,19088,5,2,0:0:0:0:
224,208,19179,1,0,0:0:0:0:
400,208,19270,1,0,0:0:0:0:
464,224,19361,5,2,0:0:0:0:
288,224,19452,1,0,0:0:0:0:
112,224,19543,1,0,0:0:0:0:
48,240,19634,5,12,0:0:0:0:
440,236,19906,1,12,0:0:0:0:
96,288,20179,2,0,L|32:288,1,62.5000023841859,2|0,0:0|0:0,0:0:0:0:
288,272,20361,2,0,L|352:272,1,62.5000023841859,0|2,0:0|0:0,0:0:0:0:
288,272,20543,2,0,L|224:272,1,62.5000023841859
416,224,20724,6,0,L|496:224,1,62.5000023841859,2|0,0:0|0:0,0:0:0:0:
224,176,20906,2,0,L|160:176,1,62.5000023841859,0|2,0:0|0:0,0:0:0:0:
96,176,21088,2,0,L|176:176,1,62.5000023841859
336,176,21270,6,0,L|416:176,1,62.5000023841859,2|0,0:0|0:0,0:0:0:0:
192,224,21452,2,0,L|112:224,1,62.5000023841859,0|2,0:0|0:0,0:0:0:0:
288,128,21633,2,0,L|368:128,1,62.5000023841859
464,144,21815,5,12,0:0:0:0:
48,144,22088,1,12,0:0:0:0:
416,96,22361,5,2,0:0:0:0:
464,96,22451,1,0,0:0:0:0:
512,96,22542,1,0,0:0:0:0:
224,128,22633,2,0,L|176:64,2,62.5000023841859,2|0|0,0:0|0:0|0:0,0:0:0:0:
416,256,22906,6,0,L|484:256,2,62.5000023841859,2|0|0,0:0|0:0|0:0,0:0:0:0:
176,224,23179,5,2,0:0:0:0:
113,224,23269,1,0,0:0:0:0:
51,224,23360,1,0,0:0:0:0:
208,160,23451,2,0,L|288:176,2,62.5000023841859,2|0|0,0:0|0:0|0:0,0:0:0:0:
400,128,23724,2,0,L|448:80,2,62.5000023841859,2|0|0,0:0|0:0|0:0,0:0:0:0:
488,32,23997,5,4,0:0:0:0:
32,32,24270,1,4,0:0:0:0:
384,256,24542,6,0,L|416:176,1,62.5000023841859,2|0,0:0|0:0,0:0:0:0:
496,176,24724,1,0,0:0:0:0:
288,144,24815,6,0,L|320:64,1,62.5000023841859,2|0,0:0|0:0,0:0:0:0:
400,64,24997,1,0,0:0:0:0:
176,64,25088,5,2,0:0:0:0:
88,85,25180,2,0,L|64:144,1,62.5000023841859
304,160,25360,5,2,0:0:0:0:
216,181,25452,2,0,L|192:240,1,62.5000023841859
384,80,25633,6,0,L|464:96,1,62.5000023841859,2|0,0:0|0:0,0:0:0:0:
464,144,25815,1,0,0:0:0:0:
128,80,25906,6,0,L|48:96,1,62.5000023841859,2|0,0:0|0:0,0:0:0:0:
48,144,26088,1,0,0:0:0:0:
432,280,26178,6,0,L|356:168,4,93.7500035762788,0|0|0|0|2,0:0|0:0|0:0|0:0|0:0,0:0:0:0:
56,280,26997,1,2,0:0:0:0:
48,108,27269,6,0,L|112:236,4,93.7500035762788,0|0|0|0|2,0:0|0:0|0:0|0:0|0:0,0:0:0:0:
432,184,28088,1,2,0:0:0:0:
432,280,28360,6,0,L|376:156,4,93.7500035762788,0|0|0|0|2,0:0|0:0|0:0|0:0|0:0,0:0:0:0:
56,280,29179,1,2,0:0:0:0:
48,108,29451,6,0,L|104:236,4,93.7500035762788,0|0|0|0|2,0:0|0:0|0:0|0:0|0:0,0:0:0:0:
432,184,30270,1,2,0:0:0:0:
192,112,30542,6,0,L|80:132,3,93.7500035762788,2|2|2|2,0:0|0:0|0:0|0:0,0:0:0:0:
320,112,31087,6,0,L|432:132,3,93.7500035762788,2|2|2|2,0:0|0:0|0:0|0:0,0:0:0:0:
144,112,31633,6,0,L|32:132,3,93.7500035762788,2|2|2|2,0:0|0:0|0:0|0:0,0:0:0:0:
356,120,32178,6,0,L|468:140,3,93.7500035762788,2|2|2|2,0:0|0:0|0:0|0:0,0:0:0:0:
244,192,34360,5,4,0:0:0:0:
280,312,34905,2,0,L|224:304,5,31.2500011920929
240,224,35178,6,0,L|240:176,1,31.2500011920929,2|0,0:0|0:0,0:0:0:0:
304,128,35314,2,0,L|304:92,1,31.2500011920929,2|0,0:0|0:0,0:0:0:0:
204,88,35450,2,0,L|204:44,1,31.2500011920929,2|0,0:0|0:0,0:0:0:0:
424,88,35587,2,0,L|424:44,1,31.2500011920929,2|0,0:0|0:0,0:0:0:0:
160,92,35723,2,0,L|160:48,1,31.2500011920929,2|0,0:0|0:0,0:0:0:0:
380,92,35859,2,0,L|380:48,1,31.2500011920929,2|0,0:0|0:0,0:0:0:0:
104,92,35996,2,0,L|104:48,1,31.2500011920929,2|0,0:0|0:0,0:0:0:0:
324,92,36133,2,0,L|324:48,1,31.2500011920929,2|0,0:0|0:0,0:0:0:0:
52,196,36268,6,0,L|24:84,1,93.7500035762788,2|0,0:0|0:0,0:0:0:0:
460,168,36541,2,4,L|448:128,1,31.2500011920929
156,272,36814,6,0,L|196:288,5,31.2500011920929,0|0|0|0|0|0,0:0|0:0|0:0|0:0|0:0|0:0,0:0:0:0:
208,256,37087,6,0,L|252:280,6,31.2500011920929,0|0|0|0|0|0|2,0:0|0:0|0:0|0:0|0:0|0:0|0:0,0:0:0:0:
400,240,37404,6,0,L|456:184,1,62.5000023841859,0|2,0:0|0:0,0:0:0:0:
224,192,37540,2,0,L|156:144,1,62.5000023841859,0|2,0:0|0:0,0:0:0:0:
452,212,37677,2,0,L|504:160,1,62.5000023841859,0|2,0:0|0:0,0:0:0:0:
228,244,37813,2,0,L|160:196,1,62.5000023841859,0|2,0:0|0:0,0:0:0:0:
420,164,37950,2,0,L|472:112,1,62.5000023841859,0|2,0:0|0:0,0:0:0:0:
276,228,38086,1,0,0:0:0:0:
96,304,38177,6,8,L|144:336,1,31.2500011920929,12|0,0:0|0:0,0:0:0:0:
208,304,38314,2,8,L|244:332,1,31.2500011920929,12|0,0:0|0:0,0:0:0:0:
336,304,38450,2,8,L|372:324,1,31.2500011920929,12|0,0:0|0:0,0:0:0:0:
448,304,38586,2,8,L|488:324,1,31.2500011920929,12|0,0:0|0:0,0:0:0:0:
416,176,38723,2,0,L|208:176,1,187.500007152558,12|4,0:0|0:0,0:0:0:0:
208,308,39268,6,0,L|216:256,5,31.2500011920929,0|0|0|0|0|0,0:0|0:0|0:0|0:0|0:0|0:0,0:0:0:0:
224,272,39541,6,0,L|192:240,1,31.2500011920929,2|0,0:0|0:0,0:0:0:0:
384,256,39677,2,0,L|424:224,1,31.2500011920929,2|0,0:0|0:0,0:0:0:0:
116,200,39814,2,0,L|80:168,1,31.2500011920929,2|0,0:0|0:0,0:0:0:0:
300,128,39950,2,0,L|336:108,1,31.2500011920929,2|0,0:0|0:0,0:0:0:0:
272,80,40086,2,0,L|236:56,1,31.2500011920929,2|0,0:0|0:0,0:0:0:0:
480,96,40223,2,0,L|456:64,1,31.2500011920929,2|0,0:0|0:0,0:0:0:0:
416,80,40359,2,0,L|440:112,1,31.2500011920929,2|0,0:0|0:0,0:0:0:0:
480,96,40495,2,0,L|456:64,1,31.2500011920929,2|0,0:0|0:0,0:0:0:0:
416,80,40632,6,0,L|476:172,1,93.7500035762788,2|0,0:0|0:0,0:0:0:0:
192,208,40904,2,0,L|192:256,1,31.2500011920929
320,288,41177,6,0,L|340:232,5,31.2500011920929
372,248,41450,6,0,L|360:196,5,31.2500011920929,0|0|0|0|0|0,0:0|0:0|0:0|0:0|0:0|0:0,0:0:0:0:
336,208,41723,6,0,L|336:160,1,31.2500011920929,2|0,0:0|0:0,0:0:0:0:
32,160,41859,2,0,L|-16:160,1,31.2500011920929,2|0,0:0|0:0,0:0:0:0:
240,112,41995,2,0,L|272:112,1,31.2500011920929,2|0,0:0|0:0,0:0:0:0:
480,112,42132,2,0,L|528:112,1,31.2500011920929,2|0,0:0|0:0,0:0:0:0:
304,192,42268,2,0,L|256:192,1,31.2500011920929,2|0,0:0|0:0,0:0:0:0:
96,256,42404,2,0,L|44:260,1,31.2500011920929,2|0,0:0|0:0,0:0:0:0:
372,292,42541,6,0,P|460:224|304:84,1,375.000014305115,0|10,0:0|0:0,0:0:0:0:
32,144,43177,2,0,L|0:208,1,62.5000023841859,8|0,0:0|0:0,0:0:0:0:
80,224,43359,1,8,0:0:0:0:
160,224,43450,1,14,0:0:0:0:
408,212,43631,6,0,L|408:152,5,31.2500011920929,0|0|0|0|0|0,0:0|0:0|0:0|0:0|0:0|0:0,0:0:0:0:
432,176,43904,6,0,L|480:176,1,31.2500011920929,2|0,0:0|0:0,0:0:0:0:
224,176,44040,2,0,L|176:176,1,31.2500011920929,2|0,0:0|0:0,0:0:0:0:
256,176,44177,2,0,L|304:176,1,31.2500011920929,2|0,0:0|0:0,0:0:0:0:
112,128,44313,2,0,L|80:128,1,31.2500011920929,2|0,0:0|0:0,0:0:0:0:
288,112,44450,2,0,L|320:112,1,31.2500011920929,2|0,0:0|0:0,0:0:0:0:
272,112,44586,2,0,L|224:112,1,31.2500011920929,2|0,0:0|0:0,0:0:0:0:
448,112,44722,2,0,L|496:112,1,31.2500011920929,2|0,0:0|0:0,0:0:0:0:
176,80,44859,2,0,L|128:80,1,31.2500011920929,2|0,0:0|0:0,0:0:0:0:
336,144,44995,6,0,L|256:224,1,93.7500035762788,2|0,0:0|0:0,0:0:0:0:
504,64,45268,2,0,L|512:28,1,31.2500011920929
112,224,45540,6,0,L|64:224,5,31.2500011920929
64,176,45813,6,0,L|68:216,5,31.2500011920929,0|0|0|0|0|2,0:0|0:0|0:0|0:0|0:0|0:0,0:0:0:0:
192,192,46086,2,0,L|272:208,1,62.5000023841859,0|2,0:0|0:0,0:0:0:0:
80,176,46222,2,0,L|0:208,1,62.5000023841859,0|2,0:0|0:0,0:0:0:0:
192,192,46358,2,0,L|272:208,1,62.5000023841859,0|2,0:0|0:0,0:0:0:0:
80,176,46495,2,0,L|0:208,1,62.5000023841859,0|2,0:0|0:0,0:0:0:0:
192,192,46631,2,0,L|272:208,1,62.5000023841859,0|2,0:0|0:0,0:0:0:0:
80,176,46767,2,0,L|0:208,1,62.5000023841859,0|2,0:0|0:0,0:0:0:0:
240,32,46904,2,0,B|288:64|240:224|208:240|208:240|80:336,1,375.000014305115,0|12,0:0|0:0,0:0:0:0:
464,192,47722,5,12,0:0:0:0:
352,196,47949,6,0,L|332:160,6,31.2500011920929,0|0|0|0|0|0|2,0:0|0:0|0:0|0:0|0:0|0:0|0:0,0:0:0:0:
320,176,48267,6,0,L|320:128,1,31.2500011920929
104,192,48404,2,0,L|48:192,1,31.2500011920929,2|0,0:0|0:0,0:0:0:0:
272,288,48540,2,0,L|320:288,1,31.2500011920929,2|0,0:0|0:0,0:0:0:0:
64,288,48676,2,0,L|32:288,1,31.2500011920929,2|0,0:0|0:0,0:0:0:0:
256,144,48813,1,2,0:0:0:0:
384,144,48858,2,0,L|448:112,1,62.5000023841859
272,112,48995,2,0,L|208:144,1,62.5000023841859,2|0,0:0|0:0,0:0:0:0:
384,128,49131,2,0,L|448:96,1,62.5000023841859,2|0,0:0|0:0,0:0:0:0:
272,80,49267,1,2,0:0:0:0:
96,176,49358,6,0,L|64:72,1,93.7500035762788,2|0,0:0|0:0,0:0:0:0:
160,192,49631,1,0,0:0:0:0:
352,192,49676,1,0,0:0:0:0:
432,128,49904,6,0,L|468:96,5,31.2500011920929
420,72,50176,6,0,L|416:32,6,31.2500011920929,0|0|0|0|0|0|0,0:0|0:0|0:0|0:0|0:0|0:0|0:0,0:0:0:0:
88,72,50585,6,0,L|52:176,1,93.7500035762788,0|2,0:0|0:0,0:0:0:0:
360,172,50858,2,0,L|248:172,1,93.7500035762788
484,216,51131,2,0,L|512:328,1,93.7500035762788,2|0,0:0|0:0,0:0:0:0:
172,208,51403,2,0,L|140:304,1,93.7500035762788,0|2,0:0|0:0,0:0:0:0:
364,228,51676,2,0,L|420:328,1,93.7500035762788,2|2,0:0|0:0,0:0:0:0:
176,220,51949,2,0,L|272:224,1,93.7500035762788,8|12,0:0|0:0,0:0:0:0:
92,96,52358,6,0,L|108:68,5,31.2500011920929,0|0|0|0|0|0,0:0|0:0|0:0|0:0|0:0|0:0,0:0:0:0:
224,288,52631,6,0,L|272:288,1,31.2500011920929,2|0,0:0|0:0,0:0:0:0:
496,240,52767,2,0,L|448:240,1,31.2500011920929,2|0,0:0|0:0,0:0:0:0:
304,240,52904,2,0,L|256:240,1,31.2500011920929,2|0,0:0|0:0,0:0:0:0:
32,240,53040,2,0,L|80:240,1,31.2500011920929,2|0,0:0|0:0,0:0:0:0:
272,208,53176,2,0,L|304:208,1,31.2500011920929,2|0,0:0|0:0,0:0:0:0:
496,112,53312,2,0,L|448:112,1,31.2500011920929,2|0,0:0|0:0,0:0:0:0:
288,160,53449,2,0,L|240:160,1,31.2500011920929,2|0,0:0|0:0,0:0:0:0:
48,128,53585,2,0,L|96:128,1,31.2500011920929,2|0,0:0|0:0,0:0:0:0:
400,224,53721,6,0,P|432:160|416:128,1,93.7500035762788,2|0,0:0|0:0,0:0:0:0:
336,128,53994,1,0,0:0:0:0:
192,128,54040,1,0,0:0:0:0:
240,272,54267,6,0,L|256:232,5,31.2500011920929,0|0|0|0|0|0,0:0|0:0|0:0|0:0|0:0|0:0,0:0:0:0:
288,208,54540,6,0,L|304:256,5,31.2500011920929,0|0|0|0|0|2,0:0|0:0|0:0|0:0|0:0|0:0,0:0:0:0:
192,160,54812,6,0,L|116:208,1,62.5000023841859,0|2,0:0|0:0,0:0:0:0:
300,212,54948,2,0,L|356:268,1,62.5000023841859,0|2,0:0|0:0,0:0:0:0:
192,180,55084,2,0,L|124:228,1,62.5000023841859,0|2,0:0|0:0,0:0:0:0:
300,212,55221,2,0,L|356:268,1,62.5000023841859,0|2,0:0|0:0,0:0:0:0:
192,180,55357,2,0,L|124:228,1,62.5000023841859,0|2,0:0|0:0,0:0:0:0:
288,208,55494,1,0,0:0:0:0:
320,224,55630,6,8,L|336:192,1,31.2500011920929,12|0,0:0|0:0,0:0:0:0:
512,192,55767,2,8,L|512:160,1,31.2500011920929,12|0,0:0|0:0,0:0:0:0:
224,160,55903,2,8,L|176:144,1,31.2500011920929,12|0,0:0|0:0,0:0:0:0:
32,112,56039,2,8,L|32:80,1,31.2500011920929,12|0,0:0|0:0,0:0:0:0:
224,80,56176,5,12,0:0:0:0:
288,80,56448,1,12,0:0:0:0:
232,312,56721,6,0,L|288:304,5,31.2500011920929,0|0|0|0|0|0,0:0|0:0|0:0|0:0|0:0|0:0,0:0:0:0:
272,240,56994,6,0,L|272:192,1,31.2500011920929,2|0,0:0|0:0,0:0:0:0:
144,176,57130,2,0,L|144:140,1,31.2500011920929,2|0,0:0|0:0,0:0:0:0:
308,88,57266,2,0,L|308:44,1,31.2500011920929,2|0,0:0|0:0,0:0:0:0:
88,88,57403,2,0,L|88:44,1,31.2500011920929,2|0,0:0|0:0,0:0:0:0:
352,92,57539,2,0,L|352:48,1,31.2500011920929,2|0,0:0|0:0,0:0:0:0:
132,92,57675,2,0,L|132:48,1,31.2500011920929,2|0,0:0|0:0,0:0:0:0:
408,92,57812,2,0,L|408:48,1,31.2500011920929,2|0,0:0|0:0,0:0:0:0:
188,92,57949,2,0,L|188:48,1,31.2500011920929,2|0,0:0|0:0,0:0:0:0:
460,196,58084,6,0,L|488:84,1,93.7500035762788,2|0,0:0|0:0,0:0:0:0:
16,160,58357,2,4,L|-16:128,1,31.2500011920929
160,272,58630,6,0,L|160:224,5,31.2500011920929
224,272,58903,6,0,L|224:224,3,31.2500011920929
336,320,59085,6,0,L|416:320,1,62.5000023841859,0|2,0:0|0:0,0:0:0:0:
228,268,59220,2,0,L|144:240,1,62.5000023841859,0|2,0:0|0:0,0:0:0:0:
336,320,59357,2,0,L|416:320,1,62.5000023841859,0|2,0:0|0:0,0:0:0:0:
228,268,59494,2,0,L|144:240,1,62.5000023841859,0|2,0:0|0:0,0:0:0:0:
336,320,59631,2,0,L|416:320,1,62.5000023841859,0|2,0:0|0:0,0:0:0:0:
228,268,59766,2,0,L|144:240,1,62.5000023841859,0|2,0:0|0:0,0:0:0:0:
368,272,59903,1,0,0:0:0:0:
400,224,59994,6,0,B|336:160|320:160|320:160|400:112|336:80|224:48|144:96,1,375.000014305115,0|10,0:0|0:0,0:0:0:0:
240,80,60630,2,0,L|304:80,2,62.5000023841859,8|0|8,0:0|0:0|0:0,0:0:0:0:
464,80,60903,1,14,0:0:0:0:
320,320,61084,6,0,L|328:268,5,31.2500011920929,0|0|0|0|0|0,0:0|0:0|0:0|0:0|0:0|0:0,0:0:0:0:
336,284,61357,6,0,L|304:252,1,31.2500011920929,2|0,0:0|0:0,0:0:0:0:
480,256,61493,2,0,L|520:224,1,31.2500011920929,2|0,0:0|0:0,0:0:0:0:
224,240,61630,2,0,L|188:208,1,31.2500011920929,2|0,0:0|0:0,0:0:0:0:
432,192,61766,2,0,L|468:172,1,31.2500011920929,2|0,0:0|0:0,0:0:0:0:
256,144,61902,2,0,L|220:120,1,31.2500011920929,2|0,0:0|0:0,0:0:0:0:
48,112,62039,2,0,L|24:80,1,31.2500011920929,2|0,0:0|0:0,0:0:0:0:
272,64,62175,2,0,L|296:96,1,31.2500011920929,2|0,0:0|0:0,0:0:0:0:
464,160,62311,2,0,L|440:128,1,31.2500011920929,2|0,0:0|0:0,0:0:0:0:
160,192,62448,6,0,L|112:288,1,93.7500035762788,2|0,0:0|0:0,0:0:0:0:
176,288,62721,1,0,0:0:0:0:
336,288,62766,1,0,0:0:0:0:
220,284,62993,6,0,L|240:228,5,31.2500011920929,0|0|0|0|0|0,0:0|0:0|0:0|0:0|0:0|0:0,0:0:0:0:
176,256,63266,6,0,L|164:204,5,31.2500011920929,0|0|0|0|0|0,0:0|0:0|0:0|0:0|0:0|0:0,0:0:0:0:
288,208,63539,2,0,L|288:160,1,31.2500011920929,2|0,0:0|0:0,0:0:0:0:
0,160,63675,2,0,L|12:108,1,31.2500011920929,2|0,0:0|0:0,0:0:0:0:
176,144,63811,1,2,0:0:0:0:
304,144,63857,1,0,0:0:0:0:
480,144,63948,2,0,L|532:145,1,31.2500011920929,2|0,0:0|0:0,0:0:0:0:
224,160,64084,2,0,L|176:160,1,31.2500011920929,2|0,0:0|0:0,0:0:0:0:
416,112,64220,2,0,L|464:112,1,31.2500011920929,2|0,0:0|0:0,0:0:0:0:
140,292,64357,6,0,P|52:224|208:84,1,375.000014305115,0|12,0:0|0:0,0:0:0:0:
464,96,65175,1,12,0:0:0:0:
464,224,65448,2,0,L|416:224,5,31.2500011920929
448,224,65720,6,0,L|416:176,1,31.2500011920929,2|0,0:0|0:0,0:0:0:0:
288,224,65857,2,0,L|256:176,1,31.2500011920929,2|0,0:0|0:0,0:0:0:0:
112,240,65993,2,0,L|80:208,1,31.2500011920929,2|0,0:0|0:0,0:0:0:0:
320,144,66129,2,0,L|352:112,1,31.2500011920929,2|0,0:0|0:0,0:0:0:0:
144,240,66266,2,0,L|112:208,1,31.2500011920929,2|0,0:0|0:0,0:0:0:0:
352,144,66402,2,0,L|384:112,1,31.2500011920929,2|0,0:0|0:0,0:0:0:0:
176,240,66538,2,0,L|144:208,1,31.2500011920929,2|0,0:0|0:0,0:0:0:0:
384,144,66674,2,0,L|416:112,1,31.2500011920929,2|0,0:0|0:0,0:0:0:0:
144,160,66811,6,0,L|96:112|128:80,1,93.7500035762788,0|0,0:0|0:0,0:0:0:0:
384,96,67084,2,0,L|368:64,1,31.2500011920929,4|4,0:0|0:0,0:0:0:0:
256,272,67357,6,0,L|224:240,5,31.2500011920929,0|0|0|0|0|0,0:0|0:0|0:0|0:0|0:0|0:0,0:0:0:0:
320,272,67629,6,0,L|288:240,6,31.2500011920929,0|0|0|0|0|0|0,0:0|0:0|0:0|0:0|0:0|0:0|0:0,0:0:0:0:
480,224,68038,6,0,L|368:224,1,93.7500035762788,0|8,0:0|0:0,0:0:0:0:
32,224,68311,2,0,L|144:224,1,93.7500035762788
64,224,68584,2,0,L|176:224,1,93.7500035762788,8|0,0:0|0:0,0:0:0:0:
336,176,68856,2,0,L|240:176,1,93.7500035762788,0|8,0:0|0:0,0:0:0:0:
496,256,69129,2,0,L|448:144,1,93.7500035762788,0|8,0:0|0:0,0:0:0:0:
64,272,69402,2,0,L|96:176,1,93.7500035762788
384,240,77992,5,8,0:0:0:0:
176,240,78128,1,8,0:0:0:0:
384,176,78265,6,0,P|448:144|400:80,1,125,0|8,0:0|0:0,0:0:0:0:
64,192,78810,5,0,0:0:0:0:
192,192,79083,1,8,0:0:0:0:
320,192,79355,1,0,0:0:0:0:
448,192,79628,2,0,L|368:192,1,62.5,8|0,0:0|0:0,0:0:0:0:
112,288,79901,2,0,L|208:288,1,62.5
448,288,80174,1,8,0:0:0:0:
64,192,80446,1,0,0:0:0:0:
192,224,80719,6,0,L|160:128,1,62.5,8|0,0:0|0:0,0:0:0:0:
432,224,80992,2,0,L|464:128,1,62.5
64,192,81264,1,8,0:0:0:0:
448,192,81537,1,0,0:0:0:0:
64,192,81810,2,0,L|160:192,2,62.5,8|0|0,0:0|0:0|0:0,0:0:0:0:
448,192,82355,1,8,0:0:0:0:
64,192,82628,1,0,0:0:0:0:
192,256,83173,6,0,L|288:256,1,62.5
480,208,83446,2,0,L|384:208,1,62.5,8|0,0:0|0:0,0:0:0:0:
80,176,83719,2,0,L|176:176,1,62.5
142,176,83991,6,0,L|80:160,1,62.5,8|0,0:0|0:0,0:0:0:0:
352,176,84264,2,0,L|416:176,1,62.5
416,128,84537,2,0,L|320:112,1,62.5,8|0,0:0|0:0,0:0:0:0:
192,128,84809,2,0,L|96:128,1,62.5
416,304,85082,6,0,L|416:224,1,62.5,8|0,0:0|0:0,0:0:0:0:
80,288,85355,2,0,L|80:208,1,62.5
304,288,85628,2,0,L|304:208,1,62.5,8|0,0:0|0:0,0:0:0:0:
208,288,85900,2,0,L|208:208,1,62.5,0|8,0:0|0:0,0:0:0:0:
416,176,86173,5,0,0:0:0:0:
208,176,86309,1,0,0:0:0:0:
416,176,86446,1,8,0:0:0:0:
80,176,86718,1,8,0:0:0:0:
96,176,87264,5,12,0:0:0:0:
432,176,87537,1,12,0:0:0:0:
368,272,87809,6,0,L|368:192,1,41.6666666666667,2|0,0:0|0:0,0:0:0:0:
112,224,87991,1,0,0:0:0:0:
32,192,88082,6,0,L|32:112,1,41.6666666666667,2|0,0:0|0:0,0:0:0:0:
256,160,88264,1,0,0:0:0:0:
480,128,88355,6,0,L|480:48,1,41.6666666666667,2|0,0:0|0:0,0:0:0:0:
192,96,88537,1,0,0:0:0:0:
112,96,88627,6,0,L|112:16,1,41.6666666666667,2|0,0:0|0:0,0:0:0:0:
336,64,88809,1,0,0:0:0:0:
400,64,88900,6,0,L|400:128,1,41.6666666666667,2|0,0:0|0:0,0:0:0:0:
112,176,89082,1,0,0:0:0:0:
32,176,89173,6,0,L|32:256,1,41.6666666666667,2|0,0:0|0:0,0:0:0:0:
384,256,89355,1,0,0:0:0:0:
464,256,89445,5,12,0:0:0:0:
64,256,89718,1,12,0:0:0:0:
464,288,89991,2,0,L|512:288,1,41.6666666666667,2|0,0:0|0:0,0:0:0:0:
448,192,90173,2,0,L|400:192,1,41.6666666666667,0|2,0:0|0:0,0:0:0:0:
256,176,90356,2,0,L|208:176,1,41.6666666666667
64,176,90537,6,0,L|16:176,1,41.6666666666667,2|0,0:0|0:0,0:0:0:0:
80,80,90719,2,0,L|128:80,1,41.6666666666667,0|2,0:0|0:0,0:0:0:0:
272,224,90901,2,0,L|320:224,1,41.6666666666667
464,288,91082,6,0,L|512:288,1,41.6666666666667,2|0,0:0|0:0,0:0:0:0:
448,192,91263,2,0,L|400:192,1,41.6666666666667,0|2,0:0|0:0,0:0:0:0:
240,192,91447,2,0,L|192:192,1,41.6666666666667
48,256,91627,5,12,0:0:0:0:
448,256,91900,1,12,0:0:0:0:
176,224,92172,2,0,L|128:224,1,41.6666666666667,2|0,0:0|0:0,0:0:0:0:
432,176,92354,2,0,L|480:176,1,41.6666666666667,0|2,0:0|0:0,0:0:0:0:
304,128,92536,2,0,L|256:96,3,41.6666666666667,0|0|2|0,0:0|0:0|0:0|0:0,0:0:0:0:
80,144,92900,6,0,L|32:144,1,41.6666666666667,0|2,0:0|0:0,0:0:0:0:
32,80,93081,2,0,L|80:80,1,41.6666666666667
240,80,93263,2,0,L|288:80,1,41.6666666666667,2|0,0:0|0:0,0:0:0:0:
432,80,93446,2,0,L|480:80,1,41.6666666666667,0|2,0:0|0:0,0:0:0:0:
272,192,93627,2,0,L|224:192,1,41.6666666666667
80,192,93809,5,12,0:0:0:0:
432,192,94081,1,12,0:0:0:0:
240,288,94354,6,0,L|160:288,2,41.6666666666667,2|0|0,0:0|0:0|0:0,0:0:0:0:
432,256,94627,6,0,L|512:256,2,41.6666666666667,2|0|0,0:0|0:0|0:0,0:0:0:0:
160,208,94899,6,0,L|80:208,2,41.6666666666667,2|0|0,0:0|0:0|0:0,0:0:0:0:
320,160,95172,6,0,L|368:160,2,41.6666666666667,2|0|0,0:0|0:0|0:0,0:0:0:0:
96,128,95445,6,0,L|16:128,2,41.6666666666667,2|0|0,0:0|0:0|0:0,0:0:0:0:
416,128,95718,6,0,L|496:128,2,41.6666666666667,2|0|0,0:0|0:0|0:0,0:0:0:0:
336,320,95990,6,0,L|336:240,1,62.5
416,272,96263,2,0,L|416:192,1,62.5
496,224,96536,1,2,0:0:0:0:
32,224,96808,1,2,0:0:0:0:
176,320,97081,6,0,L|176:240,1,62.5
96,272,97354,2,0,L|96:192,1,62.5
16,224,97627,1,2,0:0:0:0:
480,224,97899,1,2,0:0:0:0:
336,320,98172,6,0,L|336:240,1,62.5
416,272,98445,2,0,L|416:192,1,62.5
496,224,98718,1,2,0:0:0:0:
32,224,98990,1,2,0:0:0:0:
176,320,99263,6,0,L|176:240,1,62.5
96,272,99536,2,0,L|96:192,1,62.5
16,224,99809,1,2,0:0:0:0:
480,224,100081,1,2,0:0:0:0:
368,288,100354,6,0,L|448:288,1,62.5
144,288,100626,2,0,L|64:288,1,62.5
368,288,100899,6,0,L|448:288,1,62.5
144,288,101171,2,0,L|64:288,1,62.5
432,288,101444,6,0,L|352:288,1,62.5
80,288,101717,2,0,L|160:288,1,62.5
432,288,101990,6,0,L|352:288,1,62.5
80,288,102263,2,0,L|160:288,1,62.5
256,192,104171,5,4,0:0:0:0:
432,272,104717,2,0,L|384:272,23,31.2500011920929,0|0|0|0|0|0|0|0|0|0|0|0|0|0|0|0|0|0|0|0|0|0|0|0,0:0|0:0|0:0|0:0|0:0|0:0|0:0|0:0|0:0|0:0|0:0|0:0|0:0|0:0|0:0|0:0|0:0|0:0|0:0|0:0|0:0|0:0|0:0|0:0,0:0:0:0:
400,272,105808,6,0,L|432:224,1,31.2500011920929
224,224,105944,2,0,L|176:192,1,31.2500011920929,2|0,0:0|0:0,0:0:0:0:
480,208,106080,2,0,L|480:96,1,93.7500035762788
384,128,106353,1,4,0:0:0:0:
224,128,106398,1,4,0:0:0:0:
144,272,106626,6,0,L|144:224,5,31.2500011920929,0|0|0|0|0|0,0:0|0:0|0:0|0:0|0:0|0:0,0:0:0:0:
192,240,106899,6,0,L|192:200,6,31.2500011920929,0|0|0|0|0|0|2,0:0|0:0|0:0|0:0|0:0|0:0|0:0,0:0:0:0:
80,192,107216,6,0,L|24:136,1,62.5000023841859,0|2,0:0|0:0,0:0:0:0:
240,224,107352,2,0,L|308:176,1,62.5000023841859,0|2,0:0|0:0,0:0:0:0:
80,168,107489,2,0,L|28:116,1,62.5000023841859,0|2,0:0|0:0,0:0:0:0:
224,192,107625,2,0,L|292:144,1,62.5000023841859,0|2,0:0|0:0,0:0:0:0:
64,208,107762,2,0,L|12:156,1,62.5000023841859,0|2,0:0|0:0,0:0:0:0:
224,176,107898,1,0,0:0:0:0:
240,128,107989,6,0,L|256:96,6,31.2500011920929,0|0|0|0|0|0|2,0:0|0:0|0:0|0:0|0:0|0:0|0:0,0:0:0:0:
0,144,108307,6,0,L|64:48,1,93.7500035762788,0|2,0:0|0:0,0:0:0:0:
352,80,108489,6,0,L|336:48,7,31.2500011920929
48,160,108853,6,2,L|48:128,5,31.2500011920929,0|0|0|0|0|0,0:0|0:0|0:0|0:0|0:0|0:0,0:0:0:0:
400,144,109125,6,4,L|416:96,22,31.2500011920929,0|0|0|0|0|0|0|0|0|0|0|0|0|0|0|0|0|0|0|0|0|0|0,0:0|0:0|0:0|0:0|0:0|0:0|0:0|0:0|0:0|0:0|0:0|0:0|0:0|0:0|0:0|0:0|0:0|0:0|0:0|0:0|0:0|0:0|0:0,0:0:0:0:
409,114,110171,6,0,L|384:64,1,31.2500011920929,2|0,0:0|0:0,0:0:0:0:
240,128,110308,2,0,L|208:96,1,31.2500011920929,2|0,0:0|0:0,0:0:0:0:
480,112,110444,2,0,L|480:64,1,31.2500011920929,2|0,0:0|0:0,0:0:0:0:
408,152,110580,6,0,L|292:152,1,93.7500035762788,2|0,0:0|0:0,0:0:0:0:
32,160,110853,2,0,L|40:124,1,31.2500011920929,4|4,0:0|0:0,0:0:0:0:
352,224,110989,6,0,L|352:256,5,31.2500011920929,0|0|0|0|0|0,0:0|0:0|0:0|0:0|0:0|0:0,0:0:0:0:
320,224,111262,6,0,L|364:248,5,31.2500011920929,0|0|0|0|0|0,0:0|0:0|0:0|0:0|0:0|0:0,0:0:0:0:
320,224,111534,6,0,L|336:176,1,31.2500011920929,2|0,0:0|0:0,0:0:0:0:
128,176,111671,2,0,L|80:176,1,31.2500011920929,2|0,0:0|0:0,0:0:0:0:
432,160,111807,2,0,L|480:160,1,31.2500011920929,2|0,0:0|0:0,0:0:0:0:
176,128,111943,2,0,L|144:128,1,31.2500011920929,2|0,0:0|0:0,0:0:0:0:
384,144,112080,2,0,L|416:144,1,31.2500011920929,2|0,0:0|0:0,0:0:0:0:
224,80,112216,2,0,L|192:80,1,31.2500011920929,2|0,0:0|0:0,0:0:0:0:
448,80,112352,6,0,P|400:256|224:336,1,375.000014305115,0|10,0:0|0:0,0:0:0:0:
48,272,112989,2,0,L|112:304,1,62.5000023841859,8|14,0:0|0:0,0:0:0:0:
416,304,113171,2,0,L|416:224,1,62.5000023841859,8|14,0:0|0:0,0:0:0:0:
272,224,113443,6,0,L|288:192,11,31.2500011920929
336,176,113989,6,0,L|320:144,5,31.2500011920929,0|0|0|0|0|0,0:0|0:0|0:0|0:0|0:0|0:0,0:0:0:0:
336,144,114261,6,0,L|288:128,1,31.2500011920929,2|0,0:0|0:0,0:0:0:0:
112,144,114398,2,0,L|80:128,1,31.2500011920929,2|0,0:0|0:0,0:0:0:0:
290,148,114534,2,0,L|322:148,1,31.2500011920929,2|0,0:0|0:0,0:0:0:0:
512,96,114670,2,0,L|512:48,1,31.2500011920929,2|0,0:0|0:0,0:0:0:0:
224,144,114807,2,0,L|192:144,1,31.2500011920929,2|0,0:0|0:0,0:0:0:0:
16,96,114943,2,0,L|128:48,1,93.7500035762788
432,112,115216,2,0,L|432:64,1,31.2500011920929
320,288,115398,6,0,L|320:240,5,31.2500011920929
368,224,115670,6,0,L|368:192,4,31.2500011920929,0|0|0|0|0,0:0|0:0|0:0|0:0|0:0,0:0:0:0:
400,176,115898,2,0,L|400:128,1,31.2500011920929,2|0,0:0|0:0,0:0:0:0:
240,192,116034,2,0,L|192:176,1,31.2500011920929,2|0,0:0|0:0,0:0:0:0:
48,176,116170,2,0,L|0:160,1,31.2500011920929,2|0,0:0|0:0,0:0:0:0:
208,112,116307,1,2,0:0:0:0:
448,112,116352,2,0,L|512:80,1,62.5000023841859,0|2,0:0|0:0,0:0:0:0:
288,96,116488,2,0,L|208:80,1,62.5000023841859,2|0,0:0|0:0,0:0:0:0:
16,128,116625,1,2,0:0:0:0:
80,320,116716,6,0,B|272:256|272:240|272:240|128:224|128:224|112:208,1,375.000014305115,0|4,0:0|0:0,0:0:0:0:
480,224,117534,1,12,0:0:0:0:
240,176,117806,6,0,L|256:144,5,31.2500011920929,0|0|0|0|0|0,0:0|0:0|0:0|0:0|0:0|0:0,0:0:0:0:
448,240,118079,6,2,L|496:48,1,187.500007152558
448,48,118397,1,0,0:0:0:0:
192,272,118488,6,0,L|144:272,1,31.2500011920929,2|0,0:0|0:0,0:0:0:0:
400,272,118625,2,0,L|432:272,1,31.2500011920929,2|2,0:0|0:0,0:0:0:0:
176,224,118761,2,0,L|128:224,1,31.2500011920929,2|2,0:0|0:0,0:0:0:0:
416,224,118898,2,0,L|448:224,1,31.2500011920929,2|0,0:0|0:0,0:0:0:0:
160,160,119034,2,0,L|112:160,1,31.2500011920929,2|0,0:0|0:0,0:0:0:0:
432,159,119171,2,2,L|224:159,1,187.500007152558,0|2,0:0|0:0,0:0:0:0:
32,160,119488,1,0,0:0:0:0:
80,288,119715,6,0,L|112:256,5,31.2500011920929,0|0|0|0|0|0,0:0|0:0|0:0|0:0|0:0|0:0,0:0:0:0:
128,256,119988,6,0,L|160:224,6,31.2500011920929,0|0|0|0|0|0|0,0:0|0:0|0:0|0:0|0:0|0:0|0:0,0:0:0:0:
448,256,120397,6,0,L|336:256,1,93.7500035762788,0|8,0:0|0:0,0:0:0:0:
96,256,120670,2,0,L|208:256,2,93.7500035762788,0|0|8,0:0|0:0|0:0,0:0:0:0:
416,208,121079,2,0,L|464:112,1,93.7500035762788
128,160,121352,2,0,L|224:160,2,93.7500035762788,8|0|8,0:0|0:0|0:0,0:0:0:0:
352,112,121761,2,0,L|464:112,1,93.7500035762788
256,304,122170,6,0,L|256:272,24,31.2500011920929
304,256,123306,1,0,0:0:0:0:
144,256,123351,1,0,0:0:0:0:
80,192,123442,1,0,0:0:0:0:
240,192,123488,1,0,0:0:0:0:
480,208,123578,2,0,L|480:96,1,93.7500035762788
384,128,123851,1,0,0:0:0:0:
224,128,123896,1,0,0:0:0:0:
192,272,124079,6,0,L|192:224,5,31.2500011920929
224,240,124352,6,0,L|224:200,7,31.2500011920929,0|0|0|0|0|0|2|0,0:0|0:0|0:0|0:0|0:0|0:0|0:0|0:0,0:0:0:0:
96,96,124760,2,0,L|48:96,1,31.2500011920929,2|0,0:0|0:0,0:0:0:0:
304,112,124897,2,0,L|352:112,1,31.2500011920929,2|0,0:0|0:0,0:0:0:0:
240,96,125033,2,0,L|208:96,1,31.2500011920929,2|0,0:0|0:0,0:0:0:0:
464,96,125170,2,0,L|512:96,1,31.2500011920929,2|0,0:0|0:0,0:0:0:0:
400,96,125306,2,0,L|352:96,1,31.2500011920929,2|0,0:0|0:0,0:0:0:0:
160,176,125442,6,0,L|176:144,6,31.2500011920929,0|0|0|0|0|0|2,0:0|0:0|0:0|0:0|0:0|0:0|0:0,0:0:0:0:
336,176,125760,6,0,L|432:160,1,93.7500035762788,0|2,0:0|0:0,0:0:0:0:
32,176,125942,6,0,L|16:144,7,31.2500011920929
352,96,126306,6,2,L|352:64,5,31.2500011920929,0|0|0|0|0|0,0:0|0:0|0:0|0:0|0:0|0:0,0:0:0:0:
272,112,126578,6,4,L|288:64,22,31.2500011920929,0|0|0|0|0|0|0|0|0|0|0|0|0|0|0|0|0|0|0|0|0|0|0,0:0|0:0|0:0|0:0|0:0|0:0|0:0|0:0|0:0|0:0|0:0|0:0|0:0|0:0|0:0|0:0|0:0|0:0|0:0|0:0|0:0|0:0|0:0,0:0:0:0:
64,256,127624,6,0,L|39:206,1,31.2500011920929,2|0,0:0|0:0,0:0:0:0:
336,192,127761,2,0,L|304:160,1,31.2500011920929,2|0,0:0|0:0,0:0:0:0:
96,112,127897,2,0,L|96:64,1,31.2500011920929,2|0,0:0|0:0,0:0:0:0:
320,128,128033,6,0,L|204:128,1,93.7500035762788,2|0,0:0|0:0,0:0:0:0:
464,80,128306,2,0,L|472:44,1,31.2500011920929
240,272,128442,6,0,L|240:320,5,31.2500011920929,0|0|0|0|0|0,0:0|0:0|0:0|0:0|0:0|0:0,0:0:0:0:
208,272,128715,6,0,L|252:296,5,31.2500011920929,0|0|0|0|0|0,0:0|0:0|0:0|0:0|0:0|0:0,0:0:0:0:
96,240,128987,6,0,L|40:184,1,62.5000023841859,0|2,0:0|0:0,0:0:0:0:
204,272,129123,2,0,L|272:224,1,62.5000023841859,0|2,0:0|0:0,0:0:0:0:
96,216,129260,2,0,L|44:164,1,62.5000023841859,0|2,0:0|0:0,0:0:0:0:
240,192,129396,1,0,0:0:0:0:
416,192,129487,2,0,L|448:160,1,31.2500011920929,2|0,0:0|0:0,0:0:0:0:
192,144,129624,2,0,L|144:128,1,31.2500011920929,2|0,0:0|0:0,0:0:0:0:
448,80,129805,6,0,P|272:192|96:224,1,375.000014305115,0|10,0:0|0:0,0:0:0:0:
368,224,130442,1,0,0:0:0:0:
320,288,130533,1,0,0:0:0:0:
64,224,130624,1,0,0:0:0:0:
64,288,130714,1,0,0:0:0:0:
112,192,130896,6,0,L|144:144,12,31.2500011920929
256,160,131487,1,0,0:0:0:0:
384,160,131533,1,0,0:0:0:0:
512,160,131578,1,0,0:0:0:0:
368,96,131623,1,0,0:0:0:0:
224,96,131669,1,0,0:0:0:0:
80,96,131714,6,0,L|32:80,1,31.2500011920929,2|0,0:0|0:0,0:0:0:0:
256,64,131851,2,0,L|304:64,1,31.2500011920929,2|0,0:0|0:0,0:0:0:0:
480,64,131987,2,0,L|528:64,1,31.2500011920929,2|0,0:0|0:0,0:0:0:0:
256,64,132123,2,0,L|224:64,1,31.2500011920929,2|0,0:0|0:0,0:0:0:0:
48,96,132260,2,0,L|-16:32,1,62.5000023841859
304,128,132532,1,4,0:0:0:0:
448,128,132578,1,4,0:0:0:0:
320,256,132805,6,0,L|288:224,5,31.2500011920929
352,208,133078,2,0,L|352:176,5,31.2500011920929
384,176,133351,2,0,L|384:128,1,31.2500011920929,2|0,0:0|0:0,0:0:0:0:
208,128,133487,2,0,L|160:128,1,31.2500011920929,2|0,0:0|0:0,0:0:0:0:
432,80,133623,2,0,L|480:80,1,31.2500011920929,2|0,0:0|0:0,0:0:0:0:
272,64,133760,2,0,L|224:64,1,31.2500011920929,2|0,0:0|0:0,0:0:0:0:
80,64,133896,2,0,L|48:64,1,31.2500011920929,2|0,0:0|0:0,0:0:0:0:
304,176,134032,2,0,L|352:176,1,31.2500011920929,2|0,0:0|0:0,0:0:0:0:
460,296,134169,6,8,L|412:328,1,31.2500011920929,12|0,0:0|0:0,0:0:0:0:
328,296,134306,2,8,L|292:324,1,31.2500011920929,12|0,0:0|0:0,0:0:0:0:
196,296,134442,2,8,L|160:316,1,31.2500011920929,12|0,0:0|0:0,0:0:0:0:
68,292,134578,2,8,L|28:312,1,31.2500011920929,12|0,0:0|0:0,0:0:0:0:
240,224,134714,2,0,P|320:192|304:80,1,187.500007152558,2|2,0:0|0:0,0:0:0:0:
400,176,135259,6,0,L|432:144,5,31.2500011920929
224,80,135532,2,0,L|32:80,1,187.500007152558,0|2,0:0|0:0,0:0:0:0:
160,128,135850,2,0,L|224:176,1,62.5000023841859,0|2,0:0|0:0,0:0:0:0:
32,144,135987,2,0,L|-16:192,1,62.5000023841859,0|2,0:0|0:0,0:0:0:0:
160,128,136123,2,0,L|224:176,1,62.5000023841859,0|2,0:0|0:0,0:0:0:0:
32,144,136260,2,0,L|-16:192,1,62.5000023841859,0|2,0:0|0:0,0:0:0:0:
160,128,136396,2,0,L|224:176,1,62.5000023841859,0|2,0:0|0:0,0:0:0:0:
32,144,136533,2,0,L|-16:192,1,62.5000023841859,0|2,0:0|0:0,0:0:0:0:
384,224,136668,2,0,L|448:224,1,62.5000023841859,0|2,0:0|0:0,0:0:0:0:
192,208,136805,2,0,L|128:208,1,62.5000023841859,0|2,0:0|0:0,0:0:0:0:
448,192,136987,1,4,0:0:0:0:
352,112,137168,6,0,L|320:80,5,31.2500011920929
288,80,137441,2,0,L|272:112,5,31.2500011920929
112,240,137714,2,0,L|32:240,2,46.8750017881394
384,240,137986,2,0,L|448:144,1,93.7500035762788
160,128,138259,2,0,L|80:48,2,93.7500035762788
384,144,138668,2,0,L|432:48,1,93.7500035762788
176,160,138941,2,0,L|128:64,1,93.7500035762788
368,288,139214,2,0,L|480:48,1,250.000009536744
