osu file format v12

[General]
AudioFilename: DenporuP - Hitorinbo Envy.mp3
AudioLeadIn: 1234
PreviewTime: 51027
Countdown: 0
SampleSet: Normal
StackLeniency: 0.7
Mode: 0
LetterboxInBreaks: 0

[Editor]
DistanceSpacing: 1.2
BeatDivisor: 4
GridSize: 4

[Metadata]
Title:Hitorinbo Envy
TitleUnicode:独りんぼエンヴィー
Artist:DenporuP
ArtistUnicode:電ポルP
Creator:SapphireGhost
Version:Easy
Source:
Tags:Milkshake koyori Vocaloid Hatsune Miku Solitary Hide and Seek
BeatmapID:273135
BeatmapSetID:103260

[Difficulty]
HPDrainRate:2
CircleSize:3
OverallDifficulty:2
ApproachRate:3
SliderMultiplier:1.12
SliderTickRate:1

[Events]
//Background and Video events
Video,-444,"ichininosanshi.avi"
0,0,"hands.jpg",0,0
//Break Periods
2,68073,71482
//Storyboard Layer 0 (Background)
//Storyboard Layer 1 (Fail)
//Storyboard Layer 2 (Pass)
//Storyboard Layer 3 (Foreground)
//Storyboard Sound Samples
//Background Colour Transformations
3,100,128,0,0

[TimingPoints]
573,454.545454545455,4,1,0,69,1,0
22391,-100,4,2,0,69,0,0
33300,-100,4,1,0,69,0,0
51482,-100,4,1,0,69,0,1
67845,-100,4,1,0,69,0,0
89663,-100,4,1,0,69,0,1
106027,-100,4,2,0,69,0,0
146027,-117.647058823529,4,2,0,69,0,0
147845,-142.857142857143,4,2,0,69,0,0
149663,-181.818181818182,4,2,0,69,0,0
151482,-200,4,2,0,69,0,0
166482,-200,4,1,0,69,0,0
167391,-100,4,1,0,69,0,0
169663,-100,4,1,0,69,0,1
182391,-100,4,1,0,69,0,0

[Colours]
Combo1 : 130,130,120
Combo2 : 130,170,160
Combo3 : 170,160,140
Combo4 : 70,110,110

[HitObjects]
124,112,573,2,0,B|204:192|204:192|316:192,1,224,0|8,0:0|0:0,0:0:0:0:
448,188,1936,1,0,0:0:0:0:
384,304,2391,6,0,L|272:304,1,112,0|0,0:0|0:0,0:0:0:0:
148,356,3300,2,0,L|32:356,1,112,8|0,0:0|0:0,0:0:0:0:
0,224,4209,6,0,B|0:112|0:112|80:32,1,224,0|8,0:0|0:0,0:0:0:0:
168,136,5573,1,0,0:0:0:0:
288,80,6027,6,0,B|400:80|400:80|500:132,1,224,0|8,0:0|0:0,0:0:0:0:
500,268,7391,1,8,0:0:0:0:
256,308,8300,5,8,0:0:0:0:
120,308,8754,2,0,B|116:252|116:252|148:204,1,112,0|8,0:0|0:0,0:0:0:0:
24,156,9663,6,0,L|24:44,1,112,0|8,0:0|0:0,0:0:0:0:
148,92,10573,2,0,L|256:64,1,112,0|8,0:0|0:0,0:0:0:0:
304,192,11482,5,2,0:0:0:0:
412,112,11936,1,8,0:0:0:0:
452,240,12391,2,0,B|452:296|452:296|412:336,1,112,2|8,0:0|0:0,0:0:0:0:
276,336,13300,5,2,0:0:0:0:
148,296,13754,2,0,L|40:264,1,112,8|0,0:0|0:0,0:0:0:0:
136,168,14663,2,0,L|244:200,1,112,2|0,0:0|0:0,0:0:0:0:
368,260,15573,6,0,B|424:260|424:260|476:240,2,112,8|2|8,0:0|0:0|0:0,0:0:0:0:
404,132,16936,6,0,L|288:132,1,112,0|8,0:0|0:0,0:0:0:0:
172,192,17845,1,2,0:0:0:0:
52,136,18300,2,0,B|40:192|40:192|52:248,1,112,8|2,0:0|0:0,0:0:0:0:
156,328,19209,5,8,0:0:0:0:
284,288,19663,2,0,B|340:288|340:288|392:308,1,112,0|8,0:0|0:0,0:0:0:0:
340,184,20573,6,0,L|452:184,1,112,2|8,0:0|0:0,0:0:0:0:
400,60,21482,1,0,0:0:0:0:
264,60,21936,1,8,0:0:0:0:
144,120,22391,6,0,P|96:216|144:316,2,224,0|2|0,1:0|0:0|1:0,0:0:0:0:
256,192,24663,1,0,0:0:0:0:
288,60,25118,2,0,P|344:48|396:60,1,112,2|0,0:0|1:0,0:0:0:0:
492,156,26027,6,0,P|504:248|416:336,1,224,0|2,1:0|0:0,0:0:0:0:
284,336,27391,1,0,0:0:0:0:
188,240,27845,2,0,P|120:256|64:292,1,112,0|0,1:0|0:0,0:0:0:0:
40,148,28754,2,0,P|108:132|164:96,1,112,0|0,0:0|1:0,0:0:0:0:
256,36,29663,6,0,L|480:60,1,224,0|2,1:0|0:0,0:0:0:0:
508,192,31027,1,0,0:0:0:0:
404,276,31482,2,0,P|256:344|108:276,1,336,0|2,1:0|0:0,0:0:0:0:
152,148,33300,6,0,B|192:116|256:124|256:148|256:172|320:180|360:148,3,224,4|8|2|8,0:0|0:0|0:0|0:0,0:0:0:0:
456,52,36482,1,0,0:0:0:0:
512,176,36936,6,0,P|456:276|360:320,1,224,4|8,0:0|0:0,0:0:0:0:
368,52,38754,2,0,L|144:52,1,224,0|8,0:0|0:0,0:0:0:0:
48,148,40118,1,0,0:0:0:0:
144,240,40573,6,0,P|248:260|336:192,1,224,0|8,0:0|0:0,0:0:0:0:
76,120,42391,2,0,P|4:200|25:309,1,224,0|8,0:0|0:0,0:0:0:0:
144,364,43754,1,0,0:0:0:0:
276,340,44209,6,0,L|496:280,1,224,0|8,0:0|0:0,0:0:0:0:
364,44,46027,2,0,L|143:103,1,224,0|8,0:0|0:0,0:0:0:0:
48,192,47391,1,2,0:0:0:0:
92,320,47845,6,0,P|140:288|172:244,1,112,4|8,0:0|0:0,0:0:0:0:
300,284,48754,2,0,P|356:296|408:284,1,112,2|8,0:0|0:0,0:0:0:0:
356,160,49663,6,0,L|384:51,2,112,0|8|2,0:0|0:0|0:0,0:0:0:0:
224,132,51027,5,2,2:0:0:0:
104,192,51482,6,0,P|52:212|24:260,1,112,2|0,0:0|0:0,0:0:0:0:
108,276,52163,2,0,P|208:316|316:276,1,224,2|4,0:0|0:0,0:0:0:0:
512,276,53754,5,2,0:0:0:0:
416,180,54209,1,8,2:0:0:0:
320,88,54663,1,8,0:0:0:0:
192,132,55118,6,0,L|80:132,1,112,2|0,0:0|0:0,0:0:0:0:
4,176,55800,2,0,B|40:216|40:216|216:216,1,224,2|4,0:0|0:0,0:0:0:0:
380,324,57391,5,2,0:0:0:0:
408,192,57845,1,8,2:0:0:0:
432,60,58300,1,8,1:0:0:0:
300,88,58754,6,0,P|320:140|300:192,1,112,2|0,0:0|0:0,0:0:0:0:
232,244,59436,2,0,B|196:188|234:140|234:140|196:88|232:36,1,224,2|4,0:0|0:0,0:0:0:0:
60,140,61027,5,2,0:0:0:0:
80,272,61482,1,8,2:0:0:0:
188,356,61936,1,8,0:0:0:0:
324,356,62391,6,0,P|368:320|424:304,1,112,2|8,0:0|0:0,0:0:0:0:
352,188,63300,2,0,P|308:224|256:240,1,112,2|8,0:0|0:0,0:0:0:0:
180,204,63982,6,0,P|209:73|352:188,1,392,2|8,0:0|0:0,0:0:0:0:
140,356,66482,5,2,0:0:0:0:
44,260,66936,1,8,0:0:0:0:
44,124,67391,1,2,0:0:0:0:
140,28,67845,1,4,0:0:0:0:
188,112,74209,5,8,0:0:0:0:
322,112,74663,1,8,0:0:0:0:
360,240,75118,6,0,P|256:276|152:240,1,224,4|8,0:0|0:0,0:0:0:0:
56,336,76482,1,0,0:0:0:0:
0,212,76936,6,0,L|158:53,1,224,0|8,0:0|0:0,0:0:0:0:
256,148,78300,1,2,0:0:0:0:
380,100,78754,6,0,P|436:104|480:136,1,112
388,232,79663,2,0,L|279:260,1,112,8|0,0:0|0:0,0:0:0:0:
148,292,80573,5,0,0:0:0:0:
60,192,81027,1,0,0:0:0:0:
76,60,81482,2,0,P|128:76|172:116,1,112,8|2,0:0|0:0,0:0:0:0:
288,44,82391,6,0,P|400:48|452:240,1,336,4|8,0:0|0:0,0:0:0:0:
392,360,84209,5,2,0:0:0:0:
256,360,84663,5,2,0:0:0:0:
120,360,85118,6,0,P|72:328|48:280,1,112,2|8,0:0|0:0,0:0:0:0:
24,148,86027,5,4,0:0:0:0:
152,192,86482,1,0,0:0:0:0:
240,92,86936,6,0,P|324:80|396:120,2,168,8|2|0,0:0|0:0|0:0,0:0:0:0:
300,212,88754,1,8,0:0:0:0:
212,316,89209,5,2,2:0:0:0:
84,280,89663,6,0,B|32:256|32:256|8:204,1,112,2|0,0:0|0:0,0:0:0:0:
96,192,90345,2,0,B|96:80|96:80|196:28,1,224,2|4,0:0|0:0,0:0:0:0:
388,80,91936,5,2,0:0:0:0:
460,192,92391,1,8,2:0:0:0:
388,304,92845,1,8,0:0:0:0:
268,248,93300,6,0,P|212:252|160:280,1,112,2|0,0:0|0:0,0:0:0:0:
100,336,93982,2,0,P|32:252|72:152,1,224,2|4,0:0|0:0,0:0:0:0:
256,72,95573,5,2,0:0:0:0:
372,140,96027,1,8,2:0:0:0:
488,208,96482,1,8,0:0:0:0:
428,328,96936,6,0,P|376:348|324:328,1,112,2|0,0:0|0:0,0:0:0:0:
376,264,97618,2,0,B|324:228|276:252|254:284|254:284|168:284,1,224,2|4,0:0|0:0,0:0:0:0:
24,144,99209,5,2,0:0:0:0:
160,144,99663,1,8,2:0:0:0:
256,52,100118,1,8,0:0:0:0:
392,52,100573,6,0,P|448:48|500:76,1,112,2|8,0:0|0:0,0:0:0:0:
416,180,101482,2,0,P|436:226|430:295,1,112,2|8,0:0|0:0,0:0:0:0:
372,342,102163,6,0,P|259:223|415:179,1,392,2|8,0:0|0:0,0:0:0:0:
188,36,104663,5,2,0:0:0:0:
70,103,105118,1,8,0:0:0:0:
35,235,105573,1,2,0:0:0:0:
103,352,106027,5,4,0:0:0:0:
256,132,106936,1,2,0:0:0:0:
408,352,107845,6,0,P|456:316|488:272,1,112,2|0,0:0|0:0,0:0:0:0:
360,224,108754,2,0,P|408:120|360:28,1,224,2|4,0:0|0:0,0:0:0:0:
148,192,110573,5,2,0:0:0:0:
363,355,111482,2,0,L|333:248,1,112,2|0,0:0|0:0,0:0:0:0:
468,256,112391,2,0,L|408:35,1,224,2|4,0:0|0:0,0:0:0:0:
304,120,113754,5,8,0:0:0:0:
36,120,114663,1,8,0:0:0:0:
116,228,115118,6,0,P|168:240|224:228,1,112,0|8,0:0|0:0,0:0:0:0:
320,324,116027,2,0,L|428:295,1,112,0|8,0:0|0:0,0:0:0:0:
512,192,116936,5,0,0:0:0:0:
476,64,117391,1,8,0:0:0:0:
360,132,117845,2,0,P|304:128|256:100,1,112,0|8,0:0|0:0,0:0:0:0:
160,192,118754,5,8,0:0:0:0:
24,192,119209,1,8,0:0:0:0:
88,312,119663,1,8,0:0:0:0:
352,256,120573,6,0,P|428:252|492:192,2,168,4|0|2,0:0|1:0|0:0,0:0:0:0:
376,124,122391,5,0,1:0:0:0:
256,64,122845,1,2,0:0:0:0:
136,124,123300,2,0,P|80:124|32:152,1,112,2|2,0:1|0:0,0:0:0:0:
116,256,124209,6,0,P|80:324|0:360,2,168,4|0|2,0:0|1:0|0:0,0:0:0:0:
212,352,126027,6,0,P|256:324|320:312,1,112,0|2,1:0|0:0,0:0:0:0:
444,352,126936,1,2,0:1:0:0:
512,236,127391,1,2,0:0:0:0:
384,200,127845,6,0,P|408:124|472:64,2,168,4|0|2,0:0|1:0|0:0,0:0:0:0:
256,152,129663,6,0,L|152:192,1,112,0|2,1:0|0:0,0:0:0:0:
56,288,130573,1,2,0:1:0:0:
180,340,131027,1,2,0:0:0:0:
292,264,131482,6,0,P|388:312|488:264,2,224,4|0|2,0:0|1:0|0:0,0:0:0:0:
388,172,133754,2,0,P|440:136|496:128,2,112,0|2|0,1:0|0:0|1:0,0:0:0:0:
256,140,135118,5,2,0:0:0:0:
256,276,135573,1,0,1:0:0:0:
140,212,136027,1,2,0:0:0:0:
140,348,136482,1,0,1:0:0:0:
28,276,136936,6,0,P|12:176|96:88,1,224,2|4,0:0|0:0,0:0:0:0:
212,32,138300,1,8,0:0:0:0:
304,128,138754,6,0,P|360:124|408:152,1,112,2|0,0:0|1:0,0:0:0:0:
376,280,139663,2,0,P|320:284|272:256,1,112,2|0,0:0|1:0,0:0:0:0:
180,352,140573,6,0,L|18:190,1,224,2|4,0:0|0:0,0:0:0:0:
92,80,141936,1,8,0:0:0:0:
216,136,142391,6,0,P|264:136|332:104,1,112,2|0,0:0|1:0,0:0:0:0:
456,84,143300,2,0,L|427:192,1,112,2|0,0:0|1:0,0:0:0:0:
392,324,144209,5,4,0:0:0:0:
256,324,144663,1,0,1:0:0:0:
140,256,145118,2,0,P|80:256|32:232,1,112,2|0,0:0|1:0,0:0:0:0:
108,144,146027,6,0,P|184:90|278:98,1,190.400003631592,4|0,0:0|1:0,0:0:0:0:
384,140,147391,1,8,0:0:0:0:
380,256,147845,6,0,P|317:299|241:293,1,156.799995214844,4|0,0:0|1:0,0:0:0:0:
152,256,149209,1,8,0:0:0:0:
160,161,149663,6,0,P|210:126|270:131,1,123.200003759766,4|0,0:0|1:0,0:0:0:0:
348,172,151027,5,2,0:0:0:0:
424,128,151482,6,0,B|472:228|472:228|424:332,1,224,2|2,0:0|0:0,0:0:0:0:
312,316,153754,5,0,0:0:0:0:
200,300,154209,1,2,0:0:0:0:
88,284,154663,1,0,0:0:0:0:
156,196,155118,6,0,B|120:172|120:172|80:172,2,84,2|2|0,0:0|0:0|0:0,0:0:0:0:
236,116,156936,6,0,L|348:116,1,112,2|2,0:0|0:0,0:0:0:0:
448,60,158300,1,0,0:0:0:0:
448,172,158754,6,0,B|408:244|408:244|328:272,1,168,2|0,0:0|0:0,0:0:0:0:
256,360,160573,6,0,B|180:324|180:324|96:324,1,168,2|0,0:0|0:0,0:0:0:0:
96,212,162391,6,0,B|24:167|24:167|7:99|7:99|55:55|55:55|96:79|96:79|136:55|136:55|184:99|184:99|167:167|167:167|157:174,1,448,2|2,0:0|0:0,0:0:0:0:
256,236,166482,5,0,0:0:0:0:
472,296,167391,6,0,L|472:168,1,112,0|4,0:0|0:0,0:0:0:0:
392,104,168300,5,8,2:0:0:0:
312,24,168754,1,8,2:0:0:0:
236,108,169209,5,0,0:0:0:0:
132,64,169663,5,4,0:0:0:0:
87,164,170118,1,0,0:0:0:0:
114,271,170573,1,4,0:0:0:0:
201,338,171027,1,0,0:0:0:0:
311,338,171482,1,4,0:0:0:0:
397,271,171936,1,0,0:0:0:0:
424,164,172391,1,4,0:0:0:0:
379,63,172845,1,0,0:0:0:0:
256,120,173300,6,0,L|176:199,1,112,2|0,0:0|0:0,0:0:0:0:
220,276,173982,2,0,P|115:261|101:157,1,224,2|4,0:0|0:0,0:0:0:0:
256,28,175573,5,2,0:0:0:0:
384,72,176027,1,8,2:0:0:0:
444,192,176482,1,8,0:0:0:0:
384,312,176936,6,0,P|332:292|276:296,1,112,2|8,0:0|0:0,0:0:0:0:
192,192,177845,2,0,P|144:216|80:208,1,112,2|8,0:0|0:0,0:0:0:0:
28,148,178527,6,0,P|147:35|192:191,1,392,2|8,0:0|0:0,0:0:0:0:
348,132,180573,5,2,0:0:0:0:
314,263,181027,1,8,0:0:0:0:
196,331,181482,1,2,0:0:0:0:
65,295,181936,1,8,0:0:0:0:
256,192,182391,12,4,185118,0:0:0:0:
64,248,186027,6,0,P|52:192|64:136,1,112,2|2,0:0|0:0,0:0:0:0:
184,80,186936,2,0,P|196:136|184:192,1,112,2|2,0:0|0:0,0:0:0:0:
200,324,187845,6,0,L|312:324,1,112,2|8,0:0|2:0,0:0:0:0:
380,208,188754,2,0,L|492:208,1,112,8|0,0:0|0:0,0:0:0:0:
440,84,189663,6,0,L|331:55,1,112,2|2,0:0|0:0,0:0:0:0:
256,168,190573,2,0,L|147:139,1,112,2|2,0:0|0:0,0:0:0:0:
60,240,191482,6,0,P|117:242|165:266,1,112,2|2,0:0|0:0,0:0:0:0:
260,360,192391,2,0,P|317:357|365:333,1,112,2|8,0:0|0:0,0:0:0:0:
460,236,193300,6,0,P|464:132|368:76,1,224,4|8,0:0|0:0,0:0:0:0:
244,124,194663,1,2,0:0:0:0:
364,188,195118,6,0,P|316:240|172:240,1,224,2|8,0:0|0:0,0:0:0:0:
76,144,196482,1,0,0:0:0:0:
36,272,196936,5,4,0:0:0:0:
196,56,197845,2,0,P|244:136|292:56,1,224,2|4,0:0|0:0,0:0:0:0:
