osu file format v14

[General]
AudioFilename: v flower Vague Lust Lover .mp3
AudioLeadIn: 0
PreviewTime: 53277
Countdown: 0
SampleSet: Soft
StackLeniency: 0.7
Mode: 0
LetterboxInBreaks: 0
WidescreenStoryboard: 0

[Editor]
Bookmarks: 37348
DistanceSpacing: 1.4
BeatDivisor: 4
GridSize: 4
TimelineZoom: 1.3

[Metadata]
Title:Aimai Retsujou Love
TitleUnicode:曖昧劣情Lover
Artist:Denpoll-P
ArtistUnicode:電ポルP
Creator:annika69
Version:Hard
Source:
Tags:Koyori Vocaloid v flower ブイフラワ Vague Lust
BeatmapID:796152
BeatmapSetID:362494

[Difficulty]
HPDrainRate:6
CircleSize:4
OverallDifficulty:6
ApproachRate:8
SliderMultiplier:1.50000000596046
SliderTickRate:1

[Events]
//Background and Video events
0,0,"thumbnail8f8e75671a7accc55b348aaa00e5aff7.jpg",0,0
//Break Periods
//Storyboard Layer 0 (Background)
//Storyboard Layer 1 (Fail)
//Storyboard Layer 2 (Pass)
//Storyboard Layer 3 (Foreground)
//Storyboard Sound Samples

[TimingPoints]
778,454.545454545455,4,2,1,60,1,0
8050,-83.3333333333333,4,2,2,60,0,1
14868,-100,4,2,2,60,0,0
15550,454.545454545455,4,2,2,60,1,0
52368,454.545454545455,4,2,2,60,1,0
53504,-76.9230769230769,4,2,2,60,0,1
90095,-100,4,2,2,60,0,0
151458,454.545454545455,4,2,2,60,1,0
196003,454.545454545455,4,2,2,60,1,0

[Colours]
Combo1 : 139,136,181
Combo2 : 204,108,85
Combo3 : 205,82,85

[HitObjects]
244,128,778,6,0,B|212:128|212:128|252:148|252:148|296:196,1,112.500000447034,2|0,0:0|0:0,0:0:0:0:
276,174,1231,1,8,0:0:0:0:
220,264,1459,2,0,P|184:256|140:220,2,75.000000298023
280,176,2140,1,8,0:0:0:0:
328,268,2367,1,0,0:0:0:0:
384,176,2596,6,0,B|416:176|416:176|372:156|372:156|332:108,1,112.500000447034,2|0,0:0|0:0,0:0:0:0:
349,133,3049,1,8,0:0:0:0:
424,56,3278,2,0,P|464:76|492:112,2,75.000000298023
320,40,3958,1,8,0:0:0:0:
252,120,4187,1,0,0:0:0:0:
356,140,4414,6,0,B|388:140|388:140|336:168|336:168|300:208,1,112.500000447034,2|0,0:0|0:0,0:0:0:0:
321,183,4868,1,8,0:0:0:0:
424,212,5095,2,0,P|456:184|476:144,2,75.000000298023
348,288,5777,1,8,0:0:0:0:
328,192,6004,1,0,0:0:0:0:
252,120,6232,6,0,B|236:92|236:92|232:136|232:136|204:200,1,112.500000447034,2|0,0:0|0:0,0:0:0:0:
184,180,6687,2,0,P|140:184|104:208,1,75.000000298023,8|0,0:0|0:0,0:0:0:0:
176,280,7141,2,0,P|228:272|272:228,1,112.500000447034,2|0,0:0|0:0,0:0:0:0:
292,200,7596,2,8,L|348:220,3,37.5000001490115
232,108,8050,6,0,P|328:96|392:164,1,179.999995222091,4|0,0:0|0:0,0:0:0:0:
364,272,8731,1,8,0:0:0:0:
252,328,8959,2,0,P|156:348|64:280,1,179.999995222091,4|0,0:0|0:0,0:0:0:0:
180,224,9641,1,8,0:0:0:0:
296,172,9868,2,0,P|384:140|424:48,1,179.999995222091,4|0,0:0|0:0,0:0:0:0:
300,44,10550,1,0,0:0:0:0:
188,104,10778,2,0,B|224:140|224:140|160:132|112:160|96:220,1,179.999995222091,4|0,0:0|0:0,0:0:0:0:
208,264,11458,1,8,0:0:0:0:
296,172,11687,2,0,B|308:144|296:108|296:108|348:100|348:100|384:40,1,179.999995222091,4|0,0:0|0:0,0:0:0:0:
256,32,12368,6,0,L|142:39,1,89.9999976110456,8|0,0:0|0:0,0:0:0:0:
104,148,12823,2,0,P|148:164|220:148,1,89.9999976110456
166,37,13278,1,8,0:0:0:0:
40,36,13504,2,0,P|-12:96|0:224,1,179.999995222091,4|0,0:0|0:0,0:0:0:0:
104,148,14187,1,8,0:0:0:0:
188,228,14414,2,0,B|180:264|180:264|228:244|228:244|256:248|256:248|312:236,1,134.999996416568,4|0,0:0|0:0,0:0:0:0:
304,232,14868,2,8,L|332:280,5,37.5000001490115
256,132,15549,6,0,P|348:120|388:64,1,150.000000596046,4|8,0:0|0:0,0:0:0:0:
288,32,16231,1,0,0:0:0:0:
184,56,16458,2,0,B|148:84|108:68|108:68|64:44|20:72,1,150.000000596046,0|8,0:0|0:0,0:0:0:0:
136,0,17140,2,0,L|164:176,1,150.000000596046
180,252,17822,1,8,0:0:0:0:
132,160,18049,1,0,0:0:0:0:
236,164,18276,2,0,P|276:92|260:28,1,150.000000596046,0|8,0:0|0:0,0:0:0:0:
168,80,18958,1,0,0:0:0:0:
132,180,19186,6,0,P|160:236|220:264,1,112.500000447034
228,244,19640,2,0,P|260:220|304:216,1,75.000000298023,8|0,0:0|0:0,0:0:0:0:
392,252,20095,2,0,P|392:168|324:112,1,150.000000596046,0|8,0:0|0:0,0:0:0:0:
293,214,20776,2,0,L|448:169,1,150.000000596046
456,164,21345,1,0,0:0:0:0:
476,156,21458,1,8,0:0:0:0:
440,56,21685,1,0,0:0:0:0:
357,121,21913,2,0,P|316:120|268:96,1,75.000000298023
293,214,22368,2,0,L|221:235,1,75.000000298023
200,336,22822,6,0,B|144:312|144:312|116:252,1,112.500000447034,2|0,0:0|0:0,0:0:0:0:
132,232,23276,2,0,P|96:200|52:204,1,75.000000298023,8|0,0:0|0:0,0:0:0:0:
40,300,23731,2,0,L|32:128,1,150.000000596046,0|8,0:0|0:0,0:0:0:0:
92,56,24413,2,0,B|84:80|84:80|144:60|144:60|228:72,1,150.000000596046
152,152,25094,1,8,0:0:0:0:
232,84,25322,1,0,0:0:0:0:
252,188,25549,2,0,P|284:212|336:224,2,75.000000298023,0|0|8,0:0|0:0|0:0,0:0:0:0:
332,120,26231,1,0,0:0:0:0:
416,180,26459,6,0,B|428:239|428:239|392:292,1,112.500000447034,2|0,0:0|0:0,0:0:0:0:
372,296,26912,2,0,P|366:343|394:377,1,75.000000298023,8|0,0:0|0:0,0:0:0:0:
476,324,27367,2,0,P|508:248|496:172,1,150.000000596046,0|8,0:0|0:0,0:0:0:0:
412,112,28049,2,0,P|336:152|260:132,1,150.000000596046
328,52,28731,1,8,0:0:0:0:
252,120,28958,1,0,0:0:0:0:
232,16,29185,2,2,L|156:60,1,75.000000298023
80,172,29640,2,2,L|149:131,1,75.000000298023,10|2,0:0|0:0,0:0:0:0:
252,120,30095,6,0,P|260:176|212:216,1,112.500000447034,2|0,0:0|0:0,0:0:0:0:
200,188,30549,2,0,L|280:212,1,75.000000298023,8|0,0:0|0:0,0:0:0:0:
344,292,31004,2,0,P|276:316|196:280,1,150.000000596046,0|8,0:0|0:0,0:0:0:0:
276,210,31685,2,0,B|280:228|280:228|336:204|336:204|420:220,1,150.000000596046
344,292,32367,1,8,0:0:0:0:
432,236,32594,1,0,0:0:0:0:
444,340,32822,2,0,P|484:328|516:300,2,75.000000298023,2|0|10,0:0|0:0|0:0,0:0:0:0:
432,236,33504,1,0,0:0:0:0:
496,156,33731,6,0,P|470:105|408:100,1,112.500000447034,2|0,0:0|0:0,0:0:0:0:
414,130,34186,2,0,L|465:64,1,75.000000298023,8|0,0:0|0:0,0:0:0:0:
364,32,34640,2,0,P|308:104|316:176,1,150.000000596046,0|8,0:0|0:0,0:0:0:0:
396,228,35322,2,0,P|396:306|344:364,1,150.000000596046,2|0,0:0|0:0,0:0:0:0:
300,268,36004,1,8,0:0:0:0:
309,159,36231,2,0,P|245:171|185:143,1,112.500000447034
193,119,36685,1,0,0:0:0:0:
261,39,36913,2,8,L|313:27,3,37.5000001490115
157,23,37367,6,0,P|97:83|105:175,1,150.000000596046,4|0,0:0|0:0,0:0:0:0:
193,119,38050,2,0,P|253:179|245:271,1,150.000000596046
156,216,38731,1,8,0:0:0:0:
193,119,38959,1,0,0:0:0:0:
288,160,39186,2,0,P|348:220|340:312,1,150.000000596046,0|0,2:0|2:0,2:0:0:0:
251,255,39869,2,0,P|190:315|199:407,1,150.000000596046,0|0,2:0|2:0,2:0:0:0:
290,351,40550,1,8,0:0:0:0:
251,255,40777,1,0,0:0:0:0:
150,231,41004,6,0,L|-2:207,1,150.000000596046,0|8,0:0|0:0,0:0:0:0:
74,131,41686,2,0,L|222:154,1,150.000000596046
326,179,42368,1,8,0:0:0:0:
251,255,42595,1,0,0:0:0:0:
222,154,42822,2,0,L|190:7,1,150.000000596046,0|8,0:0|0:0,0:0:0:0:
294,32,43504,2,0,L|326:179,1,150.000000596046
356,280,44186,2,0,P|392:260|416:228,1,75.000000298023,8|0,0:0|0:0,0:0:0:0:
325,178,44640,6,0,P|256:148|176:176,1,150.000000596046
112,92,45322,2,0,P|82:161|110:241,1,150.000000596046
200,268,46004,2,0,L|276:300,1,75.000000298023,8|0,0:0|0:0,0:0:0:0:
340,372,46459,2,0,P|370:303|342:223,1,150.000000596046
426,158,47141,2,0,P|357:128|277:156,1,150.000000596046
280,176,47709,2,8,L|296:228,3,37.5000001490115
220,96,48277,6,0,B|184:68|144:84|144:84|100:108|56:80,1,150.000000596046,0|8,0:0|0:0,0:0:0:0:
8,172,48959,2,0,P|80:200|172:192,1,150.000000596046
240,144,49640,1,8,0:0:0:0:
244,248,49868,6,0,P|177:298|156:193,1,225.000000894069,0|8,0:0|0:0,0:0:0:0:
256,192,50777,12,0,53049,0:0:0:0:
