osu file format v12

[General]
AudioFilename: dendenpassion.mp3
AudioLeadIn: 0
PreviewTime: 58719
Countdown: 0
SampleSet: Normal
StackLeniency: 0.7
Mode: 0
LetterboxInBreaks: 1
WidescreenStoryboard: 0

[Editor]
Bookmarks: 12510,25413,44768,58961,83477,93800,102832,115735,140251,145200,155046,178430,184390,196002,220519
DistanceSpacing: 1
BeatDivisor: 4
GridSize: 4
TimelineZoom: 1

[Metadata]
Title:Dendenpassion
TitleUnicode:でんでんぱっしょん
Artist:Denpagumi.inc
ArtistUnicode:でんぱ組.inc
Creator:asaink
Version:Normal
Source:
Tags:aizawa risa furukawa mirin yumemi nemu naruse eimi mogami moga fujisaki ayane
BeatmapID:283366
BeatmapSetID:100904

[Difficulty]
HPDrainRate:4
CircleSize:3
OverallDifficulty:4
ApproachRate:5
SliderMultiplier:1
SliderTickRate:1

[Events]
//Background and Video events
0,0,"BG.jpg",0,0
//Break Periods
2,94122,101864
2,141864,143800
2,178738,183353
//Storyboard Layer 0 (Background)
//Storyboard Layer 1 (Fail)
//Storyboard Layer 2 (Pass)
//Storyboard Layer 3 (Foreground)
//Storyboard Sound Samples
//Background Colour Transformations
3,100,163,162,255

[TimingPoints]
12510,322.58064516129,4,1,0,95,1,0
20816,-100,4,1,0,90,0,0
21461,-100,4,1,0,85,0,0
22106,-100,4,1,0,80,0,0
24042,-100,4,1,0,95,0,0
25493,-100,4,1,0,80,0,0
29203,-100,4,1,0,60,0,0
29445,-100,4,1,0,70,0,0
29606,-100,4,1,0,80,0,0
29848,-100,4,1,0,60,0,0
30090,-100,4,1,0,70,0,0
30251,-100,4,1,0,80,0,0
34526,-100,4,1,0,60,0,0
34768,-100,4,1,0,70,0,0
35009,-100,4,1,0,80,0,0
35574,-100,4,1,0,95,0,0
52590,-100,4,1,0,65,0,0
53316,-100,4,1,0,75,0,0
53961,-100,4,1,0,85,0,0
54606,-100,4,1,0,95,0,0
60251,-100,4,1,0,95,0,1
65090,-100,4,1,0,75,0,1
65332,-100,4,1,0,95,0,1
75413,-100,4,1,0,75,0,1
75655,-100,4,1,0,95,0,1
82429,-100,4,1,0,65,0,1
82751,-100,4,1,0,75,0,1
83074,-100,4,1,0,85,0,1
83397,-100,4,1,0,95,0,1
84768,-100,4,1,0,95,0,0
110655,-100,4,1,0,65,0,0
111380,-100,4,1,0,75,0,0
112026,-100,4,1,0,85,0,0
112671,-100,4,1,0,95,0,0
117026,-100,4,1,0,95,0,1
121864,-100,4,1,0,75,0,1
122106,-100,4,1,0,95,0,1
132187,-100,4,1,0,75,0,1
132429,-100,4,1,0,95,0,1
139203,-100,4,1,0,65,0,1
139526,-100,4,1,0,75,0,1
139848,-100,4,1,0,85,0,1
140171,-100,4,1,0,95,0,1
141542,-100,4,1,0,95,0,0
145200,307.692307692308,4,1,0,80,1,0
155046,-100,4,1,0,95,0,0
184390,322.58064516129,4,1,0,95,1,0
184551,-100,4,2,0,20,0,0
185519,-100,4,1,0,95,0,0
190760,-100,4,2,0,40,0,0
192293,-100,4,1,0,60,0,0
193422,-100,4,1,0,70,0,0
194712,-100,4,1,0,95,0,0
197293,-100,4,1,0,95,0,1
202131,-100,4,1,0,75,0,1
202373,-100,4,1,0,95,0,1
212454,-100,4,1,0,75,0,1
212696,-100,4,1,0,95,0,1
219470,-100,4,1,0,65,0,1
219793,-100,4,1,0,75,0,1
220115,-100,4,1,0,85,0,1
220438,-100,4,1,0,95,0,1
221809,-100,4,1,0,95,0,0
230760,-100,4,1,0,60,0,0
233341,-100,4,1,0,5,0,0

[Colours]
Combo1 : 0,0,255
Combo2 : 240,240,240
Combo3 : 255,0,0
Combo4 : 0,255,128
Combo5 : 255,255,0
Combo6 : 128,0,128

[HitObjects]
143,305,12510,6,0,P|236:285|256:191,1,200,6|0,0:0|0:0,0:0:0:0:
225,121,13477,1,8,0:0:0:0:
151,87,13800,2,0,P|57:106|37:200,1,200
144,304,15090,5,2,0:0:0:0:
220,324,15413,1,8,0:0:0:0:
296,304,15735,2,0,P|344:292|392:304,1,100,0|8,0:0|0:0,0:0:0:0:
468,324,16380,2,0,P|492:228|468:132,2,200,0|0|6,0:0|0:0|0:0,0:0:0:0:
392,304,17993,5,8,0:0:0:0:
316,280,18316,2,0,P|231:229|180:144,1,200
144,72,19284,2,0,P|96:60|48:72,2,100,8|0|8,0:0|0:0|0:0,0:0:0:0:
224,76,20251,6,2,B|320:60|320:60|424:76,3,200,6|6|6|6,0:2|0:2|0:2|0:2,0:2:0:0:
368,228,22832,6,2,P|256:312|144:228,1,300,2|2,0:0|0:0,0:0:0:0:
144,148,24122,6,2,P|256:64|368:148,1,300,2|2,0:0|0:0,0:0:0:0:
368,228,25413,6,0,P|344:272|304:300,1,100,4|8,0:0|0:0,0:0:0:0:
228,328,26058,1,0,0:0:0:0:
148,320,26380,1,8,0:0:0:0:
72,296,26703,2,0,P|32:264|12:220,2,100,0|8|2,0:0|0:0|0:0,0:0:0:0:
148,320,27671,1,10,0:0:0:0:
196,256,27993,6,0,P|256:180|352:148,1,200
432,148,28961,1,8,0:0:0:0:
472,216,29284,2,0,L|472:316,1,100,0|8,0:0|0:0,0:0:0:0:
392,316,29929,2,0,L|392:216,1,100,0|8,0:0|0:0,0:0:0:0:
432,148,30574,6,0,P|360:79|265:52,1,200,4|2,0:2|0:0,0:0:0:0:
188,72,31542,1,10,0:0:0:0:
164,148,31864,6,0,P|235:216|330:243,1,200,4|2,0:2|0:0,0:0:0:0:
408,224,32832,1,10,0:0:0:0:
432,148,33155,5,4,0:2:0:0:
364,104,33477,1,8,0:0:0:0:
284,108,33800,1,0,0:0:0:0:
217,65,34122,1,8,0:0:0:0:
137,69,34445,2,0,P|68:164|176:128,1,300,4|8,0:2|0:0,0:0:0:0:
217,65,35735,6,0,B|276:32|312:132|352:32|412:64,1,200,4|2,0:0|0:0,0:0:0:0:
452,132,36703,1,10,0:0:0:0:
412,200,37026,6,0,B|353:167|317:267|277:167|217:199,1,200,0|2,0:0|0:0,0:0:0:0:
177,267,37994,1,10,0:0:0:0:
108,308,38316,6,0,L|8:308,1,100,0|8,0:0|0:0,0:0:0:0:
8,228,38961,2,0,L|108:228,1,100,0|8,0:0|0:0,0:0:0:0:
177,267,39606,5,0,0:0:0:0:
256,280,39929,1,8,0:0:0:0:
336,284,40251,2,0,P|384:272|412:232,1,100,0|8,0:0|0:0,0:0:0:0:
396,156,40897,6,0,P|299:132|203:156,1,200
146,212,41865,1,8,0:0:0:0:
163,289,42187,6,0,P|258:312|354:288,1,200
413,233,43155,1,8,0:0:0:0:
396,156,43477,5,0,0:0:0:0:
352,88,43800,1,8,0:0:0:0:
280,52,44122,1,0,0:0:0:0:
200,60,44445,2,0,P|156:76|124:116,1,100,8|0,0:0|0:0,0:0:0:0:
96,192,45090,5,8,0:2:0:0:
176,192,45413,1,8,0:2:0:0:
256,192,45735,1,8,0:2:0:0:
336,192,46058,6,0,P|386:111|484:105,2,200,4|0|0,0:0|0:0|0:0,0:0:0:0:
335,270,47671,5,8,0:0:0:0:
192,340,48316,1,8,0:0:0:0:
140,280,48639,6,0,P|100:192|140:104,1,200
192,44,49606,2,0,L|344:44,1,150,8|0,0:0|0:0,0:0:0:0:
420,68,50413,6,2,P|445:144|366:121,1,200
324,120,51219,6,0,P|236:160|148:120,2,200,4|0|0,0:0|0:0|0:0,0:0:0:0:
388,72,52832,6,0,L|460:144,1,100,8|0,0:0|0:0,0:0:0:0:
460,224,53477,2,0,L|389:294,1,100,8|0,0:0|0:0,0:0:0:0:
308,295,54122,6,0,L|236:223,1,100,8|0,0:0|0:0,0:0:0:0:
236,143,54767,2,0,L|306:72,1,100,8|0,0:0|0:0,0:0:0:0:
256,192,55413,12,4,58316,0:0:0:0:
436,256,60251,6,0,P|470:220|484:172,2,100,2|8|0,0:0|0:0|0:0,0:0:0:0:
376,308,61219,1,8,0:0:0:0:
304,344,61542,2,0,P|256:356|208:344,2,100,0|8|0,0:0|0:0|0:0,0:0:0:0:
376,308,62509,6,0,L|268:200,1,150,8|0,0:0|0:0,0:0:0:0:
216,144,63316,2,0,P|52:196|216:252,1,450
268,200,65090,5,8,0:0:0:0:
324,144,65413,2,0,P|348:188|340:236,2,100,6|8|0,0:0|0:0|0:0,0:0:0:0:
300,112,66219,5,2,0:0:0:0:
240,60,66542,5,0,0:0:0:0:
240,60,66703,2,0,L|140:60,2,100,0|8|0,0:0|0:0|0:0,0:0:0:0:
280,60,67509,6,0,L|332:60,1,50,2|10,0:0|0:0,0:0:0:0:
408,76,67993,5,0,0:0:0:0:
456,140,68316,1,8,0:0:0:0:
408,204,68639,1,0,0:0:0:0:
456,268,68961,1,8,0:0:0:0:
408,332,69284,2,0,P|264:288|124:332,1,300,0|12,0:0|0:0,0:0:0:0:
76,268,70574,6,0,B|44:228|44:228|60:181,1,100,2|8,0:0|0:0,0:0:0:0:
139,167,71219,2,0,B|186:182|186:182|225:151,1,100,0|8,0:0|0:0,0:0:0:0:
285,97,71864,2,0,P|324:68|372:52,2,100,0|8|0,0:0|0:0|0:0,0:0:0:0:
226,152,72832,6,0,L|226:301,1,150,8|0,0:0|0:0,0:0:0:0:
226,382,73639,2,0,P|360:224|226:68,1,450
144,68,75413,5,8,0:0:0:0:
72,100,75735,2,0,P|72:148|96:192,1,100,6|8,0:0|0:0,0:0:0:0:
144,256,76380,1,0,0:0:0:0:
216,292,76703,1,8,0:0:0:0:
292,316,77026,2,0,P|376:276|352:184,1,200
292,136,77993,5,0,0:0:0:0:
224,92,78316,2,0,L|136:40,2,100,4|0|4,0:2|0:0|0:2,0:0:0:0:
292,136,79284,5,0,0:0:0:0:
244,200,79606,1,4,0:2:0:0:
196,264,79929,1,4,0:2:0:0:
148,328,80251,2,0,L|236:380,2,100,4|4|4,0:2|0:2|0:2,0:0:0:0:
80,284,81219,5,4,0:2:0:0:
32,220,81542,2,0,P|8:176|8:128,2,100,4|4|0,0:2|0:2|0:0,0:0:0:0:
80,284,82509,5,4,0:0:0:0:
128,220,82831,1,4,0:0:0:0:
176,156,83154,1,4,0:0:0:0:
224,92,83477,2,0,P|372:156|224:208,1,400,4|0,0:0|0:0,0:0:0:0:
176,156,85090,5,8,0:0:0:0:
112,108,85413,2,0,P|96:156|112:200,1,100,0|8,0:0|0:0,0:0:0:0:
152,272,86058,5,2,0:0:0:0:
224,308,86381,1,8,0:0:0:0:
300,288,86703,2,0,P|344:268|368:224,1,100,0|8,0:0|0:0,0:0:0:0:
368,144,87348,2,0,P|436:84|508:144,2,200,0|0|6,0:0|0:0|0:0,0:0:0:0:
368,224,88961,5,8,0:0:0:0:
344,300,89284,2,0,P|256:340|168:300,1,200
140,224,90252,2,0,P|92:212|44:224,2,100,8|0|8,0:0|0:0|0:0,0:0:0:0:
220,236,91219,6,0,P|280:156|368:112,1,200,2|0,0:0|0:0,0:0:0:0:
440,148,92187,1,8,0:0:0:0:
444,228,92509,2,0,P|404:284|332:324,2,150,2|2|8,0:0|0:0|0:0,0:0:0:0:
440,148,93800,5,4,0:0:0:0:
416,192,103155,5,8,0:2:0:0:
336,192,103478,1,8,0:2:0:0:
256,192,103800,1,8,0:2:0:0:
176,192,104123,6,0,P|154:99|230:41,2,200,4|0|0,0:0|0:0|0:0,0:0:0:0:
216,260,105736,5,8,0:0:0:0:
360,328,106380,1,8,0:0:0:0:
432,292,106704,6,0,P|398:201|307:167,1,200
227,167,107671,2,0,L|75:167,1,150,8|0,0:0|0:0,0:0:0:0:
24,228,108478,6,2,P|12:307|86:270,1,200
128,272,109284,6,0,P|216:312|304:272,2,200,4|0|0,0:0|0:0|0:0,0:0:0:0:
128,192,110897,6,0,L|200:120,1,100,8|0,0:0|0:0,0:0:0:0:
280,120,111542,2,0,L|350:191,1,100,8|0,0:0|0:0,0:0:0:0:
351,272,112187,6,0,L|279:344,1,100,8|0,0:0|0:0,0:0:0:0:
199,344,112832,2,0,L|128:274,1,100,8|0,0:0|0:0,0:0:0:0:
256,192,113478,12,4,116381,0:0:0:0:
400,72,117026,6,0,P|348:60|304:72,2,100,2|8|0,0:0|0:0|0:0,0:0:0:0:
424,148,117994,1,8,0:0:0:0:
400,224,118316,2,0,P|348:236|304:224,2,100,0|8|0,0:0|0:0|0:0,0:0:0:0:
424,148,119284,6,0,L|272:148,1,150,8|0,0:0|0:0,0:0:0:0:
216,92,120091,2,0,P|52:148|216:200,1,450
272,260,121865,5,8,0:0:0:0:
328,316,122188,2,0,P|284:340|236:332,2,100,6|8|0,0:0|0:0|0:0,0:0:0:0:
360,292,122994,5,2,0:0:0:0:
412,232,123317,5,0,0:0:0:0:
412,232,123478,2,0,L|496:288,2,100,0|8|0,0:0|0:0|0:0,0:0:0:0:
380,212,124284,6,0,L|336:184,1,50,2|10,0:0|0:0,0:0:0:0:
272,140,124768,5,0,0:0:0:0:
195,161,125091,1,8,0:0:0:0:
228,234,125414,1,0,0:0:0:0:
151,256,125736,1,8,0:0:0:0:
184,328,126058,2,0,P|48:316|36:176,1,300,0|12,0:0|0:0,0:0:0:0:
88,116,127349,6,0,B|129:87|129:87|175:106,1,100,2|8,0:0|0:0,0:0:0:0:
247,143,127993,2,0,B|293:162|293:162|334:133,1,100,0|8,0:0|0:0,0:0:0:0:
398,83,128639,2,0,P|435:54|485:37,2,100,0|8|0,0:0|0:0|0:0,0:0:0:0:
335,134,129607,6,0,L|335:286,1,150,8|0,0:0|0:0,0:0:0:0:
335,364,130414,2,0,P|469:206|335:50,1,450
256,68,132188,5,8,0:0:0:0:
204,128,132510,2,0,P|170:161|121:176,1,100,6|8,0:0|0:0,0:0:0:0:
44,200,133155,1,0,0:0:0:0:
68,276,133478,1,8,0:0:0:0:
124,332,133801,2,0,P|220:344|296:280,1,200
340,216,134768,5,0,0:0:0:0:
340,136,135091,2,0,L|340:36,2,100,4|0|4,0:2|0:0|0:2,0:0:0:0:
340,216,136059,5,0,0:0:0:0:
261,229,136381,1,4,0:2:0:0:
182,243,136704,1,4,0:2:0:0:
103,257,137026,2,0,L|121:363,2,100,4|4|4,0:2|0:2|0:2,0:0:0:0:
89,178,137994,5,4,0:2:0:0:
75,100,138317,2,0,P|48:56|4:48,2,100,4|4|0,0:2|0:2|0:0,0:0:0:0:
89,178,139284,5,4,0:0:0:0:
168,164,139606,1,4,0:0:0:0:
247,151,139929,1,4,0:0:0:0:
326,137,140251,2,0,P|398:281|251:225,1,400,4|0,0:0|0:0,0:0:0:0:
216,140,145200,6,0,P|244:96|256:48,2,100,4|8|0,0:0|0:0|0:0,0:0:0:0:
168,204,146123,1,8,0:0:0:0:
120,268,146430,2,2,P|208:308|296:268,1,200
344,204,147353,1,10,0:0:0:0:
296,140,147661,6,0,P|268:96|256:48,2,100,0|8|0,0:0|0:0|0:0,0:0:0:0:
344,204,148584,1,8,0:0:0:0:
392,268,148891,2,2,P|304:308|216:268,1,200
168,204,149814,1,10,0:0:0:0:
120,140,150123,5,4,0:0:0:0:
168,76,150430,1,8,0:0:0:0:
244,100,150738,1,0,0:0:0:0:
320,76,151046,1,8,0:0:0:0:
396,100,151353,2,2,P|440:76|488:64,2,100,2|8|2,0:0|0:0|0:0,0:0:0:0:
336,152,152276,1,10,0:0:0:0:
288,216,152583,5,0,0:0:0:0:
212,192,152891,1,8,0:0:0:0:
136,216,153199,1,0,0:0:0:0:
60,192,153507,1,8,0:0:0:0:
12,256,153815,2,0,P|56:340|152:348,2,200,0|0|4,0:0|0:0|0:0,0:0:0:0:
12,176,155353,5,8,0:0:0:0:
60,112,155661,2,0,P|104:88|152:80,1,100,0|8,0:0|0:0,0:0:0:0:
232,80,156276,1,0,0:0:0:0:
312,80,156584,1,8,0:0:0:0:
392,80,156892,6,0,P|420:116|392:156,1,100,2|10,0:0|0:0,0:0:0:0:
332,208,157507,5,0,0:0:0:0:
256,232,157815,1,8,0:0:0:0:
180,208,158123,1,0,0:0:0:0:
104,232,158430,1,8,0:0:0:0:
28,208,158738,2,0,P|28:256|60:296,1,100,0|8,0:0|0:0,0:0:0:0:
128,336,159353,6,0,P|164:364|204:336,1,100,2|10,0:0|0:0,0:0:0:0:
256,276,159969,6,0,L|397:134,1,200
453,78,160892,1,8,0:0:0:0:
384,40,161200,6,0,L|242:181,1,200,0|2,0:0|0:0,0:0:0:0:
186,237,162123,1,10,0:0:0:0:
256,276,162430,5,0,0:0:0:0:
336,276,162738,1,8,0:0:0:0:
400,228,163046,1,0,0:0:0:0:
400,148,163353,1,8,0:0:0:0:
336,100,163661,2,0,B|296:68|296:68|256:100,1,100,0|8,0:0|0:0,0:0:0:0:
196,148,164276,2,0,B|156:180|156:180|116:148,1,100,0|8,0:0|0:0,0:0:0:0:
48,112,164892,6,0,P|20:148|48:188,1,100,4|8,0:0|0:0,0:0:0:0:
100,248,165507,5,0,0:0:0:0:
172,284,165815,1,8,0:0:0:0:
248,308,166123,2,0,P|344:324|444:308,2,200
172,284,167661,2,0,L|172:184,1,100,8|0,0:0|0:0,0:0:0:0:
172,104,168276,1,8,0:0:0:0:
248,80,168584,5,0,0:0:0:0:
324,104,168892,1,8,0:0:0:0:
388,152,169200,2,0,P|388:200|416:244,1,100,0|8,0:0|0:0,0:0:0:0:
456,312,169815,5,0,0:0:0:0:
376,312,170123,1,8,0:0:0:0:
300,284,170430,1,0,0:0:0:0:
256,216,170738,1,8,0:0:0:0:
216,148,171046,2,2,P|148:112|104:56,2,150,2|2|8,0:0|0:0|0:0,0:0:0:0:
296,148,172276,5,0,0:0:0:0:
256,216,172584,1,8,0:0:0:0:
212,284,172892,1,0,0:0:0:0:
136,312,173200,1,8,0:0:0:0:
56,312,173507,2,2,P|28:244|56:176,2,150,2|2|8,0:0|0:0|0:0,0:0:0:0:
136,312,174738,5,2,0:0:0:0:
150,233,175046,1,10,0:0:0:0:
212,284,175353,1,2,0:0:0:0:
372,312,175969,5,2,0:0:0:0:
358,233,176277,1,10,0:0:0:0:
296,284,176584,1,2,0:0:0:0:
184,168,177200,6,2,L|216:72,1,100,2|10,0:0|0:0,0:0:0:0:
296,73,177815,6,2,L|328:168,1,100,2|10,0:0|0:0,0:0:0:0:
256,204,178430,5,4,0:0:0:0:
176,192,184712,6,0,B|256:252|256:252|336:192,1,200,8|8,0:0|0:0,0:0:0:0:
400,144,185680,6,0,P|352:60|256:40,2,200,4|0|0,0:0|0:0|0:0,0:0:0:0:
408,224,187293,5,8,0:0:0:0:
296,340,187938,1,8,0:0:0:0:
216,344,188260,6,0,P|120:324|72:240,1,200
52,164,189228,2,0,B|120:144|120:144|196:164,1,150,8|0,0:0|0:0,0:0:0:0:
272,192,190035,6,2,P|348:217|325:138,1,200
288,120,190841,6,2,P|263:44|342:67,2,200,6|2|6,0:0|0:0|0:0,0:0:0:0:
256,192,192454,12,4,195357,0:0:0:0:
208,156,197293,6,0,P|228:108|232:60,2,100,2|8|0,0:0|0:0|0:0,0:0:0:0:
172,228,198261,1,8,0:0:0:0:
136,300,198584,2,0,P|87:290|48:259,2,100,0|8|0,0:0|0:0|0:0,0:0:0:0:
216,300,199551,6,0,P|288:296|352:256,1,150,8|0,0:0|0:0,0:0:0:0:
412,200,200358,2,0,P|360:36|304:200,1,450
352,256,202132,5,8,0:0:0:0:
412,308,202455,2,0,P|456:332|504:324,2,100,6|8|0,0:0|0:0|0:0,0:0:0:0:
382,282,203261,5,2,0:0:0:0:
322,230,203584,5,0,0:0:0:0:
292,204,203745,2,0,L|220:276,2,100,0|8|0,0:0|0:0|0:0,0:0:0:0:
320,176,204551,6,0,L|356:140,1,50,2|10,0:0|0:0,0:0:0:0:
412,84,205035,5,0,0:0:0:0:
340,48,205358,1,8,0:0:0:0:
268,84,205681,1,0,0:0:0:0:
196,48,206003,1,8,0:0:0:0:
124,84,206326,2,0,P|36:192|124:300,1,300,0|12,0:0|0:0,0:0:0:0:
196,332,207616,6,0,B|244:317|244:317|258:269,1,100,2|8,0:0|0:0,0:0:0:0:
276,192,208260,2,0,B|290:143|290:143|338:129,1,100,0|8,0:0|0:0,0:0:0:0:
416,112,208906,2,0,P|468:96|504:68,2,100,0|8|0,0:0|0:0|0:0,0:0:0:0:
338,130,209874,6,0,B|288:164|248:124|192:160,1,150,8|0,0:0|0:0,0:0:0:0:
120,192,210681,2,0,P|278:326|434:192,1,450
416,112,212455,5,8,0:0:0:0:
352,64,212777,2,0,P|304:52|256:64,1,100,6|8,0:0|0:0,0:0:0:0:
192,112,213422,1,0,0:0:0:0:
228,184,213745,1,8,0:0:0:0:
192,256,214068,2,0,P|104:224|118:130,1,200
192,112,215035,5,0,0:0:0:0:
272,112,215358,2,0,P|280:64|324:40,2,100,4|0|4,0:2|0:0|0:2,0:0:0:0:
272,192,216326,5,0,0:0:0:0:
328,248,216648,1,4,0:2:0:0:
384,192,216971,1,4,0:2:0:0:
440,248,217293,2,0,P|439:296|402:327,2,100,4|4|4,0:2|0:2|0:2,0:0:0:0:
384,192,218261,5,4,0:2:0:0:
328,136,218583,2,0,P|328:87|365:56,2,100,4|4|0,0:2|0:2|0:0,0:0:0:0:
384,192,219551,5,4,0:0:0:0:
360,268,219873,1,4,0:0:0:0:
296,316,220196,1,4,0:0:0:0:
216,308,220519,2,0,P|156:158|298:225,1,400,4|0,0:0|0:0,0:0:0:0:
360,268,222132,5,8,0:0:0:0:
424,316,222455,2,0,P|440:268|424:224,1,100,0|8,0:0|0:0,0:0:0:0:
368,164,223100,5,2,0:0:0:0:
296,128,223423,1,8,0:0:0:0:
220,152,223745,2,0,P|180:188|136:192,1,100,0|8,0:0|0:0,0:0:0:0:
56,192,224390,2,0,P|61:282|154:290,2,200,0|0|6,0:0|0:0|0:0,0:0:0:0:
96,124,226003,5,8,0:0:0:0:
160,76,226326,2,0,P|256:52|352:76,1,200
416,124,227294,2,0,P|428:172|416:220,2,100,8|0|8,0:0|0:0|0:0,0:0:0:0:
352,76,228261,6,0,L|156:120,1,200,2|0,0:0|0:0,0:0:0:0:
88,160,229228,1,8,0:0:0:0:
156,200,229551,2,0,L|352:244,1,200,2|0,0:0|0:0,0:0:0:0:
432,252,230518,1,8,0:0:0:0:
432,252,230841,6,2,P|159:203|435:172,1,800
