osu file format v12

[General]
AudioFilename: dendenpassion.mp3
AudioLeadIn: 0
PreviewTime: 58719
Countdown: 0
SampleSet: Normal
StackLeniency: 0.7
Mode: 0
LetterboxInBreaks: 1
WidescreenStoryboard: 0

[Editor]
Bookmarks: 12510,25413,44768,58961,83477,93800,102832,115735,140251,145200,155046,178430,184390,196002,220519
DistanceSpacing: 1
BeatDivisor: 4
GridSize: 4
TimelineZoom: 1

[Metadata]
Title:Dendenpassion
TitleUnicode:でんでんぱっしょん
Artist:Denpagumi.inc
ArtistUnicode:でんぱ組.inc
Creator:asaink
Version:Easy
Source:
Tags:aizawa risa furukawa mirin yumemi nemu naruse eimi mogami moga fujisaki ayane
BeatmapID:287598
BeatmapSetID:100904

[Difficulty]
HPDrainRate:3
CircleSize:3
OverallDifficulty:3
ApproachRate:3
SliderMultiplier:0.8
SliderTickRate:1

[Events]
//Background and Video events
0,0,"BG.jpg",0,0
//Break Periods
2,94122,101542
2,141864,143477
2,178738,183046
//Storyboard Layer 0 (Background)
//Storyboard Layer 1 (Fail)
//Storyboard Layer 2 (Pass)
//Storyboard Layer 3 (Foreground)
//Storyboard Sound Samples
//Background Colour Transformations
3,100,163,162,255

[TimingPoints]
12510,322.58064516129,4,1,0,95,1,0
20816,-100,4,1,0,90,0,0
21461,-100,4,1,0,85,0,0
22106,-100,4,1,0,80,0,0
24042,-100,4,1,0,95,0,0
25493,-100,4,1,0,80,0,0
34526,-100,4,1,0,60,0,0
35009,-100,4,1,0,70,0,0
35655,-100,4,1,0,95,0,0
52590,-100,4,1,0,65,0,0
53316,-100,4,1,0,75,0,0
53961,-100,4,1,0,85,0,0
54606,-100,4,1,0,95,0,0
60251,-100,4,1,0,95,0,1
65090,-100,4,1,0,75,0,1
65332,-100,4,1,0,95,0,1
75413,-100,4,1,0,75,0,1
75655,-100,4,1,0,95,0,1
82429,-100,4,1,0,65,0,1
82751,-100,4,1,0,75,0,1
83074,-100,4,1,0,85,0,1
83397,-100,4,1,0,95,0,1
84768,-100,4,1,0,95,0,0
110655,-100,4,1,0,65,0,0
111380,-100,4,1,0,75,0,0
112026,-100,4,1,0,85,0,0
112671,-100,4,1,0,95,0,0
117026,-100,4,1,0,95,0,1
121864,-100,4,1,0,75,0,1
122106,-100,4,1,0,95,0,1
132187,-100,4,1,0,75,0,1
132429,-100,4,1,0,95,0,1
139203,-100,4,1,0,65,0,1
139526,-100,4,1,0,75,0,1
139848,-100,4,1,0,85,0,1
140171,-100,4,1,0,95,0,1
141542,-100,4,1,0,95,0,0
145200,307.692307692308,4,1,0,80,1,0
155046,-100,4,1,0,95,0,0
184390,322.58064516129,4,1,0,95,1,0
184551,-100,4,2,0,20,0,0
185519,-100,4,1,0,95,0,0
190760,-100,4,2,0,40,0,0
192293,-100,4,1,0,60,0,0
193422,-100,4,1,0,70,0,0
194712,-100,4,1,0,95,0,0
197293,-100,4,1,0,95,0,1
202131,-100,4,1,0,75,0,1
202373,-100,4,1,0,95,0,1
212454,-100,4,1,0,75,0,1
212696,-100,4,1,0,95,0,1
219470,-100,4,1,0,65,0,1
219793,-100,4,1,0,75,0,1
220115,-100,4,1,0,85,0,1
220438,-100,4,1,0,95,0,1
221809,-100,4,1,0,95,0,0
230760,-100,4,1,0,60,0,0
233341,-100,4,1,0,5,0,0

[Colours]
Combo1 : 0,0,255
Combo2 : 240,240,240
Combo3 : 255,0,0
Combo4 : 0,255,128
Combo5 : 255,255,0
Combo6 : 128,0,128

[HitObjects]
152,332,12510,6,0,P|225:340|255:272,1,160,6|0,0:0|0:0,0:0:0:0:
175,133,13800,2,0,P|101:124|71:193,1,160
152,332,15090,6,0,P|224:304|300:332,1,160,2|0,0:0|0:0,0:0:0:0:
380,192,16380,1,0,0:0:0:0:
300,52,17026,1,0,0:0:0:0:
220,52,17348,1,0,0:0:0:0:
140,52,17671,6,0,P|64:76|32:144,1,160,6|0,0:0|0:0,0:0:0:0:
48,304,18961,2,0,P|124:284|192:240,1,160
256,192,19929,1,0,0:0:0:0:
320,144,20251,6,2,B|392:108|392:108|464:144,3,160,6|6|6|6,0:2|0:2|0:2|0:2,0:2:0:0:
348,256,22832,6,2,P|256:320|160:256,1,240
164,176,24122,6,2,P|256:112|352:176,1,240
348,256,25413,6,0,P|420:232|432:156,1,160,4|0,0:0|0:0,0:0:0:0:
304,60,26703,2,0,P|228:36|152:60,1,160,0|2,0:0|0:0,0:0:0:0:
64,192,27993,5,0,0:0:0:0:
152,324,28639,1,0,0:0:0:0:
304,372,29284,2,0,P|384:372|452:332,2,160,0|0|4,0:0|0:0|0:2,0:0:0:0:
152,324,31219,6,0,P|132:288|136:248,1,80,2|2,0:0|0:0,0:0:0:0:
152,172,31864,1,4,0:2:0:0:
268,60,32509,6,0,P|288:96|284:136,1,80,2|2,0:0|0:0,0:0:0:0:
268,212,33155,6,0,B|268:288|332:308|368:248|368:248|404:308|468:288|468:212,1,320,4|4,0:2|0:2,0:0:0:0:
452,136,34768,1,0,0:0:0:0:
392,84,35090,1,0,0:0:0:0:
316,60,35413,1,0,0:0:0:0:
236,60,35735,6,0,P|176:112|100:136,1,160,4|2,0:0|0:0,0:0:0:0:
28,280,37026,2,0,P|88:332|164:356,1,160,0|2,0:0|0:0,0:0:0:0:
324,344,38316,5,0,0:0:0:0:
368,192,38961,1,0,0:0:0:0:
324,40,39606,2,0,P|246:57|192:115,1,160
148,268,40897,6,0,P|159:341|232:352,1,160
345,239,42187,2,0,P|333:165|260:154,1,160
148,268,43477,6,0,P|53:154|148:44,1,320
228,44,45090,5,8,0:2:0:0:
292,92,45413,1,8,0:2:0:0:
356,140,45735,1,8,0:2:0:0:
420,188,46058,6,0,P|460:252|416:316,2,160,4|0|0,0:0|0:0|0:0,0:0:0:0:
372,252,47671,1,8,0:0:0:0:
220,300,48316,1,8,0:0:0:0:
148,264,48639,6,0,B|125:134|208:99|275:249|358:214|335:84,1,360
224,40,50574,1,2,0:0:0:0:
144,48,50897,1,2,0:0:0:0:
68,72,51219,6,0,P|48:148|68:228,2,160,4|0|0,0:0|0:0|0:0,0:0:0:0:
144,48,52832,5,8,0:0:0:0:
284,124,53477,1,8,0:0:0:0:
144,200,54122,1,8,0:0:0:0:
284,276,54768,1,8,0:0:0:0:
256,192,55090,12,4,58316,0:0:0:0:
440,336,60251,6,0,B|476:264|476:264|440:192,1,160,2|0,0:0|0:0,0:0:0:0:
296,264,61542,2,0,B|224:300|224:300|152:264,1,160
84,120,62832,5,2,0:0:0:0:
224,44,63477,1,0,0:0:0:0:
380,88,64122,2,0,P|412:160|380:232,1,160
332,292,65090,1,0,0:0:0:0:
256,320,65413,6,2,L|96:320,1,160,6|2,0:0|0:0,0:0:0:0:
76,160,66703,2,2,L|236:160,1,160,2|2,0:0|0:0,0:0:0:0:
380,232,67993,5,0,0:0:0:0:
500,124,68639,1,0,0:0:0:0:
348,76,69284,2,0,P|192:80|84:192,1,320,0|4,0:0|0:0,0:0:0:0:
160,332,71219,5,0,0:0:0:0:
236,192,71864,2,0,P|160:168|84:192,1,160
46,36,73155,5,2,0:0:0:0:
208,36,73800,1,0,0:0:0:0:
368,36,74445,2,0,P|404:104|368:172,1,160
308,224,75413,1,0,0:0:0:0:
240,268,75735,6,0,P|304:308|372:268,2,160,6|0|0,0:0|0:0|0:0,0:0:0:0:
160,128,77671,1,0,0:0:0:0:
304,60,78316,5,4,0:2:0:0:
448,128,78961,1,4,0:2:0:0:
420,284,79606,2,0,P|368:344|292:364,2,160,4|4|4,0:2|0:2|0:2,0:0:0:0:
448,208,81219,5,4,0:2:0:0:
448,128,81542,2,4,P|372:148|320:208,1,160,4|0,0:2|0:0,0:2:0:0:
264,264,82509,1,4,0:0:0:0:
184,256,82832,1,4,0:0:0:0:
112,220,83155,1,4,0:0:0:0:
52,168,83477,6,0,P|49:45|127:140,1,320,4|0,0:0|0:0,0:0:0:0:
128,300,85413,1,0,0:0:0:0:
280,348,86058,6,0,P|350:316|384:243,1,160,2|0,0:0|0:0,0:0:0:0:
384,84,87348,1,0,0:0:0:0:
232,36,87994,1,0,0:0:0:0:
156,60,88316,1,0,0:0:0:0:
92,108,88639,6,0,P|116:184|184:216,1,160,6|0,0:0|0:0,0:0:0:0:
328,144,89929,2,0,P|404:168|436:236,1,160
400,308,90897,1,0,0:0:0:0:
332,352,91219,6,0,P|256:376|180:352,1,160,2|2,0:0|0:0,0:0:0:0:
124,204,92509,2,0,P|180:184|236:204,2,120,2|2|0,0:0|0:0|0:0,0:0:0:0:
52,240,93800,5,4,0:0:0:0:
256,240,103155,5,8,0:2:0:0:
336,240,103478,1,8,0:2:0:0:
416,240,103800,1,8,0:2:0:0:
496,240,104123,6,0,P|458:307|381:314,2,160,4|0|0,0:0|0:0|0:0,0:0:0:0:
472,164,105736,1,8,0:0:0:0:
336,80,106381,1,8,0:0:0:0:
256,72,106704,6,0,B|147:147|181:231|335:172|369:255|260:331,1,360
144,304,108639,1,2,0:0:0:0:
80,256,108962,1,2,0:0:0:0:
32,192,109284,6,0,P|12:116|32:36,2,160,4|0|0,0:0|0:0|0:0,0:0:0:0:
80,256,110897,5,8,0:0:0:0:
208,160,111542,1,8,0:0:0:0:
336,256,112187,1,8,0:0:0:0:
464,160,112833,1,8,0:0:0:0:
256,192,113155,12,4,116380,0:0:0:0:
471,62,117026,6,0,B|390:61|390:61|341:125,1,160,2|0,0:0|0:0,0:0:0:0:
256,260,118317,2,0,B|207:323|207:323|126:323,1,160
36,192,119607,5,2,0:0:0:0:
128,60,120252,1,0,0:0:0:0:
220,192,120897,2,0,P|292:224|364:192,1,160
428,148,121865,1,0,0:0:0:0:
504,172,122188,6,2,L|504:332,1,160,6|2,0:0|0:0,0:0:0:0:
344,332,123478,2,2,L|184:332,1,160,2|2,0:0|0:0,0:0:0:0:
60,232,124768,5,0,0:0:0:0:
220,208,125414,1,0,0:0:0:0:
380,184,126059,2,0,P|266:76|111:79,1,320,0|4,0:0|0:0,0:0:0:0:
60,232,127994,5,0,0:0:0:0:
184,332,128639,2,0,P|261:314|315:256,1,160
360,104,129930,5,2,0:0:0:0:
200,104,130575,1,0,0:0:0:0:
52,36,131220,2,0,P|16:104|52:172,1,160
100,236,132188,1,0,0:0:0:0:
156,292,132509,6,0,P|224:328|292:292,2,160,6|0|0,0:0|0:0|0:0,0:0:0:0:
224,148,134446,1,0,0:0:0:0:
361,70,135091,5,4,0:2:0:0:
362,227,135736,1,4,0:2:0:0:
224,148,136381,2,0,P|155:107|122:35,2,160,4|4|4,0:2|0:2|0:2,0:0:0:0:
300,176,137994,5,4,0:2:0:0:
362,227,138317,2,4,P|323:295|251:329,1,160,4|0,0:2|0:0,0:0:0:0:
172,328,139284,1,4,0:0:0:0:
96,300,139607,1,4,0:0:0:0:
52,232,139930,1,4,0:0:0:0:
68,152,140252,6,0,P|178:97|125:208,1,320,4|0,0:0|0:0,0:0:0:0:
64,80,145200,6,0,P|140:56|216:80,1,160,4|0,0:0|0:0,0:0:0:0:
292,220,146430,2,0,P|216:244|140:220,1,160
216,80,147661,6,0,P|292:56|368:80,1,160
444,220,148892,1,0,0:0:0:0:
340,340,149507,1,2,0:0:0:0:
260,340,149815,1,2,0:0:0:0:
180,340,150123,6,0,P|156:264|180:188,1,160,4|0,0:0|0:0,0:0:0:0:
320,112,151353,2,0,P|344:188|320:264,1,160
180,340,152584,5,0,0:0:0:0:
68,220,153200,1,0,0:0:0:0:
224,184,153815,2,0,P|371:192|414:50,1,320,0|4,0:0|0:0,0:0:0:0:
256,28,155661,5,0,0:0:0:0:
132,128,156276,1,0,0:0:0:0:
196,276,156892,2,0,P|167:304|130:318,2,80,2|2|0,0:0|0:0|0:0,0:0:0:0:
320,172,158123,5,0,0:0:0:0:
256,28,158738,1,0,0:0:0:0:
132,128,159354,2,0,P|103:99|89:62,2,80,2|2|0,0:0|0:0|0:0,0:0:0:0:
260,224,160584,5,0,0:0:0:0:
404,296,161200,2,0,P|436:224|404:152,2,160,2|2|0,0:0|0:0|0:0,0:0:0:0:
256,356,163046,5,0,0:0:0:0:
180,216,163661,2,0,P|188:101|95:34,1,240
84,112,164892,6,0,P|116:132|116:172,2,80,4|0|0,0:0|0:0|0:0,0:0:0:0:
24,260,166123,2,0,P|68:324|144:348,1,160
304,340,167353,5,0,0:0:0:0:
380,316,167661,2,0,P|444:272|468:196,1,160
464,116,168584,1,0,0:0:0:0:
328,32,169200,1,0,0:0:0:0:
172,76,169815,6,0,L|89:218,1,160
145,364,171046,2,2,L|227:221,1,160
382,197,172276,6,0,L|299:339,1,160
145,364,173507,2,2,L|227:221,1,160
328,100,174738,5,2,0:0:0:0:
404,124,175046,1,2,0:0:0:0:
480,148,175353,1,2,0:0:0:0:
480,308,175969,5,2,0:0:0:0:
404,332,176276,1,2,0:0:0:0:
328,356,176584,1,2,0:0:0:0:
177,306,177200,6,2,L|107:267,1,80
108,188,177815,6,2,L|180:148,1,80
200,228,178430,5,4,0:0:0:0:
328,192,184712,6,0,B|256:228|256:228|184:192,1,160,8|8,0:0|0:0,0:0:0:0:
116,152,185680,6,0,P|179:109|251:137,2,160,4|0|0,0:0|0:0|0:0,0:0:0:0:
80,224,187293,1,8,0:0:0:0:
184,348,187938,1,8,0:0:0:0:
264,356,188261,6,0,B|394:379|429:296|279:229|314:146|444:169,1,360
508,68,190196,1,2,0:0:0:0:
432,44,190519,1,2,0:0:0:0:
356,68,190841,6,2,P|280:88|200:68,2,160,6|2|6,0:0|0:0|0:0,0:0:0:0:
256,192,192454,12,4,195357,0:0:0:0:
328,176,197293,6,0,B|256:140|256:140|184:176,1,160,2|0,0:0|0:0,0:0:0:0:
256,320,198584,2,0,B|184:356|184:356|112:320,1,160
44,176,199874,5,2,0:0:0:0:
175,87,200519,1,0,0:0:0:0:
248,230,201164,2,0,P|309:279|387:267,1,160
448,220,202132,1,0,0:0:0:0:
456,140,202455,6,2,L|296:140,1,160,6|2,0:0|0:0,0:0:0:0:
136,140,203745,2,2,L|136:300,1,160,2|2,0:0|0:0,0:0:0:0:
276,376,205035,5,0,0:0:0:0:
388,264,205681,1,0,0:0:0:0:
431,110,206326,2,0,P|278:73|136:140,1,320,0|4,0:0|0:0,0:0:0:0:
136,300,208261,5,0,0:0:0:0:
276,376,208906,2,0,P|300:300|276:224,1,160
136,140,210197,5,2,0:0:0:0:
276,64,210842,1,0,0:0:0:0:
416,140,211487,2,0,P|452:208|416:276,1,160
346,314,212455,1,0,0:0:0:0:
276,276,212777,6,0,P|240:208|276:140,2,160,6|0|0,0:0|0:0|0:0,0:0:0:0:
420,208,214712,1,0,0:0:0:0:
346,68,215358,5,4,0:2:0:0:
192,112,216003,1,4,0:2:0:0:
88,232,216648,2,0,P|140:292|216:312,2,160,4|4|4,0:2|0:2|0:2,0:0:0:0:
88,152,218261,5,4,0:2:0:0:
88,72,218584,2,4,P|164:92|216:152,1,160,4|0,0:2|0:0,0:2:0:0:
256,220,219551,1,4,0:0:0:0:
304,284,219874,1,4,0:0:0:0:
376,320,220197,1,4,0:0:0:0:
452,292,220519,6,0,P|486:173|386:245,1,320,4|0,0:0|0:0,0:0:0:0:
256,336,222455,1,0,0:0:0:0:
100,292,223100,6,0,P|50:233|50:152,1,160,2|0,0:0|0:0,0:0:0:0:
176,56,224390,1,0,0:0:0:0:
328,104,225036,1,0,0:0:0:0:
396,144,225358,1,0,0:0:0:0:
452,200,225681,6,0,P|428:276|360:308,1,160,6|0,0:0|0:0,0:0:0:0:
236,212,226970,2,0,P|260:136|328:104,1,160
396,144,227939,1,0,0:0:0:0:
452,200,228261,6,0,P|500:144|452:88,1,160,2|0,0:0|0:0,0:0:0:0:
292,68,229551,2,0,P|216:44|140:68,1,160,2|0,0:0|0:0,0:0:0:0:
100,220,230841,6,2,P|307:316|151:148,1,640,2|2,0:0|0:0,0:0:0:0:
