osu file format v9

[General]
AudioFilename: MUSIC_ Legend of Dragoon - Royal Castle.mp3
AudioLeadIn: 0
PreviewTime: 39888
Countdown: 0
SampleSet: Soft
StackLeniency: 0.7
Mode: 0
LetterboxInBreaks: 1

[Editor]
DistanceSpacing: 1.5
BeatDivisor: 4
GridSize: 4

[Metadata]
Title:Royal Castle
Artist:Dennis Martin
Creator:Giorgos
Version:Normal
Source:The Legend of Dragoon
Tags:lod dart shana rose albert haschel kongol lavitz meru miranda awp

[Difficulty]
HPDrainRate:4
CircleSize:3
OverallDifficulty:4
ApproachRate:4
SliderMultiplier:1.2
SliderTickRate:1

[Events]
//Background and Video events
0,0,"Legend-Of-Dragoon-0006.jpg"
//Break Periods
//Storyboard Layer 0 (Background)
//Storyboard Layer 1 (Fail)
//Storyboard Layer 2 (Pass)
//Storyboard Layer 3 (Foreground)
//Storyboard Sound Samples
//Background Colour Transformations
3,100,163,162,255

[TimingPoints]
4963,545.454545454545,4,2,0,50,1,0
39867,545.950864422202,4,2,0,50,1,0
39867,-100,4,2,0,50,0,1
57337,-100,4,2,0,50,0,0

[Colours]
Combo1 : 0,255,255
Combo2 : 243,89,34
Combo3 : 0,255,0
Combo4 : 0,0,255

[HitObjects]
256,192,4962,1,4
256,284,5235,1,0
336,240,5508,2,0,B|400:240|400:152,1,120,0|8
308,152,6326,1,0
216,152,6599,2,0,B|215:67|279:67,1,120,0|8
456,88,7690,2,0,B|400:128|488:128|432:200,1,120,0|8
348,192,8508,1,0
256,192,8781,2,0,B|198:127|286:127|231:88,1,120,0|8
52,84,9872,6,0,B|52:164,1,60
52,236,10417,1,8
144,236,10690,1,0
232,236,10962,2,0,B|312:236,1,60
256,192,11508,12,2,13690
272,112,14235,6,0,B|272:192,1,60
272,264,14781,1,8
112,348,15326,2,0,B|52:348,1,60
80,264,15872,1,8
260,260,16417,6,0,B|304:315|320:227|368:267,1,120,0|8
456,264,17235,1,0
456,172,17508,2,0,B|400:124|480:124|432:60,1,120,0|8
256,68,18599,2,0,B|208:28|192:116|138:50,1,120,0|8
56,60,19417,1,0
52,148,19690,2,0,B|-4:195|76:195|32:254,1,120,0|8
212,252,20781,5,2
212,340,21053,1,0
292,296,21326,2,0,B|364:296,1,60,8|0
444,296,21872,1,2
448,208,22144,1,0
448,116,22417,1,8
276,164,22962,6,0,B|196:60,1,120,0|8
160,148,23781,1,0
116,68,24053,2,0,B|42:163,1,120,0|8
64,340,25144,2,0,B|128:372|120:308|184:340,1,120,0|8
268,336,25962,2,0,B|332:336,3,60,0|0|0|8
420,332,27053,5,0
420,240,27326,2,0,B|356:240|356:128,1,120,0|8
356,64,28144,1,0
264,64,28417,2,0,B|184:64,1,60
256,192,28962,12,2,31144
64,224,31690,6,0,B|64:288|152:288,1,120,2|8
240,288,32508,2,0,B|320:288,2,60
240,288,33326,1,8
420,296,33872,6,0,B|504:296|504:232,1,120,0|8
500,144,34690,2,0,B|428:144,3,60,0|0|0|8
276,68,36053,6,0,B|218:38|226:102|162:70,1,120,0|8
160,160,36872,1,0
160,248,37144,2,0,B|224:280|216:216|280:248,1,120,0|8
256,192,37963,12,0,39867
344,160,40412,6,0,B|272:160,2,60,0|0|2
164,160,41504,1,0
124,80,41777,1,0
80,160,42050,1,8
160,320,42596,5,0
120,240,42869,1,0
76,320,43142,1,8
120,240,43415,2,0,B|120:168,2,60,0|0|2
384,288,44780,5,2
292,288,45053,1,0
200,288,45326,1,2
20,288,45872,2,0,B|80:288,1,60
56,200,46418,2,0,B|80:176|80:176|104:200|104:200|128:176|128:176|152:200|152:200|176:176|176:176|208:200|208:200|232:176|232:176|256:200|256:200|272:176|272:176|296:200|296:200|312:176|312:176|336:200|336:200|352:176|352:176|376:200|376:200|390:200,1,480,8|8
480,44,49148,6,0,B|400:44,2,60,2|0|8
300,44,50240,1,0
212,40,50513,1,0
120,40,50786,2,0,B|120:112,1,60,8|0
116,188,51331,5,0
208,188,51604,1,0
300,188,51877,2,0,B|300:108,1,60,8|0
300,36,52423,1,0
208,36,52696,1,2
120,36,52969,1,8
180,204,53515,6,0,B|260:204,1,60,2|0
332,204,54061,1,8
424,204,54334,1,0
500,252,54607,1,0
504,164,54880,1,0
424,120,55153,2,0,B|409:120|409:120|385:96|385:96|369:120|369:120|345:96|345:96|329:120|329:120|305:96|305:96|289:120|289:120|265:96|265:96|241:120|241:120|209:96|209:96|185:120|185:120|161:96|161:96|137:120|137:120|113:96|113:96|89:120,1,480,8|4
76,300,57883,5,0
256,300,58429,1,8
436,300,58975,1,0
344,144,59521,1,2
192,44,60067,1,0
64,168,60613,2,0,B|152:240|48:288|168:376,1,240,8|8
280,232,62250,5,0
392,372,62796,2,0,B|508:286|404:238|492:166,1,240,8|8
316,132,64434,1,0
136,132,64980,2,0,B|56:132,2,60,8|0|0
52,292,66072,6,0,B|76:268|76:268|100:292|100:292|124:268|124:268|148:292|148:292|172:268|172:268|204:292|204:292|228:268|228:268|252:292|252:292|268:268|268:268|292:292|292:292|308:268|308:268|332:292|332:292|348:268|348:268|372:292|372:292|388:292,1,480,12|8
420,116,68802,2,0,B|356:60,1,60
284,76,69348,1,8
192,76,69621,2,0,B|146:115,1,60
60,272,70440,5,8
200,384,70986,1,0
340,272,71532,1,8
204,152,72078,1,0
256,192,72624,12,4,74807
