osu file format v9

[General]
AudioFilename: MUSIC_ Legend of Dragoon - Royal Castle.mp3
AudioLeadIn: 0
PreviewTime: 39888
Countdown: 0
SampleSet: Soft
StackLeniency: 0.7
Mode: 0
LetterboxInBreaks: 1

[Editor]
Bookmarks: 74793
DistanceSpacing: 1.1
BeatDivisor: 8
GridSize: 4

[Metadata]
Title:Royal Castle
Artist:Dennis Martin
Creator:Giorgos
Version:Hard
Source:The Legend of Dragoon
Tags:lod dart shana rose albert haschel kongol lavitz meru miranda awp

[Difficulty]
HPDrainRate:6
CircleSize:5
OverallDifficulty:6
ApproachRate:7
SliderMultiplier:1.7
SliderTickRate:2

[Events]
//Background and Video events
0,0,"Legend-Of-Dragoon-0006.jpg"
//Break Periods
//Storyboard Layer 0 (Background)
//Storyboard Layer 1 (Fail)
//Storyboard Layer 2 (Pass)
//Storyboard Layer 3 (Foreground)
//Storyboard Sound Samples
//Background Colour Transformations
3,100,163,162,255

[TimingPoints]
4963.44444444444,545.454545454545,4,2,0,50,1,0
39867,545.950864422202,4,2,0,50,1,1
39867,-100,4,2,0,50,0,1
57337,-100,4,2,0,50,0,0

[Colours]
Combo1 : 0,255,255
Combo2 : 243,89,34
Combo3 : 0,255,0
Combo4 : 0,0,255

[HitObjects]
56,200,4963,1,4
114,272,5236,1,0
181,336,5508,1,2
251,274,5781,1,2
334,316,6054,2,0,B|365:349|419:348,1,85,0|0
432,256,6599,1,0
450,165,6872,1,0
395,89,7145,6,0,B|295:56|262:161|138:94,1,255
62,63,8236,1,0
31,151,8508,1,0
112,196,8781,1,2
203,175,9054,1,4
326,184,9327,5,0
414,212,9599,1,0
475,282,9872,1,2
405,344,10145,1,2
341,275,10417,2,0,B|284:272|322:321|241:318,1,85
180,336,10963,1,0
84,316,11236,1,0
158,260,11508,6,0,B|158:76,1,170
256,128,12327,1,0
355,94,12599,2,0,B|355:278,1,170,0|2
256,288,13417,1,4
256,192,13690,5,0
292,104,13963,1,0
344,28,14236,2,0,B|399:20|431:37,1,85,0|2
487,108,14781,1,2
485,201,15054,2,0,B|477:284|388:318|362:320,1,170,0|0
284,338,15872,5,0
191,320,16145,1,0
140,240,16417,1,0
91,161,16690,1,0
49,77,16963,2,0,B|130:41|220:77,2,170
88,164,18327,1,0
160,104,18599,1,2
232,164,18872,1,2
304,104,19145,1,0
376,164,19417,1,0
468,164,19690,1,0
428,248,19963,1,0
444,340,20236,6,0,B|249:340,1,170,4|0
184,316,21054,1,0
105,268,21327,1,4
90,175,21599,1,0
138,94,21872,1,0
228,70,22145,2,0,B|324:54|408:131,1,170,4|0
438,191,22963,5,8
301,318,23508,1,0
244,139,24054,1,8
127,284,24599,2,0,B|80:269|11:201|10:128|56:32|161:27,1,340
212,84,25963,5,0
260,84,26099,1,0
308,84,26236,1,2
384,136,26508,1,2
436,255,26781,6,2,B|270:328|92:249,2,340,4|0|0
304,122,29508,1,2
359,197,29781,1,2
287,256,30054,1,0
137,181,30599,1,2
207,119,30872,1,4
268,48,31145,6,2,B|440:48,1,170,0|0
441,235,32236,2,0,B|273:235,1,170
144,96,33327,2,0,B|51:145|140:177|140:177|250:208|183:298|83:297,1,340
32,228,34690,5,0
32,180,34827,1,0
32,132,34963,1,2
108,76,35236,1,4
196,44,35508,5,0
279,85,35781,1,0
359,132,36054,1,0
258,289,36599,1,0
342,249,36872,1,0
417,193,37145,1,0
256,192,37690,12,4,39599
116,110,40412,5,2
116,110,40503,1,0
116,110,40594,1,0
116,110,40685,1,2
214,187,40958,1,2
400,201,41504,1,0
447,120,41777,1,8
375,59,42050,6,0,B|341:145,1,85,2|0
296,57,42596,1,0
206,83,42869,1,0
275,145,43142,1,2
245,233,43415,1,0
175,295,43688,1,0
114,223,43961,1,10
396,232,44780,5,0
396,232,44871,1,0
396,232,44962,1,0
396,232,45053,1,0
304,232,45326,1,0
332,48,45872,1,0
401,110,46145,1,0
327,166,46418,6,0,B|399:214,1,85,2|0
482,254,46964,2,0,B|403:314,1,85,2|0
323,329,47510,2,0,B|252:260,1,85,2|0
220,185,48056,2,0,B|164:253,2,85,2|4|0
361,62,49148,5,2
361,62,49239,1,0
361,62,49330,1,0
361,62,49421,2,0,B|367:156,1,85,2|0
408,329,50240,5,0
314,320,50513,1,0
229,279,50786,2,0,B|139:236,1,85,2|0
70,196,51331,2,0,B|136:134,1,85,2|0
215,179,51877,2,0,B|284:125,1,85,2|0
367,164,52423,2,0,B|419:261,2,85,2|4|0
228,38,53515,5,2
228,38,53606,1,0
228,38,53697,1,0
228,38,53788,1,2
194,125,54061,2,0,B|268:187,1,85,2|0
279,271,54607,2,2,B|376:306,2,85
112,328,55699,5,2
112,192,55972,1,2
112,56,56245,1,0
400,56,56518,5,4
400,192,56791,1,0
400,328,57064,1,2
256,192,57337,6,0,B|329:210|342:148|290:96|195:100|166:160|166:222|224:270|299:250,1,340,4|0
368,264,58702,1,8
368,80,59248,1,0
208,70,59521,6,0,B|-8:190|208:318,2,340
295,103,61978,1,8
368,161,62250,1,0
191,98,62796,1,0
123,162,63069,1,8
66,236,63342,1,0
256,144,63888,5,0
256,240,64161,1,8
256,336,64434,1,0
440,336,64980,1,0
440,240,65253,1,8
440,144,65526,1,8
440,48,65799,1,2
304,48,66072,5,4
234,111,66345,1,8
159,167,66618,2,0,B|80:184|80:256|160:272,1,170
245,306,67437,1,8
328,348,67710,1,0
495,317,68256,5,0
402,301,68529,1,8
312,274,68802,1,0
226,236,69075,1,8
148,183,69348,1,0
96,104,69621,1,8
69,14,69894,1,8
160,35,70167,1,4
254,36,70440,6,0,B|356:49|378:153,2,170,4|0|0
256,192,72078,1,0
256,192,72624,12,4,74807
