osu file format v14

[General]
AudioFilename: weeeeeeeeeeeeeed.mp3
AudioLeadIn: 0
PreviewTime: 52519
Countdown: 1
SampleSet: Soft
StackLeniency: 0.7
Mode: 0
LetterboxInBreaks: 1
WidescreenStoryboard: 1

[Editor]
Bookmarks: 2201,19655,37110,54564,89473
DistanceSpacing: 2
BeatDivisor: 8
GridSize: 32
TimelineZoom: 2.999999

[Metadata]
Title:Smoke Weed Everyday
TitleUnicode:Smoke Weed Everyday
Artist:Dennibro
ArtistUnicode:Dennibro
Creator:Euny
Version:o_<
Source:
Tags:
BeatmapID:1010087
BeatmapSetID:472755

[Difficulty]
HPDrainRate:6
CircleSize:4
OverallDifficulty:8
ApproachRate:9.6
SliderMultiplier:2.7
SliderTickRate:1

[Events]
//Background and Video events
0,0,"weed.jpg",0,0
//Break Periods
//Storyboard Layer 0 (Background)
//Storyboard Layer 1 (Fail)
//Storyboard Layer 2 (Pass)
//Storyboard Layer 3 (Foreground)
//Storyboard Sound Samples

[TimingPoints]
2201,545.454545454546,4,2,0,40,1,0
2201,-333.333333333333,4,2,0,40,0,0
19655,-166.666666666667,4,2,0,40,0,0
37110,-111.111111111111,4,2,0,40,0,0
52382,-142.857142857143,4,2,0,40,0,0
54564,-100,4,2,0,40,0,1
55110,-83.3333333333333,4,2,0,40,0,0
56746,-100,4,2,0,40,0,0
59473,-83.3333333333333,4,2,0,40,0,0
61110,-100,4,2,0,40,0,0
63291,-100,4,2,0,40,0,1
63837,-83.3333333333333,4,2,0,40,0,0
65473,-100,4,2,0,40,0,0
68201,-83.3333333333333,4,2,0,40,0,0
69837,-100,4,2,0,40,0,0
72019,-100,4,2,0,40,0,1
72564,-83.3333333333333,4,2,0,40,0,0
74201,-100,4,2,0,40,0,0
74746,-83.3333333333333,4,2,0,40,0,0
75291,-100,4,2,0,40,0,0
76928,-83.3333333333333,4,2,0,40,0,0
78564,-100,4,2,0,40,0,0
80746,-100,4,2,0,40,0,1
81291,-83.3333333333333,4,2,0,40,0,0
82928,-100,4,2,0,40,0,0
83473,-83.3333333333333,4,2,0,40,0,0
84019,-100,4,2,0,40,0,0
85655,-83.3333333333333,4,2,0,40,0,0
87291,-100,4,2,0,40,0,0
89473,545.454545454546,4,2,0,40,1,0
89473,-125,4,2,0,40,0,0
91654,530.973451327434,4,2,0,40,1,0
91654,-125,4,2,0,40,0,0
93777,517.241379310345,4,2,0,40,1,0
93777,-125,4,2,0,40,0,0
95845,508.474576271186,4,2,0,40,1,0
95845,-166.666666666667,4,2,0,40,0,0
97878,500,4,2,0,40,1,0
97878,-166.666666666667,4,2,0,40,0,0
99878,491.803278688525,4,2,0,40,1,0
99878,-166.666666666667,4,2,0,40,0,0
101845,483.870967741935,4,2,0,40,1,0
101845,-250,4,2,0,40,0,0
103780,476.190476190476,4,2,0,40,1,0
103780,-250,4,2,0,40,0,0
105684,468.75,4,2,0,40,1,0

[Colours]
Combo1 : 128,128,128
Combo2 : 96,0,255

[HitObjects]
108,99,2201,6,0,P|110:130|112:167,1,60.7499981460572
109,239,2746,1,0,0:0:0:0:
209,116,3019,1,0,0:0:0:0:
235,273,3291,1,0,0:0:0:0:
235,273,3837,1,0,0:0:0:0:
419,16,4382,5,0,0:0:0:0:
457,170,4655,1,0,0:0:0:0:
314,95,4928,1,0,0:0:0:0:
314,95,5473,2,0,L|315:151,1,40.4999987640381
299,295,6019,2,0,L|288:247,1,40.4999987640381
215,113,6564,6,0,P|191:149|163:163,1,60.7499981460572
99,177,7110,1,0,0:0:0:0:
180,41,7382,1,0,0:0:0:0:
276,170,7655,1,0,0:0:0:0:
276,170,8201,1,0,0:0:0:0:
9,339,8746,5,0,0:0:0:0:
74,193,9019,1,0,0:0:0:0:
209,277,9291,1,0,0:0:0:0:
209,277,9837,2,0,L|201:228,1,40.4999987640381
344,165,10382,2,0,L|356:216,1,40.4999987640381
266,338,10928,6,0,P|239:353|209:358,1,60.7499981460572
134,335,11473,1,0,0:0:0:0:
176,180,11746,1,0,0:0:0:0:
309,271,12019,1,0,0:0:0:0:
309,271,12564,1,0,0:0:0:0:
51,88,13110,5,0,0:0:0:0:
204,44,13382,1,0,0:0:0:0:
169,200,13655,1,0,0:0:0:0:
169,200,14201,2,0,L|172:256,1,40.4999987640381
265,111,14746,2,0,L|268:167,1,40.4999987640381
355,18,15291,6,0,L|360:90,1,60.7499981460572
364,158,15837,1,0,0:0:0:0:
223,83,16110,1,0,0:0:0:0:
298,224,16382,1,0,0:0:0:0:
298,224,16928,1,0,0:0:0:0:
17,77,17473,5,0,0:0:0:0:
129,190,17746,1,0,0:0:0:0:
166,34,18019,1,0,0:0:0:0:
166,34,18564,2,0,L|220:30,1,40.4999987640381
364,58,19110,2,0,L|305:50,1,40.4999987640381
121,55,19655,6,0,L|201:67,1,80.9999975280763
282,83,20064,1,0,0:0:0:0:
282,83,20201,1,0,0:0:0:0:
48,100,20473,2,0,P|34:62|44:23,1,80.9999975280763
120,135,21019,1,0,0:0:0:0:
286,166,21291,1,0,0:0:0:0:
286,166,21428,2,0,P|333:151|356:107,1,80.9999975280763
361,46,21837,6,0,L|444:80,1,80.9999975280763
477,143,22246,1,0,0:0:0:0:
477,143,22382,2,0,L|473:238,1,80.9999975280763
361,46,22928,2,0,L|357:141,1,80.9999975280763
394,316,23473,1,0,0:0:0:0:
394,316,23610,2,0,L|404:225,1,80.9999975280763
410,154,24019,6,0,P|351:183|343:133,1,121.499996292114
371,73,24564,1,0,0:0:0:0:
211,206,24837,2,0,L|226:295,1,80.9999975280763
176,118,25382,2,0,P|143:141|123:176,1,80.9999975280763
140,259,25791,2,0,P|119:293|86:316,1,80.9999975280763
17,357,26201,6,0,L|117:362,1,80.9999975280763
188,364,26610,1,0,0:0:0:0:
188,364,26746,1,0,0:0:0:0:
279,200,27019,1,0,0:0:0:0:
86,196,27291,2,0,P|75:158|83:119,1,80.9999975280763
279,200,27837,1,0,0:0:0:0:
279,200,27973,2,0,P|290:161|282:122,1,80.9999975280763
250,47,28382,6,0,L|350:53,1,80.9999975280763
420,65,28791,1,0,0:0:0:0:
419,65,28928,2,0,P|404:102|403:142,1,80.9999975280763
512,8,29473,1,0,0:0:0:0:
326,33,29746,1,0,0:0:0:0:
444,197,30019,1,0,0:0:0:0:
444,197,30155,2,0,P|433:243|436:289,1,80.9999975280763
473,353,30564,6,0,P|417:354|386:368,1,80.9999975280763
314,374,30973,1,0,0:0:0:0:
314,374,31110,1,0,0:0:0:0:
301,194,31382,1,0,0:0:0:0:
148,347,31655,2,0,L|50:325,1,80.9999975280763
218,214,32201,1,0,0:0:0:0:
218,214,32337,2,0,L|120:192,1,80.9999975280763
51,199,32746,6,0,P|77:151|71:96,1,80.9999975280763
50,54,33155,1,0,0:0:0:0:
50,54,33291,2,0,L|141:72,1,80.9999975280763
315,108,33837,1,0,0:0:0:0:
196,239,34110,1,0,0:0:0:0:
313,187,34382,1,0,0:0:0:0:
313,187,34519,2,0,P|318:121|311:99,1,80.9999975280763
335,36,34928,6,0,L|428:48,1,80.9999975280763
494,60,35337,1,0,0:0:0:0:
494,60,35473,1,0,0:0:0:0:
295,116,35746,1,0,0:0:0:0:
435,259,36019,2,0,L|419:309,2,40.4999987640381
472,73,36564,2,0,L|495:123,2,40.4999987640381
268,194,37110,6,0,P|221:154|228:78,1,121.499996292114
379,124,37519,1,0,0:0:0:0:
163,204,37655,2,0,L|88:199,1,60.7499981460572
243,295,37928,2,0,L|179:298,1,60.7499981460572
307,355,38201,6,0,P|323:325|327:293,1,60.7499981460572
288,138,38473,2,0,P|271:167|268:200,1,60.7499981460572
446,175,38746,2,0,P|462:116|425:56,1,121.499996292114
288,138,39155,1,0,0:0:0:0:
405,255,39291,6,0,L|465:247,1,60.7499981460572
400,341,39564,1,0,0:0:0:0:
364,176,39701,1,0,0:0:0:0:
270,222,39837,2,0,B|259:155|272:123|272:123|287:137,1,121.499996292114
227,343,40382,6,0,P|191:349|153:343,1,60.7499981460572
353,256,40655,1,0,0:0:0:0:
252,131,40791,2,0,B|169:113|169:113|184:146,1,121.499996292114
346,138,41201,2,0,P|340:108|326:81,1,60.7499981460572
93,124,41473,6,0,P|106:66|157:36,1,121.499996292114
252,131,41882,1,0,0:0:0:0:
120,211,42019,2,0,L|48:224,1,60.7499981460572
201,280,42291,2,0,L|137:294,1,60.7499981460572
316,294,42564,6,0,P|353:246|348:187,1,121.499996292114
196,16,43110,2,0,P|159:64|164:123,1,121.499996292114
284,53,43519,1,0,0:0:0:0:
69,51,43655,6,0,L|-21:62,1,60.7499981460572
99,164,43928,2,0,L|37:145,1,60.7499981460572
123,254,44201,2,0,L|185:236,1,60.7499981460572
79,345,44473,2,0,L|151:348,1,60.7499981460572
290,335,44746,6,0,L|225:313,1,60.7499981460572
379,292,45019,1,0,0:0:0:0:
300,119,45155,2,0,B|300:240,1,121.499996292114
477,296,45565,2,0,P|471:266|457:239,1,60.7499981460572
279,119,45837,6,0,L|273:180,1,60.7499981460572
351,34,46110,2,0,L|359:96,1,60.7499981460572
190,83,46382,6,0,L|184:144,1,60.7499981460572
463,98,46655,2,0,L|471:160,1,60.7499981460572
307,264,46928,6,0,L|301:325,1,60.7499981460572
379,179,47201,2,0,L|387:241,1,60.7499981460572
210,218,47473,6,0,L|204:279,1,60.7499981460572
483,233,47746,2,0,L|491:295,1,60.7499981460572
215,157,48019,6,0,L|209:218,1,60.7499981460572
287,72,48292,2,0,L|295:134,1,60.7499981460572
126,121,48564,6,0,L|120:182,1,60.7499981460572
399,136,48837,2,0,L|407:198,1,60.7499981460572
123,241,49110,6,0,L|117:302,1,60.7499981460572
198,160,49383,2,0,L|206:222,1,60.7499981460572
45,196,49655,6,0,L|39:257,1,60.7499981460572
319,211,49928,2,0,L|327:273,1,60.7499981460572
121,123,50201,5,0,0:0:0:0:
198,160,50337,1,0,0:0:0:0:
36,113,50473,1,0,0:0:0:0:
192,73,50610,1,0,0:0:0:0:
45,196,50746,6,0,P|13:194|-14:183,1,60.7499981460572
27,27,51019,2,0,P|59:29|86:40,1,60.7499981460572
132,213,51291,5,0,0:0:0:0:
267,111,51428,1,0,0:0:0:0:
275,198,51564,1,0,0:0:0:0:
192,73,51701,1,0,0:0:0:0:
203,244,51837,6,0,P|223:268|251:280,1,60.7499981460572
343,148,52110,2,0,P|323:124|295:112,1,60.7499981460572
91,339,52382,6,0,P|21:282|44:195,1,188.999994232178
223,205,53201,1,0,0:0:0:0:
223,205,53473,1,0,0:0:0:0:
54,35,54019,6,0,L|58:91,1,47.2499985580445
24,347,54291,2,0,L|18:294,1,47.2499985580445
52,119,54564,6,0,B|78:128|109:103|109:103|112:118|112:118|143:93|193:96|207:131|188:168|148:132,1,202.5
54,35,55110,5,0,0:0:0:0:
76,211,55246,1,0,0:0:0:0:
52,119,55382,1,0,0:0:0:0:
52,300,55519,1,0,0:0:0:0:
331,279,55655,5,0,0:0:0:0:
128,274,55791,1,0,0:0:0:0:
413,303,55928,1,0,0:0:0:0:
182,207,56064,1,0,0:0:0:0:
473,357,56201,2,0,P|491:320|488:278,1,80.9999975280763
369,150,56473,1,0,0:0:0:0:
208,285,56610,1,0,0:0:0:0:
485,195,56746,6,0,B|516:217|516:163|516:163|533:141|533:141|533:76|505:38|505:102,1,202.5
488,278,57291,5,0,0:0:0:0:
371,45,57428,1,0,0:0:0:0:
320,251,57564,1,0,0:0:0:0:
488,115,57701,1,0,0:0:0:0:
241,283,57837,6,0,P|234:250|241:217,1,67.5
314,98,58110,2,0,P|320:130|313:163,1,67.5
105,158,58382,2,0,B|238:130,1,135
109,362,58928,6,0,B|73:300|93:259|124:233|124:233|154:258|138:294|106:272,1,202.5
20,366,59473,5,0,0:0:0:0:
29,195,59609,1,0,0:0:0:0:
224,246,59745,1,0,0:0:0:0:
0,278,59882,1,0,0:0:0:0:
297,199,60018,6,0,P|308:234|302:287,1,80.9999975280763
135,237,60291,1,0,0:0:0:0:
387,236,60427,1,0,0:0:0:0:
52,261,60564,6,0,P|52:225|75:176,1,80.9999975280763
297,199,60837,1,0,0:0:0:0:
174,312,60972,1,0,0:0:0:0:
345,109,61110,6,0,B|354:146|387:160|387:160|375:173|375:173|389:187|389:187|409:215|412:250|412:250|381:233,1,202.5
249,113,61654,5,0,0:0:0:0:
428,84,61791,1,0,0:0:0:0:
297,199,61927,1,0,0:0:0:0:
512,90,62064,1,0,0:0:0:0:
214,249,62200,6,0,P|201:216|201:182,1,67.5
355,35,62473,2,0,P|368:68|368:102,1,67.5
196,280,62746,6,0,P|183:247|183:213,1,67.5
337,66,63019,2,0,P|350:99|350:133,1,67.5
204,363,63291,6,0,B|161:337|112:375|75:350|75:350|88:304|146:315,1,202.5
402,252,63837,5,2,0:0:0:0:
232,205,63973,1,2,0:0:0:0:
322,313,64109,1,2,0:0:0:0:
290,113,64246,1,2,0:0:0:0:
123,202,64382,5,2,0:0:0:0:
370,159,64519,1,2,0:0:0:0:
174,105,64655,1,2,0:0:0:0:
240,366,64791,1,2,0:0:0:0:
369,65,64928,5,2,0:0:0:0:
512,269,65064,1,2,0:0:0:0:
201,221,65200,1,2,0:0:0:0:
403,305,65336,1,2,0:0:0:0:
156,299,65473,6,0,B|151:281|157:260|157:260|148:243|148:243|163:211|153:175|153:175|199:176|203:232,1,202.5
201,378,66018,5,0,0:0:0:0:
60,204,66155,1,0,0:0:0:0:
333,224,66291,1,0,0:0:0:0:
156,299,66428,1,0,0:0:0:0:
336,71,66564,6,0,P|329:104|336:137,1,67.5
409,256,66837,2,0,P|415:224|408:191,1,67.5
201,196,67109,2,0,B|334:224,1,135
112,172,67655,6,0,B|108:151|125:120|125:120|116:91|124:63|124:63|148:80|186:90|186:90|189:111,1,202.5
246,249,68201,5,0,0:0:0:0:
31,200,68337,1,0,0:0:0:0:
315,196,68473,1,0,0:0:0:0:
94,261,68610,1,0,0:0:0:0:
386,139,68746,6,0,P|400:176|402:216,1,80.9999975280763
169,230,69019,1,0,0:0:0:0:
315,196,69155,1,0,0:0:0:0:
126,93,69292,6,0,P|112:131|112:172,1,80.9999975280763
399,222,69564,1,0,0:0:0:0:
198,146,69701,1,0,0:0:0:0:
464,281,69837,6,0,B|502:228|470:173|470:173|484:137|484:137|481:107|481:107|454:136,1,202.5
399,222,70382,5,0,0:0:0:0:
429,24,70519,1,0,0:0:0:0:
251,211,70655,1,0,0:0:0:0:
266,13,70792,1,0,0:0:0:0:
316,270,70928,6,0,P|286:289|253:296,1,67.5
77,176,71201,2,0,P|106:156|139:149,1,67.5
350,281,71474,6,0,P|320:300|287:307,1,67.5
111,187,71747,2,0,P|140:167|173:160,1,67.5
391,296,72019,6,0,B|348:344|304:351|259:349|259:349|264:314|308:297,1,202.5
476,245,72564,6,0,P|487:283|484:323,1,80.9999975280763
392,202,72837,1,0,0:0:0:0:
392,202,72973,1,0,0:0:0:0:
235,263,73110,6,0,P|274:265|312:253,1,80.9999975280763
173,191,73383,1,0,0:0:0:0:
173,191,73519,1,0,0:0:0:0:
72,60,73655,6,0,P|62:98|65:138,1,80.9999975280763
156,14,73928,1,0,0:0:0:0:
156,14,74064,1,0,0:0:0:0:
140,283,74201,6,0,B|75:279|18:299|18:299|21:228|71:254,1,202.5
304,322,74746,6,0,P|321:285|325:245,1,80.9999975280763
221,354,75019,1,0,0:0:0:0:
221,354,75155,1,0,0:0:0:0:
41,210,75291,6,0,P|63:184|94:171,1,67.5
232,160,75564,2,0,P|209:183|178:197,1,67.5
35,49,75837,2,0,B|167:115,1,135
322,261,76382,6,0,P|331:179|389:236,1,202.5
145,191,76928,6,0,P|140:151|156:114,1,80.9999975280763
330,155,77201,1,0,0:0:0:0:
191,269,77337,1,0,0:0:0:0:
191,269,77405,1,0,0:0:0:0:
191,269,77473,6,0,P|153:282|113:275,1,80.9999975280763
239,191,77746,1,0,0:0:0:0:
239,191,77882,1,0,0:0:0:0:
413,195,78019,6,0,P|422:155|414:116,1,80.9999975280763
255,102,78291,1,0,0:0:0:0:
255,102,78428,1,0,0:0:0:0:
480,272,78564,6,0,B|494:239|494:239|485:232|485:232|519:163|487:73,1,202.5
330,156,79110,5,0,0:0:0:0:
399,277,79246,1,0,0:0:0:0:
239,191,79382,1,0,0:0:0:0:
245,313,79519,1,0,0:0:0:0:
245,313,79587,1,0,0:0:0:0:
245,313,79655,6,0,L|170:306,1,67.5
0,266,79928,2,0,L|76:247,1,67.5
239,191,80201,6,0,L|164:184,1,67.5
0,132,80474,2,0,L|76:113,1,67.5
363,112,80746,6,0,B|342:133|342:133|350:144|350:144|336:161|336:161|298:91|221:97,1,202.5
414,178,81291,6,0,P|441:149|446:109,1,80.9999975280763
324,40,81564,1,0,0:0:0:0:
512,60,81700,1,0,0:0:0:0:
241,54,81837,6,0,L|138:61,1,80.9999975280763
363,112,82110,1,0,0:0:0:0:
212,197,82246,1,0,0:0:0:0:
86,15,82382,6,0,P|75:54|79:94,1,80.9999975280763
290,113,82655,1,0,0:0:0:0:
160,60,82791,1,0,0:0:0:0:
142,219,82928,6,0,B|172:203|172:203|196:217|196:217|212:197|212:197|271:235|338:220,1,202.5
384,35,83473,6,0,P|367:72|363:112,1,80.9999975280763
512,27,83746,1,0,0:0:0:0:
301,32,83882,1,0,0:0:0:0:
478,117,84019,6,0,L|461:205,1,67.5
290,113,84291,2,0,L|307:201,1,67.5
440,299,84564,2,0,P|382:268|326:300,1,135
93,352,85109,6,0,B|138:372|175:347|175:347|191:363|191:363|242:340|282:361,1,202.5
7,350,85655,6,0,P|14:312|48:276,1,80.9999975280763
209,217,85928,1,0,0:0:0:0:
321,348,86064,1,0,0:0:0:0:
321,348,86132,1,0,0:0:0:0:
321,348,86201,6,0,P|314:310|280:274,1,80.9999975280763
163,172,86473,1,0,0:0:0:0:
163,172,86609,1,0,0:0:0:0:
0,145,86746,6,0,P|7:107|41:71,1,80.9999975280763
226,158,87018,1,0,0:0:0:0:
226,158,87155,1,0,0:0:0:0:
446,34,87291,6,0,B|466:19|466:19|459:-1|418:2|399:37|469:105|430:174,1,202.5
308,124,87837,5,0,0:0:0:0:
468,225,87973,1,0,0:0:0:0:
288,223,88109,1,0,0:0:0:0:
466,304,88246,1,0,0:0:0:0:
466,304,88314,1,0,0:0:0:0:
466,304,88382,6,0,L|469:379,1,67.5
318,245,88655,2,0,L|321:320,1,67.5
168,188,88928,6,0,L|171:263,1,67.5
46,84,89201,2,0,L|49:159,1,67.5
188,328,89473,6,0,P|249:354|239:288,1,162
170,255,90018,1,0,0:0:0:0:
238,128,90291,1,0,0:0:0:0:
318,245,90563,1,0,0:0:0:0:
318,245,91109,1,0,0:0:0:0:
129,97,91654,6,0,L|22:131,2,108
398,18,92715,2,0,L|383:127,1,108
482,226,93246,2,0,L|456:99,1,108
398,18,93777,6,0,P|374:54|249:78,1,162
191,48,94294,1,0,0:0:0:0:
199,212,94552,1,0,0:0:0:0:
92,107,94811,1,0,0:0:0:0:
92,107,95328,1,0,0:0:0:0:
279,236,95845,6,0,P|282:188|260:153,2,80.9999975280763
238,28,96861,2,0,L|328:32,1,80.9999975280763
423,72,97370,2,0,L|337:109,1,80.9999975280763
238,28,97878,6,0,L|250:166,1,121.499996292114
298,215,98378,1,0,0:0:0:0:
165,131,98628,1,0,0:0:0:0:
357,154,98878,1,0,0:0:0:0:
357,154,99378,1,0,0:0:0:0:
199,52,99878,6,0,L|107:30,2,80.9999975280763
169,200,100861,2,0,L|185:290,1,80.9999975280763
267,107,101353,2,0,L|253:199,1,80.9999975280763
335,0,101845,6,0,L|354:82,1,81
375,158,102328,1,0,0:0:0:0:
198,155,102570,1,0,0:0:0:0:
330,229,102812,1,0,0:0:0:0:
330,229,103296,1,0,0:0:0:0:
459,140,103780,6,0,L|440:83,2,54
462,311,104732,2,0,L|475:250,1,54
293,330,105208,2,0,L|274:273,1,54
298,160,105684,5,0,0:0:0:0:
