osu file format v14

[General]
AudioFilename: op2.mp3
AudioLeadIn: 0
PreviewTime: 19060
Countdown: 0
SampleSet: Soft
StackLeniency: 0.5
Mode: 0
LetterboxInBreaks: 0
WidescreenStoryboard: 0

[Editor]
Bookmarks: 104020
DistanceSpacing: 1
BeatDivisor: 8
GridSize: 32
TimelineZoom: 1

[Metadata]
Title:Tsunagaranai Sekai
TitleUnicode:繋がらない世界
Artist:Denkishiki Karen Ongaku Shuudan
ArtistUnicode:電気式華憐音楽集団
Creator:PinkHeart
Version:Normal
Source:サクラノモリ†ドリーマーズ2
Tags:galgame visual novel eroge opening sakura no mori dreamers moonstone
BeatmapID:1279892
BeatmapSetID:604980

[Difficulty]
HPDrainRate:4
CircleSize:3.8
OverallDifficulty:4
ApproachRate:5
SliderMultiplier:0.999999904632569
SliderTickRate:1

[Events]
//Background and Video events
0,0,"bg.jpg",0,0
//Break Periods
2,43020,45460
2,71620,72340
2,104220,104980
//Storyboard Layer 0 (Background)
//Storyboard Layer 1 (Fail)
//Storyboard Layer 2 (Pass)
//Storyboard Layer 3 (Foreground)
//Storyboard Sound Samples

[TimingPoints]
12100,480,4,2,1,40,1,0
35140,-100,4,2,1,50,0,0
40900,-100,4,2,1,60,0,0
46660,-100,4,2,1,40,0,0
69700,-100,4,2,1,60,0,0
70180,-100,4,2,1,20,0,0
73540,-100,4,2,1,60,0,1
74800,-100,4,2,1,5,0,1
74860,-100,4,2,1,60,0,1
78640,-100,4,2,1,5,0,1
78700,-100,4,2,1,60,0,1
88420,-100,4,2,1,40,0,0
88900,-100,4,2,1,60,0,1
90160,-100,4,2,1,5,0,1
90220,-100,4,2,1,60,0,1
94000,-100,4,2,1,5,0,1
94060,-100,4,2,1,60,0,1
102520,-100,4,2,1,5,0,1
102580,-100,4,2,1,60,0,1
102880,-100,4,2,1,5,0,1
102940,-100,4,2,1,60,0,1
103240,-100,4,2,1,5,0,1
103300,-100,4,2,1,60,0,1
104020,-100,4,2,1,60,0,0
106180,-100,4,2,1,40,0,0
110140,-100,4,2,1,10,0,0

[Colours]
Combo1 : 255,128,255
Combo2 : 0,11,213
Combo3 : 128,32,0
Combo4 : 255,128,192

[HitObjects]
128,269,12100,38,0,P|182:322|256:326,1,149.999985694885,2|0,0:0|0:0,0:0:0:0:
383,114,14020,6,0,P|329:61|256:57,1,149.999985694885,0|0,0:0|0:0,0:0:0:0:
330,296,15940,38,0,P|383:348|457:352,1,149.999985694885,2|0,0:0|0:0,0:0:0:0:
390,217,17380,1,0,0:0:0:0:
330,296,17860,6,0,P|257:314|191:281,1,149.999985694885
205,133,19300,2,0,P|232:145|250:163,1,49.9999952316285,0|0,0:0|0:0,0:0:0:0:
269,204,19780,38,0,L|383:178,1,99.9999904632569,2|0,0:0|0:0,0:0:0:0:
196,75,21220,2,0,P|168:87|150:105,1,49.9999952316285,0|0,0:0|0:0,0:0:0:0:
132,146,21700,6,0,L|18:120,1,99.9999904632569,2|0,0:0|0:0,0:0:0:0:
176,265,23140,2,0,P|203:252|221:234,1,49.9999952316285,0|0,0:0|0:0,0:0:0:0:
240,194,23620,38,0,L|354:220,1,99.9999904632569,2|0,0:0|0:0,0:0:0:0:
351,16,25060,2,0,P|327:24|308:40,1,49.9999952316285,0|0,0:0|0:0,0:0:0:0:
290,87,25540,6,0,L|404:113,1,99.9999904632569,2|0,0:0|0:0,0:0:0:0:
358,150,26260,2,0,B|457:173|457:173|499:149,1,149.999985694885,2|0,0:0|0:0,0:0:0:0:
499,249,27460,37,2,0:0:0:0:
372,329,28180,1,0,0:0:0:0:
366,179,28900,1,0,0:0:0:0:
297,251,29380,5,2,0:0:0:0:
291,101,30100,1,0,0:0:0:0:
164,181,30820,1,0,0:0:0:0:
256,192,31300,12,2,33220,0:0:0:0:
98,123,35140,37,4,0:0:0:0:
189,163,35620,2,0,L|241:146,1,49.9999952316285,0|4,0:0|0:3,0:0:0:0:
283,130,36100,2,0,P|348:133|393:171,1,99.9999904632569,0|2,1:0|0:3,0:0:0:0:
311,227,37060,6,0,L|225:265,2,74.9999928474427,4|4|4,0:0|0:3|0:3,0:0:0:0:
356,247,38020,2,0,L|441:285,2,74.9999928474427,0|4|0,1:0|0:3|0:0,0:0:0:0:
350,197,38980,37,4,0:0:0:0:
411,118,39460,2,0,L|350:90,1,49.9999952316285,0|4,0:0|0:3,0:0:0:0:
318,79,39940,2,0,P|240:106|227:128,1,99.9999904632569,0|2,1:0|0:3,0:0:0:0:
222,167,40660,1,8,0:3:0:0:
208,215,40900,22,0,L|114:244,1,74.9999928474427,4|4,0:0|0:3,0:0:0:0:
96,300,41620,2,0,L|34:280,2,49.9999952316285,4|0|4,1:0|1:3|0:3,0:0:0:0:
144,312,42340,1,8,0:3:0:0:
192,298,42580,1,4,0:3:0:0:
239,283,42820,1,4,0:0:0:0:
401,209,46660,21,4,0:0:0:0:
401,209,46900,2,0,L|465:225,2,49.9999952316285,0|0|0,0:0|0:0|0:0,0:0:0:0:
354,189,47620,2,0,B|299:163|274:236|211:207,1,149.999985694885,2|0,0:3|0:0,0:0:0:0:
181,167,48580,6,0,P|127:154|93:164,2,74.9999928474427,4|4|0,0:3|0:3|0:0,0:0:0:0:
211,207,49540,2,0,P|207:244|220:279,2,74.9999928474427,2|0|2,0:3|0:3|0:3,0:0:0:0:
235,163,50500,37,4,0:3:0:0:
261,120,50740,2,0,L|233:68,2,49.9999952316285,0|0|0,0:0|0:0|0:3,0:0:0:0:
291,159,51460,2,0,B|346:185|371:112|434:141,1,149.999985694885,2|0,0:3|0:0,0:0:0:0:
466,178,52420,6,0,L|466:274,2,74.9999928474427,4|4|0,0:3|0:3|0:0,0:0:0:0:
465,128,53380,1,2,0:3:0:0:
242,185,54340,37,4,0:0:0:0:
242,185,54580,2,0,L|190:146,2,49.9999952316285
284,214,55300,2,0,P|315:270|407:284,1,149.999985694885,2|0,0:3|0:0,0:0:0:0:
438,264,56260,6,0,P|474:255|513:262,2,74.9999928474427,4|4|0,0:3|0:3|0:0,0:0:0:0:
394,288,57220,1,2,0:3:0:0:
305,241,57700,2,0,P|265:258|238:258,1,49.9999952316285,8|0,0:3|0:0,0:0:0:0:
209,248,58180,38,0,P|169:201|170:144,1,99.9999904632569,4|0,0:3|0:0,0:0:0:0:
183,117,58900,1,4,0:3:0:0:
223,87,59140,1,2,0:3:0:0:
136,37,59620,1,4,0:3:0:0:
223,87,60100,6,0,P|275:86|312:65,2,74.9999928474427,4|8|4,0:3|0:3|0:3,0:0:0:0:
178,62,61060,2,0,L|136:37,2,49.9999952316285,6|0|4,1:3|0:0|0:3,0:0:0:0:
182,112,61780,1,2,0:0:0:0:
187,161,62020,38,0,L|251:199,2,74.9999928474427,4|0|0,0:0|0:0|0:0,0:0:0:0:
142,138,62980,1,2,0:3:0:0:
79,215,63460,1,0,0:0:0:0:
123,238,63700,1,0,0:0:0:0:
172,232,63940,6,0,P|208:209|247:205,2,74.9999928474427,4|4|4,0:3|0:3|0:3,0:0:0:0:
155,279,64900,2,0,P|118:301|79:305,2,74.9999928474427,2|0|8,0:3|0:0|0:3,0:0:0:0:
172,232,65860,38,0,L|111:167,2,74.9999928474427,4|0|4,0:0|0:0|0:3,0:0:0:0:
206,268,66820,1,2,0:3:0:0:
289,213,67300,1,0,0:0:0:0:
285,262,67540,1,0,0:0:0:0:
307,304,67780,6,0,P|350:330|397:331,2,74.9999928474427,4|4|4,0:3|0:3|0:3,0:0:0:0:
285,262,68740,2,0,P|285:212|311:168,1,99.9999904632569,8|2,0:3|0:3,0:0:0:0:
407,144,69700,38,0,L|249:107,1,149.999985694885,4|2,0:0|0:0,0:0:0:0:
92,132,73540,21,4,0:0:0:0:
130,163,73780,1,0,0:3:0:0:
179,168,74020,2,0,P|243:144|266:116,1,99.9999904632569,2|0,0:3|1:0,0:0:0:0:
302,212,74980,2,0,P|285:245|281:261,1,49.9999952316285,4|0,0:3|0:3,0:0:0:0:
285,307,75460,5,8,0:3:0:0:
313,348,75700,1,4,0:3:0:0:
360,364,75940,2,0,P|417:360|454:338,1,99.9999904632569,2|0,0:3|1:0,0:0:0:0:
471,240,76900,2,0,P|460:198|451:185,1,49.9999952316285,4|0,2:3|0:0,0:0:0:0:
418,159,77380,37,4,0:0:0:0:
409,208,77620,1,0,0:0:0:0:
376,246,77860,2,0,P|326:268|281:263,1,99.9999904632569,2|0,0:3|1:0,0:0:0:0:
211,192,78820,2,0,L|197:263,1,49.9999952316285,2|0,0:0|0:0,0:0:0:0:
184,288,79300,6,0,L|93:307,2,74.9999928474427,4|4|4,0:0|0:3|0:3,0:0:0:0:
233,278,80260,1,0,1:3:0:0:
330,302,80740,1,4,0:3:0:0:
349,255,80980,1,4,0:3:0:0:
366,208,81220,6,0,L|404:103,1,99.9999904632569,4|0,0:0|0:0,0:0:0:0:
421,68,81940,1,4,0:3:0:0:
443,23,82180,2,0,P|462:87|521:129,1,99.9999904632569,0|0,1:0|0:0,0:0:0:0:
404,170,83140,6,0,P|356:154|310:160,2,74.9999928474427,4|4|4,0:1|0:3|0:3,0:0:0:0:
439,205,84100,2,0,P|486:220|532:214,2,74.9999928474427,0|0|4,1:0|0:0|0:3,0:0:0:0:
449,253,85060,38,0,P|422:316|292:321,1,199.999980926514,4|0,0:0|1:0,0:0:0:0:
240,250,86500,1,0,0:0:0:0:
230,299,86740,1,4,0:3:0:0:
218,347,86980,22,0,L|128:365,2,74.9999928474427,4|8|4,0:0|0:3|0:3,0:0:0:0:
267,338,87940,2,0,L|365:318,1,99.9999904632569,0|2,1:3|1:3,0:0:0:0:
394,222,88900,5,4,0:0:0:0:
359,186,89140,1,0,0:0:0:0:
309,185,89380,2,0,P|270:202|244:270,1,99.9999904632569,2|0,0:3|1:0,0:0:0:0:
201,341,90340,2,0,P|173:325|163:311,1,49.9999952316285,4|0,0:3|0:0,0:0:0:0:
138,267,90820,37,8,0:3:0:0:
136,217,91060,1,4,0:3:0:0:
156,171,91300,2,0,P|205:132|257:127,1,99.9999904632569,2|0,0:3|1:0,0:0:0:0:
340,141,92260,2,0,P|372:170|379:188,1,49.9999952316285,4|0,0:3|0:0,0:0:0:0:
326,191,92740,5,4,0:0:0:0:
292,153,92980,1,0,0:0:0:0:
287,103,93220,2,0,P|316:43|350:21,1,99.9999904632569,2|0,0:3|1:0,0:0:0:0:
431,68,94180,2,0,P|444:110|441:129,1,49.9999952316285,2|0,0:0|0:3,0:0:0:0:
433,164,94660,38,0,L|518:183,2,74.9999928474427,4|4|4,0:0|0:3|0:3,0:0:0:0:
384,151,95620,1,0,1:0:0:0:
309,217,96100,1,4,0:3:0:0:
261,202,96340,1,4,0:3:0:0:
213,183,96580,22,0,P|124:214|110:308,1,199.999980926514,4|0,0:0|1:0,0:0:0:0:
210,317,98020,2,0,P|204:293|192:272,1,49.9999952316285,4|0,0:3|0:0,0:0:0:0:
152,241,98500,6,0,P|129:200|134:151,2,74.9999928474427,4|4|0,0:1|0:3|0:0,0:0:0:0:
191,271,99460,2,0,P|228:280|266:275,2,74.9999928474427,0|8|6,1:0|0:3|0:3,0:0:0:0:
152,241,100420,38,0,P|131:323|19:315,1,199.999980926514,4|0,0:0|1:0,0:0:0:0:
29,225,101860,1,0,0:0:0:0:
52,181,102100,1,6,0:3:0:0:
72,135,102340,22,0,L|46:60,2,74.9999928474427,4|4|0,0:0|0:3|1:0,0:0:0:0:
91,181,103300,2,0,B|132:188|150:164|189:171,1,99.9999904632569,8|4,0:3|1:0,0:0:0:0:
233,196,104020,5,4,1:2:0:0:
343,316,106180,6,0,P|325:246|338:206,1,99.9999904632569,2|0,0:3|0:0,0:0:0:0:
352,175,106900,1,0,0:0:0:0:
396,152,107140,1,2,0:0:0:0:
427,247,107620,1,0,0:0:0:0:
331,220,108100,6,0,P|261:239|233:270,1,99.9999904632569,2|0,0:3|0:0,0:0:0:0:
213,298,108820,1,0,0:3:0:0:
215,347,109060,1,2,0:0:0:0:
135,286,109540,1,2,0:3:0:0:
59,220,110020,5,4,0:0:0:0:
256,192,110260,12,0,113860,0:0:0:0:
