osu file format v14

[General]
AudioFilename: op2.mp3
AudioLeadIn: 0
PreviewTime: 19060
Countdown: 0
SampleSet: Soft
StackLeniency: 0.3
Mode: 0
LetterboxInBreaks: 0
WidescreenStoryboard: 0

[Editor]
Bookmarks: 104020
DistanceSpacing: 0.5
BeatDivisor: 4
GridSize: 32
TimelineZoom: 1

[Metadata]
Title:Tsunagaranai Sekai
TitleUnicode:繋がらない世界
Artist:Denkishiki Karen Ongaku Shuudan
ArtistUnicode:電気式華憐音楽集団
Creator:PinkHeart
Version:Cry END
Source:サクラノモリ†ドリーマーズ2
Tags:galgame visual novel eroge opening sakura no mori dreamers moonstone
BeatmapID:1278215
BeatmapSetID:604980

[Difficulty]
HPDrainRate:7.2
CircleSize:4
OverallDifficulty:7.2
ApproachRate:9
SliderMultiplier:3.59999990463257
SliderTickRate:1

[Events]
//Background and Video events
0,0,"bg.jpg",0,0
//Break Periods
2,43020,46060
2,71620,72940
2,104339,105580
//Storyboard Layer 0 (Background)
//Storyboard Layer 1 (Fail)
//Storyboard Layer 2 (Pass)
//Storyboard Layer 3 (Foreground)
//Storyboard Sound Samples

[TimingPoints]
12100,480,4,2,1,40,1,0
12100,-200,4,2,1,40,0,0
14020,-200,4,2,1,25,0,0
14740,-200,4,2,1,40,0,0
17380,-200,4,2,1,30,0,0
17860,-200,4,2,1,40,0,0
19180,-200,4,2,1,20,0,0
19300,-200,4,2,1,30,0,0
19780,-200,4,2,1,40,0,0
35140,-200,4,2,1,50,0,0
40900,-133.333333333333,4,2,1,60,0,0
42100,-100,4,2,1,60,0,0
46660,-200,4,2,1,40,0,0
69700,-200,4,2,1,60,0,0
70180,-200,4,2,1,20,0,0
73540,-100,4,2,1,60,0,1
74020,-150.15015015015,4,2,1,60,0,1
74500,-113.636363636364,4,2,1,60,0,1
74800,-113.636363636364,4,2,1,5,0,1
74860,-133.333333333333,4,2,1,60,0,1
75460,-100,4,2,1,60,0,1
75940,-150.15015015015,4,2,1,60,0,1
76900,-100,4,2,1,60,0,1
77860,-149.253731343284,4,2,1,60,0,1
78280,-100,4,2,1,60,0,1
78640,-100,4,2,1,5,0,1
78700,-200,4,2,1,60,0,1
80740,-133.333333333333,4,2,1,60,0,1
81220,-100,4,2,1,60,0,1
81460,-133.333333333333,4,2,1,60,0,1
81700,-100,4,2,1,60,0,1
81940,-133.333333333333,4,2,1,60,0,1
82660,-200,4,2,1,60,0,1
83140,-100,4,2,1,60,0,1
83860,-133.333333333333,4,2,1,60,0,1
84580,-100,4,2,1,60,0,1
86740,-133.333333333333,4,2,1,60,0,1
86980,-133.333333333333,4,2,1,60,0,1
87340,-100,4,2,1,60,0,1
88420,-133.333333333333,4,2,1,40,0,0
88900,-100,4,2,1,60,0,1
89380,-149.253731343284,4,2,1,60,0,1
89860,-113.636363636364,4,2,1,60,0,1
90160,-113.636363636364,4,2,1,5,0,1
90220,-133.333333333333,4,2,1,60,0,1
90820,-100,4,2,1,60,0,1
91300,-149.253731343284,4,2,1,60,0,1
92260,-100,4,2,1,60,0,1
93220,-149.253731343284,4,2,1,60,0,1
93700,-100,4,2,1,60,0,1
94000,-100,4,2,1,5,0,1
94060,-200,4,2,1,60,0,1
96100,-133.333333333333,4,2,1,60,0,1
96580,-100,4,2,1,60,0,1
96820,-133.333333333333,4,2,1,60,0,1
97060,-100,4,2,1,60,0,1
97300,-133.333333333333,4,2,1,60,0,1
98020,-200,4,2,1,60,0,1
98500,-100,4,2,1,60,0,1
100420,-133.333333333333,4,2,1,60,0,1
101140,-100,4,2,1,60,0,1
101380,-200,4,2,1,60,0,1
102100,-133.333333333333,4,2,1,60,0,1
102340,-133.333333333333,4,2,1,60,0,1
102520,-133.333333333333,4,2,1,5,0,1
102580,-100,4,2,1,60,0,1
102880,-100,4,2,1,5,0,1
102940,-80,4,2,1,60,0,1
103240,-80,4,2,1,5,0,1
103300,-66.6666666666667,4,2,1,60,0,1
104020,-50,4,2,1,60,0,0
106180,-200,4,2,1,40,0,0
110140,-200,4,2,1,10,0,0

[Colours]
Combo1 : 255,128,255
Combo2 : 0,11,213
Combo3 : 128,32,0
Combo4 : 255,128,192

[HitObjects]
305,322,12100,37,2,0:0:0:0:
329,333,12820,1,0,0:0:0:0:
95,255,14020,5,0,0:0:0:0:
71,266,14740,1,0,0:0:0:0:
237,80,15940,37,2,0:0:0:0:
261,91,16660,1,0,0:0:0:0:
285,102,17380,1,0,0:0:0:0:
312,202,17860,5,0,0:0:0:0:
336,191,18580,1,0,0:0:0:0:
360,180,19180,1,0,0:0:0:0:
360,180,19300,2,0,L|457:136,1,89.9999976158143
335,265,19780,38,0,P|323:308|334:352,1,89.9999976158143,2|0,0:0|0:0,0:0:0:0:
360,180,20260,2,0,P|276:152|196:189,1,179.999995231629
201,193,21100,1,0,0:0:0:0:
200,193,21220,2,0,P|143:236|108:237,1,89.9999976158143
47,110,21700,6,0,P|90:120|124:150,1,89.9999976158143,2|0,0:0|0:0,0:0:0:0:
207,296,22180,2,0,P|274:351|361:341,1,179.999995231629
366,345,23020,1,0,0:0:0:0:
366,345,23140,2,0,P|420:315|461:314,1,89.9999976158143
339,229,23620,38,0,P|328:181|341:138,1,89.9999976158143,2|0,0:0|0:0,0:0:0:0:
412,51,24100,2,0,P|341:103|256:86,1,179.999995231629
259,90,24940,1,0,0:0:0:0:
259,90,25060,2,0,P|290:129|299:178,1,89.9999976158143
363,243,25540,6,0,B|268:316|197:184|108:255,2,269.999992847443,2|2|0,0:0|0:0|0:0,0:0:0:0:
299,167,27460,37,2,0:0:0:0:
299,167,28180,2,0,P|231:159|135:232,1,179.999995231629
129,307,28900,1,0,0:0:0:0:
174,71,29380,5,2,0:0:0:0:
174,71,30100,2,0,P|214:126|199:245,1,179.999995231629
137,288,30820,1,0,0:0:0:0:
56,311,31300,38,0,B|139:271|191:389|302:310|302:310|264:244|271:183|309:145|309:145|364:164|391:200|396:243|396:243|433:201|489:209|489:209|470:258,1,719.999980926514,2|2,0:0|0:0,0:0:0:0:
256,192,33340,12,0,34660,0:0:0:0:
375,141,35140,6,0,P|334:159|320:193,1,67.4999982118607,4|0,0:0|3:0,0:0:0:0:
323,177,35380,2,0,P|327:221|355:245,1,67.4999982118607,0|0,0:0|3:0,0:0:0:0:
341,237,35620,2,0,P|384:246|416:227,1,67.4999982118607,0|0,0:0|3:0,0:0:0:0:
404,238,35860,2,0,P|426:199|417:163,1,67.4999982118607,4|0,0:3|3:0,0:0:0:0:
462,112,36100,2,0,B|400:80|356:143|287:109,1,179.999995231629,0|2,1:0|0:3,0:0:0:0:
239,38,36820,1,0,0:0:0:0:
359,215,37060,38,0,L|458:361,2,134.999996423721,4|4|4,0:0|0:3|0:3,0:0:0:0:
270,104,38020,2,0,P|210:112|181:136,1,89.9999976158143,0|0,1:0|0:0,0:0:0:0:
250,187,38380,2,0,P|310:179|339:155,1,89.9999976158143,4|0,0:3|0:0,0:0:0:0:
187,128,38740,2,0,P|168:164|168:201,1,67.4999982118607,0|0,0:0|3:0,0:0:0:0:
193,261,38980,6,0,P|234:279|248:313,1,67.4999982118607,4|0,0:0|3:0,0:0:0:0:
245,297,39220,2,0,P|240:341|212:365,1,67.4999982118607,0|0,0:0|3:0,0:0:0:0:
227,357,39460,2,0,P|183:366|151:347,1,67.4999982118607,0|0,0:0|3:0,0:0:0:0:
164,358,39700,2,0,P|141:319|150:283,1,67.4999982118607,4|0,0:3|3:0,0:0:0:0:
106,232,39940,2,0,B|168:200|212:263|281:229,1,179.999995231629,0|2,1:0|0:3,0:0:0:0:
323,162,40660,5,8,0:3:0:0:
323,162,40780,1,4,0:3:0:0:
355,272,40900,2,0,B|412:305|425:249|485:284,1,135.000001573563,4|0,0:0|0:0,0:0:0:0:
484,283,41260,1,4,0:3:0:0:
480,149,41500,5,0,0:0:0:0:
480,149,41620,2,0,P|503:177|509:221,1,67.5000007867814,4|0,1:0|0:0,0:0:0:0:
441,348,41860,37,0,1:3:0:0:
441,348,41980,1,8,0:3:0:0:
441,348,42100,2,0,P|418:320|414:268,1,89.9999976158143,4|0,0:3|0:0,0:0:0:0:
327,364,42340,2,0,P|279:383|241:379,1,89.9999976158143,8|0,0:3|0:0,0:0:0:0:
178,239,42580,2,0,P|209:198|243:182,1,89.9999976158143,4|0,0:3|0:0,0:0:0:0:
441,348,42820,5,4,0:0:0:0:
441,348,46660,5,4,0:0:0:0:
380,281,46900,2,0,P|370:243|378:192,2,89.9999976158143
287,291,47620,2,0,P|230:311|159:292,1,134.999996423721,2|0,0:3|0:0,0:0:0:0:
88,103,48340,2,0,P|102:140|97:173,1,44.9999988079071
53,211,48580,6,0,P|96:178|175:192,2,134.999996423721,4|4|0,0:3|0:3|0:0,0:0:0:0:
27,315,49540,1,2,0:3:0:0:
41,292,49900,1,0,0:3:0:0:
55,269,50260,1,2,0:3:0:0:
108,342,50500,37,4,0:3:0:0:
112,215,50740,2,0,P|83:195|29:195,2,89.9999976158143,0|0|0,0:0|0:0|0:3,0:0:0:0:
180,280,51460,2,0,P|236:287|308:244,2,134.999996423721,2|0|0,0:3|0:0|0:0,0:0:0:0:
186,126,52420,5,4,0:3:0:0:
194,151,52780,1,4,0:3:0:0:
203,176,53140,1,0,0:0:0:0:
178,101,53380,2,0,B|261:64|272:131|352:99,1,179.999995231629,2|0,0:3|0:0,0:0:0:0:
313,21,54100,1,8,0:3:0:0:
251,242,54340,37,4,0:0:0:0:
326,192,54580,2,0,P|334:149|321:107,2,89.9999976158143
320,288,55300,2,0,L|493:273,1,134.999996423721,2|0,0:3|0:3,0:3:0:0:
196,334,56020,2,0,L|282:342,1,44.9999988079071
170,256,56260,6,0,P|120:305|122:368,2,134.999996423721,4|4|0,0:3|0:3|0:0,0:0:0:0:
319,323,57220,1,2,0:3:0:0:
169,159,57700,2,0,P|212:137|255:141,1,89.9999976158143,8|0,0:3|0:0,0:0:0:0:
319,323,58180,38,0,P|237:297|224:212,1,179.999995231629,4|0,0:3|0:0,0:0:0:0:
302,243,58900,1,4,0:3:0:0:
169,349,59140,1,2,0:3:0:0:
16,149,59620,1,4,0:3:0:0:
68,221,59860,1,0,0:0:0:0:
140,169,60100,6,0,P|197:162|235:183,1,89.9999976158143,4|4,0:3|0:3,0:0:0:0:
225,175,60460,2,0,P|266:190|310:180,1,89.9999976158143,8|0,0:3|0:0,0:0:0:0:
310,180,60820,1,4,0:3:0:0:
177,247,61060,1,6,1:3:0:0:
273,102,61300,1,0,0:0:0:0:
177,247,61540,1,4,0:3:0:0:
227,55,61780,37,2,0:0:0:0:
233,76,61900,1,0,0:0:0:0:
259,149,62020,2,0,L|304:18,2,134.999996423721,4|0|0,0:0|0:0|0:0,0:0:0:0:
361,192,62980,2,0,L|297:8,1,179.999995231629,2|0,0:3|0:0,0:0:0:0:
231,238,63700,5,0,0:0:0:0:
225,259,63820,1,0,0:0:0:0:
251,163,63940,2,0,L|294:290,2,134.999996423721,4|4|4,0:3|0:3|0:3,0:0:0:0:
192,333,64900,2,0,L|255:149,1,179.999995231629,2|0,0:3|0:0,0:0:0:0:
79,280,65620,37,8,0:3:0:0:
73,301,65740,1,0,0:0:0:0:
142,332,65860,2,0,L|99:205,2,134.999996423721,4|0|4,0:0|0:0|0:3,0:0:0:0:
160,87,66820,2,0,L|218:257,1,179.999995231629,2|0,0:3|0:0,0:0:0:0:
48,189,67540,5,0,0:0:0:0:
54,168,67660,1,0,0:0:0:0:
76,90,67780,2,0,L|120:218,2,134.999996423721,4|4|4,0:3|0:3|0:3,0:0:0:0:
110,238,68740,5,8,0:3:0:0:
120,218,68800,1,8,0:3:0:0:
129,197,68860,1,8,0:3:0:0:
137,263,68980,5,4,0:3:0:0:
186,138,69220,1,2,0:3:0:0:
203,218,69460,1,4,0:3:0:0:
137,263,69700,6,0,B|202:251|262:288|262:288|288:243|288:243|324:281|386:269,1,269.999992847443,4|2,0:0|0:0,0:0:0:0:
137,263,73540,22,0,P|185:293|270:294,1,134.999996423721,4|0,0:0|3:0,0:0:0:0:
172,113,73780,2,0,P|124:83|39:82,1,134.999996423721,0|0,0:3|3:0,0:0:0:0:
137,263,74020,6,0,P|183:258|219:234,1,89.9099998132668,2|0,0:3|3:0,0:0:0:0:
172,113,74260,2,0,P|126:118|90:142,1,89.9099998132668,4|0,0:3|3:0,0:0:0:0:
295,237,74500,6,0,B|368:210|366:119|366:119|381:150|416:163,1,198.000000797272,0|0,1:0|0:0,0:0:0:0:
399,154,74860,1,0,0:0:0:0:
448,86,74980,6,0,P|472:108|485:139,1,67.5000007867813,4|0,0:3|0:3,0:0:0:0:
478,263,75220,2,0,P|445:256|418:235,1,67.5000007867813,0|0,0:3|0:0,0:0:0:0:
262,141,75460,6,0,P|206:153|146:213,1,134.999996423721,8|0,0:3|3:0,2:0:0:0:
342,271,75700,2,0,P|397:258|457:198,1,134.999996423721,4|0,0:3|3:0,2:0:0:0:
262,141,75940,6,0,P|233:177|224:219,1,89.9099998132668,2|0,0:3|3:0,2:0:0:0:
342,271,76180,2,0,P|370:234|379:192,1,89.9099998132668,4|0,0:3|0:0,0:0:0:0:
362,40,76420,5,0,1:0:0:0:
362,40,76780,5,0,0:0:0:0:
378,192,76900,2,0,P|369:236|285:293,1,134.999996423721,4|0,2:3|3:0,2:0:0:0:
253,181,77140,2,0,P|301:190|254:201,1,134.999996423721,0|0,0:0|3:0,0:0:0:0:
221,279,77380,6,0,P|173:309|88:310,1,134.999996423721,4|0,0:0|3:0,0:0:0:0:
189,109,77620,2,0,P|237:79|322:78,1,134.999996423721,0|0,0:0|3:0,0:0:0:0:
220,279,77860,6,0,P|201:236|204:193,1,90.4499933254055,2|0,0:3|3:0,0:0:0:0:
189,108,78100,2,0,P|207:151|204:194,1,90.4499933254055,4|0,0:3|3:0,0:0:0:0:
52,195,78340,6,0,P|85:96|189:109,1,224.999994039536,0|0,1:0|0:0,0:0:0:0:
187,107,78700,1,0,0:0:0:0:
282,147,78820,1,2,0:0:0:0:
312,150,79060,1,0,0:0:0:0:
332,147,79300,6,0,L|204:188,2,134.999996423721,4|4|4,0:0|0:3|0:3,0:0:0:0:
452,98,80260,5,0,1:3:0:0:
424,226,80380,1,8,0:3:0:0:
438,273,80500,1,4,0:3:0:0:
457,295,80740,6,0,P|416:272|381:271,1,67.5000007867814,4|0,0:3|0:0,0:0:0:0:
272,318,80980,2,0,P|244:336|211:343,1,67.5000007867814,4|0,0:3|0:0,0:0:0:0:
34,304,81220,38,0,P|73:273|88:231,1,89.9999976158143,4|0,0:0|0:0,0:0:0:0:
144,184,81460,2,0,P|146:146|136:113,1,67.5000007867814
213,27,81700,6,0,P|207:76|226:116,1,89.9999976158143
270,230,81940,2,0,P|240:214|218:188,1,67.5000007867814,4|0,0:3|0:0,0:0:0:0:
304,141,82180,6,0,P|350:179|305:319,1,202.500002360344,0|0,1:0|0:0,0:0:0:0:
154,356,82660,2,0,P|188:326|231:315,1,89.9999976158143
416,347,83140,22,0,B|477:373|528:338|528:338|512:315|478:300,1,179.999995231629,4|0,0:1|0:0,0:0:0:0:
318,228,83500,2,0,B|264:267|269:329|269:329|297:327|327:305,1,179.999995231629,4|0,0:3|0:0,0:0:0:0:
470,202,83860,2,0,B|464:134|399:102,1,101.250001180172,4|0,0:3|3:0,0:0:0:0:
422,116,84100,6,0,P|413:153|419:193,1,67.5000007867814,0|0,1:0|0:0,0:0:0:0:
479,300,84340,2,0,P|442:290|402:296,1,67.5000007867814
245,376,84580,2,0,P|276:344|318:328,1,89.9999976158143,8|0,0:3|0:0,0:0:0:0:
195,162,84820,2,0,P|226:193|242:235,1,89.9999976158143,4|0,0:3|0:0,0:0:0:0:
99,361,85060,5,4,0:0:0:0:
13,333,85300,1,0,0:0:0:0:
13,243,85540,1,0,0:0:0:0:
99,215,85780,1,4,0:3:0:0:
151,288,86020,1,0,1:0:0:0:
151,288,86500,5,0,0:0:0:0:
99,215,86740,2,0,P|65:198|18:197,1,67.5000007867814,4|0,0:3|0:0,0:0:0:0:
171,154,86980,6,0,P|185:129|137:5,1,135.000001573563,4|0,0:0|0:0,0:0:0:0:
230,89,87340,2,0,P|277:95|318:78,1,89.9999976158143,8|0,0:3|0:0,0:0:0:0:
171,154,87580,5,0,0:0:0:0:
315,79,87700,2,0,P|341:93|374:144,1,89.9999976158143,4|0,0:3|0:0,0:0:0:0:
293,254,87940,5,0,1:3:0:0:
262,253,88060,1,0,0:3:0:0:
232,238,88180,2,0,P|210:217|191:159,1,89.9999976158143,4|0,0:3|0:0,0:0:0:0:
336,232,88420,5,2,1:3:0:0:
374,244,88540,1,2,0:3:0:0:
398,211,88660,1,0,0:3:0:0:
374,177,88780,1,0,0:3:0:0:
336,191,88900,6,0,P|334:247|375:321,1,134.999996423721,4|0,0:0|3:0,0:0:0:0:
483,146,89140,2,0,P|484:89|443:15,1,134.999996423721,0|0,0:0|3:0,0:0:0:0:
336,191,89380,6,0,P|363:228|402:247,1,89.9999976158142,2|0,0:3|3:0,0:0:0:0:
483,146,89620,2,0,P|455:108|416:89,1,89.9999976158142,4|0,0:3|3:0,0:0:0:0:
282,326,89860,6,0,P|201:379|104:342,1,198.000000797272,0|0,1:0|0:0,0:0:0:0:
111,349,90220,1,0,0:0:0:0:
62,282,90340,6,0,P|38:309|27:358,1,67.5000007867814,4|0,0:3|0:0,0:0:0:0:
145,270,90580,2,0,P|133:235|96:201,1,67.5000007867814
145,270,90820,6,0,P|192:299|277:301,1,134.999996423721,8|0,0:3|3:0,0:0:0:0:
179,118,91060,2,0,P|130:88|45:87,1,134.999996423721,4|0,0:3|3:0,0:0:0:0:
145,270,91300,6,0,P|190:265|226:240,1,89.9999976158142,2|0,0:3|3:0,0:0:0:0:
179,118,91540,2,0,P|132:123|96:147,1,89.9999976158142,4|0,0:3|3:0,0:0:0:0:
0,267,91780,5,0,1:0:0:0:
0,267,92140,5,0,0:0:0:0:
97,146,92260,2,0,P|135:122|234:145,1,134.999996423721,4|0,0:3|3:0,2:0:0:0:
188,235,92500,2,0,P|143:212|191:215,1,134.999996423721,0|0,0:0|3:0,0:0:0:0:
221,134,92740,6,0,P|268:104|353:102,1,134.999996423721,4|0,0:0|3:0,0:0:0:0:
252,304,92980,2,0,P|203:333|118:334,1,134.999996423721,0|0,0:0|3:0,0:0:0:0:
221,134,93220,6,0,P|239:175|236:219,1,89.9999976158142,2|0,0:3|3:0,0:0:0:0:
252,304,93460,2,0,P|233:260|236:217,1,89.9999976158142,4|0,0:3|3:0,0:0:0:0:
387,216,93700,6,0,P|354:315|250:302,1,224.999994039536,0|0,1:0|0:0,0:0:0:0:
251,303,94060,1,0,0:0:0:0:
311,204,94180,1,2,0:0:0:0:
316,174,94420,1,0,0:3:0:0:
316,153,94660,6,0,L|346:291,2,134.999996423721,4|4|4,0:0|0:3|0:3,0:0:0:0:
223,328,95620,5,0,1:0:0:0:
95,356,95740,1,8,0:3:0:0:
48,342,95860,1,4,0:3:0:0:
26,323,96100,6,0,P|49:364|50:399,1,67.5000007867814,4|0,0:3|0:0,0:0:0:0:
2,234,96340,2,0,P|49:234|79:251,1,67.5000007867814,4|0,0:3|0:0,0:0:0:0:
223,328,96580,38,0,P|282:325|330:289,1,89.9999976158143,4|0,0:0|0:0,0:0:0:0:
410,231,96820,2,0,P|418:198|417:165,1,67.5000007867814
440,384,97060,6,0,P|400:340|391:280,1,89.9999976158143
335,184,97300,2,0,P|335:150|347:119,1,67.5000007867814,4|0,0:3|0:0,0:0:0:0:
411,231,97540,6,0,P|344:273|251:212,1,202.500002360344,0|0,1:0|0:0,0:0:0:0:
234,50,98020,2,0,P|227:105|203:137,1,89.9999976158143,4|0,0:3|0:0,0:0:0:0:
63,236,98500,22,0,B|70:301|126:328|126:328|138:303|134:266,1,179.999995231629,4|0,0:1|0:0,0:0:0:0:
117,91,98860,2,0,B|56:63|5:99|5:99|20:122|54:137,1,179.999995231629,4|0,0:3|0:0,0:0:0:0:
213,208,99220,2,0,P|245:176|261:135,1,89.9999976158143
344,0,99460,6,0,L|387:174,1,179.999995231629,0|0,1:0|0:0,0:0:0:0:
305,310,99820,2,0,L|262:136,1,179.999995231629,8|0,0:3|0:0,0:0:0:0:
344,0,100180,2,0,L|365:87,1,89.9999976158143,6|0,0:3|0:3,0:0:0:0:
428,348,100420,6,0,B|408:271|444:203|516:186|516:186|515:226|477:239,1,269.999992847443,4|0,0:0|0:0,0:0:0:0:
398,43,101140,2,0,L|377:130,1,89.9999976158143,4|0,0:3|0:3,0:3:0:0:
306,269,101380,6,0,B|310:215|278:174|228:171|228:171|233:198|259:202,1,179.999995231629,0|0,1:0|0:0,0:0:0:0:
381,98,102100,2,4,L|360:185,1,67.5000007867814,6|4,0:3|0:3,0:3:0:0:
197,328,102340,6,0,P|151:350|102:345,1,101.250001180172,4|0,0:0|0:0,0:0:0:0:
102,345,102580,1,0,0:0:0:0:
251,183,102700,6,0,P|317:171|379:195,1,134.999996423721,4|0,0:3|0:0,0:0:0:0:
379,195,102940,1,0,0:0:0:0:
134,255,103060,38,0,P|68:217|102:148,1,168.749995529652,0|0,1:0|0:0,0:0:0:0:
102,148,103300,5,8,0:3:0:0:
197,328,103420,1,4,0:3:0:0:
189,180,103540,2,0,P|226:132|294:111,1,135.000001573563,4|0,0:3|0:0,0:0:0:0:
324,239,103780,37,4,1:0:0:0:
304,232,103840,1,8,0:3:0:0:
290,220,103900,1,8,0:3:0:0:
298,0,104020,6,0,P|359:20|396:150,1,179.999995231629,4|0,1:2|0:0,0:0:0:0:
222,237,106180,5,2,0:3:0:0:
222,237,106420,2,0,P|274:263|387:216,1,179.999995231629
408,140,107140,1,2,0:0:0:0:
399,349,107620,1,0,0:0:0:0:
295,152,108100,5,2,0:3:0:0:
295,152,108340,2,0,P|243:126|130:173,1,179.999995231629,0|0,0:3|0:3,0:0:0:0:
109,249,109060,1,2,0:0:0:0:
118,40,109540,1,2,0:3:0:0:
221,239,110020,21,4,0:0:0:0:
256,192,110140,12,0,113860,0:0:0:0:
