osu file format v9

[General]
AudioFilename: 1.Tenshi no Shitone.mp3
AudioLeadIn: 0
PreviewTime: 143338
Countdown: 0
SampleSet: Normal
StackLeniency: 0.7
Mode: 0
LetterboxInBreaks: 1

[Editor]
DistanceSpacing: 0.9
BeatDivisor: 2
GridSize: 4

[Metadata]
Title:Tenshi no Shitone
Artist:Denkare
Creator:Kite
Version:Easy
Source:Cthulhu ~Great Hunting~
Tags:vn visual novel opening eroge black cyc fairy yui itsuki denkishiki karen ongaku shuudan ongakushuudan electronic-style music group electronica yousei teikoku pheon medi-chan mafiamaster doomsday lolcubes

[Difficulty]
HPDrainRate:3
CircleSize:3
OverallDifficulty:2
ApproachRate:3
SliderMultiplier:0.6
SliderTickRate:1

[Events]
//Background and Video events
0,0,"tenshinoshitone.jpg"
//Break Periods
2,15878,24451
2,91038,98494
2,194602,198068
//Storyboard Layer 0 (Background)
//Storyboard Layer 1 (Fail)
//Storyboard Layer 2 (Pass)
//Storyboard Layer 3 (Foreground)
Sprite,Foreground,Centre,"green.png",320,240 F,0,68657,69216,0,0.25 F,0,69216,69296,0.25,0.5 F,0,69296,70572,0.5,0 F,0,142700,143258,0,0.25 F,0,143258,143338,0.25,0.5 F,0,143338,144615,0.5,0 F,0,173338,173897,0,0.25 F,0,173897,173977,0.25,0.5 F,0,173977,175253,0.5,0
//Storyboard Sound Samples
//Background Colour Transformations
3,100,163,162,255

[TimingPoints]
360,319.148936170213,4,1,1,70,1,0
15679,-100,4,1,1,70,0,0
36264,-100,4,2,1,61,0,0
41211,-100,4,2,1,81,0,0
41530,-100,4,2,1,61,0,0
45519,-100,4,1,1,70,0,0
46157,-100,4,1,1,61,0,0
46477,-100,4,2,1,61,0,0
55891,-100,4,1,1,70,0,0
56370,-133.333333333333,4,2,1,61,0,0
64030,-100,4,1,1,70,0,0
69296,-100,4,1,1,70,0,1
90838,-100,4,1,1,0,0,0
99695,-100,4,1,1,70,0,0
110306,-100,4,2,1,61,0,0
115253,-100,4,2,1,81,0,0
115413,-100,4,2,1,61,0,0
119562,-100,4,1,1,70,0,0
120531,-100,4,2,1,61,0,0
129774,-100,4,1,1,70,0,0
130413,-133.333333333333,4,2,1,61,0,0
138072,-100,4,1,1,70,0,0
143338,-100,4,1,1,70,0,1
163764,-100,4,1,1,70,0,0
194402,-100,4,2,1,70,0,0
194562,-100,4,1,1,70,0,0
204615,-100,4,1,1,70,0,1
215945,-100,4,1,1,5,0,0

[Colours]
Combo1 : 212,0,0
Combo2 : 16,192,48
Combo3 : 32,112,224

[HitObjects]
80,328,10572,2,0,B|128:288|112:216,1,120,4|2
64,120,11849,2,0,B|136:16|280:48,1,240,2|2
360,112,13764,1,2
432,192,14402,2,0,B|448:264|408:304,2,120,2|2|4
416,336,25891,6,0,B|456:288|440:224,2,120,4|8|0
336,264,27806,1,2
240,320,28445,2,0,B|168:344|120:296,2,120,2|8|0
200,216,30360,1,2
112,152,30998,6,0,B|96:88|144:40,2,120,4|8|0
216,120,32913,1,2
312,64,33551,2,0,B|408:48|452:112|436:192,1,210,2|2
304,200,35466,1,8
224,272,36104,5,4
224,272,36423,2,0,B|176:312|112:288,2,120,10|8|8
160,184,38338,1,8
240,104,38977,6,8,B|280:48|344:32,1,120
352,144,40253,2,8,B|400:104|472:120,1,120
488,168,41211,5,4
464,216,41530,2,8,B|408:320,1,120
320,256,42806,2,8,B|208:304,2,120
320,144,44721,5,8
224,104,45360,1,8
224,104,45679,2,0,B|176:144|104:128,1,120,4|4
64,96,46636,5,8
32,200,47274,1,8
88,296,47913,1,8
136,264,48232,1,2
192,272,48551,6,0,B|240:312|312:288,1,120,8|8
264,192,49828,1,8
336,112,50466,1,8
440,104,51104,1,8
472,144,51423,1,2
456,200,51742,6,0,B|400:304,1,120,8|8
328,224,53019,2,8,B|224:280,1,120
216,176,54296,2,8,B|88:168,1,120
128,64,55572,1,8
176,88,55891,2,4,B|232:72,1,60
272,64,56530,6,0,B|376:56|424:144,1,179.999994635582,4|2
360,192,58445,1,8
422,242,59083,2,0,B|376:328|272:320,1,179.999994635582,4|2
256,240,60998,1,8
176,256,61636,2,0,B|72:248|40:152,1,179.999994635582,4|2
88,88,63551,1,8
192,120,64189,6,0,B|256:112|288:56,2,120,2|8|2
120,200,66104,1,8
256,192,66583,12,4,68657
360,336,69296,6,0,B|336:264|384:224,1,120,6|2
424,128,70572,2,0,B|360:32|232:72,1,210,2|2
208,112,72008,6,0,B|184:232|48:232,1,210,2|2
24,336,73764,1,2
128,304,74402,6,0,B|192:272|248:304,1,120,4|2
344,336,75679,2,0,B|448:304|448:200,1,180,2|2
400,184,76955,6,0,B|336:72,1,120,2|2
240,112,78232,2,0,B|240:200|176:264|96:280,1,240,2|4
48,176,80147,5,2
80,72,80785,2,0,B|136:24|208:16|288:48,1,210,2|2
312,88,82221,2,0,B|408:208,1,150,2|2
368,248,83338,2,0,B|352:296|308:308,2,90,0|2|2
320,220,84615,6,0,B|264:188|200:228,2,120,4|2|2
380,132,86530,1,2
256,192,87328,12,0,90838
96,48,99934,6,0,B|56:96|72:160,2,120,4|8|0
176,120,101849,1,2
272,64,102488,2,0,B|344:40|392:88,2,120,2|8|0
312,168,104403,1,2
400,232,105041,6,0,B|416:296|368:344,2,120,4|8|0
296,264,106956,1,2
200,320,107594,2,0,B|116:336|60:280|68:200,1,210,2|2
200,176,109509,1,8
288,112,110147,5,4
288,112,110466,2,0,B|336:72|400:96,2,120,10|8|8
352,200,112381,1,8
272,280,113020,6,8,B|232:336|168:352,1,120
160,240,114296,2,8,B|112:280|40:264,1,120
24,216,115254,5,4
48,168,115573,2,8,B|104:64,1,120
192,128,116849,2,8,B|304:80,2,120
192,240,118764,5,8
288,280,119403,1,8
288,280,119722,2,0,B|336:240|408:256,1,120,4|4
448,288,120679,5,8
480,184,121317,1,8
424,88,121956,1,8
376,120,122275,1,2
320,112,122594,6,0,B|272:72|200:96,1,120,8|8
248,192,123871,1,8
176,272,124509,1,8
72,280,125147,1,8
40,240,125466,1,2
56,184,125785,6,0,B|112:80,1,120,8|8
184,160,127062,2,8,B|288:104,1,120
296,208,128339,2,8,B|424:216,1,120
384,320,129615,5,8
336,296,129934,2,4,B|280:312,1,60
240,320,130572,6,0,B|136:328|88:240,1,179.999994635582,4|2
152,192,132488,1,8
232,208,133125,2,0,B|335:215|381:129,1,179.999994635582,4|2
328,72,135041,1,8
248,64,135679,2,0,B|144:72|112:168,1,179.999994635582,4|2
160,232,137594,1,8
240,304,138232,6,0,B|304:296|336:240,2,120,4|8|2
240,192,140147,1,8
256,192,140626,12,4,142700
152,48,143338,6,0,B|176:120|128:160,1,120,6|2
88,256,144614,2,0,B|152:352|280:312,1,210,2|2
304,272,146050,6,0,B|328:152|464:152,1,210,2|2
488,48,147806,1,2
384,80,148444,6,0,B|320:112|264:80,1,120,4|2
168,48,149721,2,0,B|64:80|64:184,1,180,2|2
112,200,150997,6,0,B|176:312,1,120,2|2
272,272,152274,2,0,B|272:184|336:120|416:104,1,240,2|4
464,208,154189,5,2
432,312,154827,2,0,B|376:360|304:368|224:336,1,210,2|2
200,296,156263,2,0,B|104:176,1,150,2|2
144,140,157380,2,0,B|160:88|216:84,2,90,0|2|2
180,180,158657,6,0,B|236:212|300:172,2,120,4|2|2
148,284,160572,1,2
256,192,161370,12,4,163764
144,192,164402,5,8
192,96,165040,2,0,B|240:32|344:24|416:80,1,240,2|2
424,184,166955,1,8
352,264,167594,2,0,B|280:336|176:288,1,180,2|2
144,256,168870,6,0,B|40:184,1,120,2|8
152,160,170147,2,0,B|96:48,1,120,2|8
208,64,171423,2,0,B|296:32|376:56|416:136,1,240,2|2
384,240,173338,1,8
288,280,173977,6,0,B|216:328|120:304|80:224,1,240,0|2
184,192,175891,1,8
112,112,176530,2,0,B|144:56|216:56,1,120,2|8
320,68,177806,2,0,B|412:144,1,120,2|8
416,252,179083,6,0,B|388:340|296:364|220:316,2,240,2|2|2
328,192,182274,1,8
256,112,182913,2,0,B|216:56|140:72,1,120,2|8
68,140,184189,6,0,B|28:256,1,120,4|8
136,228,185466,2,0,B|160:352,1,120,2|8
236,268,186742,2,0,B|344:332,1,120,2|8
344,220,188019,2,0,B|460:192,1,120,2|8
412,96,189296,6,0,B|304:40,1,120,2|8
248,132,190572,2,0,B|224:200|164:220|88:192,1,180,2|2
256,192,191849,12,4,194402
148,192,199508,5,4
364,192,200785,1,4
256,192,202062,12,4,203977
144,132,204615,5,4
60,200,205253,1,2
80,312,205891,2,0,B|136:360|208:368|288:336,1,210,2|2
312,296,207327,2,0,B|408:176,1,150,2|2
368,136,208444,2,0,B|348:88|292:80,2,90,0|2|2
332,176,209721,6,0,B|276:144|212:184,2,120,4|2|2
308,280,211636,1,2
256,192,212434,12,0,215945
