osu file format v13

[General]
AudioFilename: 0e1ade6126d5.mp3
AudioLeadIn: 0
PreviewTime: -8805
Countdown: 1
SampleSet: None
StackLeniency: 0.7
Mode: 0
LetterboxInBreaks: 1
WidescreenStoryboard: 1

[Editor]
DistanceSpacing: 2
BeatDivisor: 4
GridSize: 8
TimelineZoom: 1.5

[Metadata]
Title:Gemini
TitleUnicode:Gemini
Artist:Denkare
ArtistUnicode:電気式華憐音楽集団
Creator:VY1 Mizki
Version:Death AR9
Source:
Tags:denkare mizki denkshiki karen ongaku shuudan
BeatmapID:446133
BeatmapSetID:186717

[Difficulty]
HPDrainRate:8
CircleSize:4
OverallDifficulty:8
ApproachRate:9
SliderMultiplier:2
SliderTickRate:2

[Events]
//Background and Video events
0,0,"Konachan.com - 182990 black_hair bubbles eufonie game_cg japanese_clothes koiken_otome long_hair minato_shiho purple_eyes sword tateha weapon.jpg",0,0
//Break Periods
2,58067,61372
//Storyboard Layer 0 (Background)
//Storyboard Layer 1 (Fail)
//Storyboard Layer 2 (Pass)
//Storyboard Layer 3 (Foreground)
//Storyboard Sound Samples
//Background Colour Transformations
3,100,163,162,255

[TimingPoints]
78,315.789473684211,4,2,0,100,1,0
393,-200,4,2,0,100,0,0
10104,-66.6666666666667,4,2,0,100,0,0
12630,-133.333333333333,4,2,0,100,0,0
18867,-66.6666666666667,4,2,0,100,0,0
20209,-50,4,2,0,100,0,0
20683,-66.6666666666667,4,2,0,100,0,0
34104,-50,4,2,0,100,0,0
43893,-133.333333333333,4,2,0,100,0,0
44367,-50,4,2,0,100,0,0
51314,-133.333333333333,4,2,0,100,0,0
51867,-66.6666666666667,4,2,0,100,0,0
61893,-66.6666666666667,4,2,0,100,0,0
63788,-200,4,2,0,100,0,0
66946,-66.6666666666667,4,2,0,100,0,0
77051,-133.333333333333,4,2,0,100,0,0
79656,-66.6666666666667,4,2,0,100,0,0

[HitObjects]
112,128,156,5,0,0:0:0:0:
112,128,235,1,0,0:0:0:0:
112,128,314,1,0,0:0:0:0:
112,128,393,2,0,B|152:112|200:104|256:104|312:104|368:112|440:104|456:112|448:104|448:120|488:144|496:224|472:288|456:272|472:272|456:288|384:296|336:304|272:304|208:312|144:296|96:264,1,840,0|0,0:0|0:0,0:0:0:0:
256,192,4341,12,0,8604,0:0:0:0:
256,192,8920,5,0,0:0:0:0:
224,192,8999,1,0,0:0:0:0:
192,176,9078,1,0,0:0:0:0:
168,152,9156,1,0,0:0:0:0:
160,120,9235,1,0,0:0:0:0:
352,64,9393,5,0,0:0:0:0:
376,80,9472,1,0,0:0:0:0:
392,104,9551,1,0,0:0:0:0:
400,224,9709,1,0,0:0:0:0:
320,280,9867,2,0,P|304:288|272:296,1,35
96,80,10183,2,0,L|144:192,1,105.000004005432
422,336,10499,2,0,L|464:240,1,105.000004005432
64,232,10814,2,0,L|105:328,1,105.000004005432
457,136,11130,2,0,L|416:40,1,105.000004005432
200,72,11446,5,0,0:0:0:0:
368,224,11604,1,0,0:0:0:0:
136,240,11762,2,0,L|208:320,1,105.000004005432
206,318,12078,1,0,0:0:0:0:
408,272,12235,2,0,L|432:248,1,26.2500010013581
272,208,12393,2,0,L|248:184,1,26.2500010013581
392,112,12551,2,0,L|416:88,1,26.2500010013581
296,40,12709,2,0,P|240:32|184:48,1,105.000004005432
152,256,13183,1,0,0:0:0:0:
320,304,13341,2,0,P|360:296|408:256,1,105.000004005432
408,255,13814,5,0,0:0:0:0:
144,136,13972,1,0,0:0:0:0:
248,176,14130,1,0,0:0:0:0:
224,152,14209,1,0,0:0:0:0:
192,136,14288,1,0,0:0:0:0:
344,128,14446,1,0,0:0:0:0:
64,160,14604,1,0,0:0:0:0:
64,160,14683,1,0,0:0:0:0:
64,160,14762,1,0,0:0:0:0:
248,64,14920,5,0,0:0:0:0:
248,64,14999,1,0,0:0:0:0:
272,72,15078,1,0,0:0:0:0:
296,88,15156,1,0,0:0:0:0:
320,96,15235,1,0,0:0:0:0:
344,96,15314,1,0,0:0:0:0:
368,96,15393,1,0,0:0:0:0:
392,104,15472,1,0,0:0:0:0:
408,120,15551,1,0,0:0:0:0:
416,144,15630,1,0,0:0:0:0:
416,168,15709,1,0,0:0:0:0:
400,192,15788,1,0,0:0:0:0:
376,208,15867,1,0,0:0:0:0:
352,208,15946,1,0,0:0:0:0:
328,200,16025,1,0,0:0:0:0:
304,184,16104,1,0,0:0:0:0:
288,160,16183,1,0,0:0:0:0:
280,136,16262,1,0,0:0:0:0:
264,120,16341,1,0,0:0:0:0:
240,104,16420,1,0,0:0:0:0:
216,96,16499,1,0,0:0:0:0:
192,96,16578,1,0,0:0:0:0:
168,104,16656,1,0,0:0:0:0:
136,128,16735,2,0,L|120:160,3,26.2500010013581,0|0|0|0,0:0|0:0|0:0|0:0,0:0:0:0:
112,176,17051,5,0,0:0:0:0:
104,200,17130,1,0,0:0:0:0:
104,224,17209,1,0,0:0:0:0:
120,248,17288,1,0,0:0:0:0:
144,256,17367,1,0,0:0:0:0:
168,256,17446,1,0,0:0:0:0:
192,256,17525,5,0,0:0:0:0:
216,264,17604,1,0,0:0:0:0:
240,272,17683,1,0,0:0:0:0:
264,280,17762,1,0,0:0:0:0:
288,280,17841,1,0,0:0:0:0:
312,280,17920,1,0,0:0:0:0:
336,264,17999,5,0,0:0:0:0:
360,248,18078,1,0,0:0:0:0:
384,240,18156,1,0,0:0:0:0:
408,224,18235,1,0,0:0:0:0:
424,200,18314,5,0,0:0:0:0:
424,176,18393,1,0,0:0:0:0:
408,152,18472,1,0,0:0:0:0:
392,136,18551,1,0,0:0:0:0:
368,128,18630,1,0,0:0:0:0:
344,128,18709,1,0,0:0:0:0:
288,136,18867,6,0,B|248:160|216:200|216:200|112:160,1,150.000005722046
200,128,19183,2,0,B|240:104|272:64|272:64|376:104,1,150.000005722046
264,136,19499,1,0,0:0:0:0:
192,168,19656,5,0,0:0:0:0:
152,184,19735,1,0,0:0:0:0:
128,216,19814,1,0,0:0:0:0:
120,256,19893,1,0,0:0:0:0:
120,296,19972,1,0,0:0:0:0:
264,296,20130,1,0,0:0:0:0:
440,72,20288,2,0,B|256:72|216:72|256:24|32:88,1,400
272,64,20762,5,0,0:0:0:0:
320,80,20841,1,0,0:0:0:0:
344,128,20920,1,0,0:0:0:0:
328,176,20999,1,0,0:0:0:0:
288,208,21078,1,0,0:0:0:0:
240,216,21156,1,0,0:0:0:0:
200,184,21235,1,0,0:0:0:0:
160,144,21393,2,0,B|120:160|96:176|96:176|88:136|40:80,1,150.000005722046
168,56,21709,1,0,0:0:0:0:
240,200,21867,1,0,0:0:0:0:
248,336,22025,1,0,0:0:0:0:
104,128,22183,1,0,0:0:0:0:
120,120,22262,1,0,0:0:0:0:
136,112,22341,1,0,0:0:0:0:
448,80,22499,6,0,B|464:120|464:152|464:152|368:224,1,150.000005722046
240,96,22814,5,0,0:0:0:0:
216,104,22893,1,0,0:0:0:0:
192,120,22972,1,0,0:0:0:0:
96,72,23130,1,0,0:0:0:0:
80,95,23209,1,0,0:0:0:0:
72,120,23288,1,0,0:0:0:0:
312,344,23446,5,0,0:0:0:0:
336,336,23525,1,0,0:0:0:0:
360,320,23604,1,0,0:0:0:0:
352,176,23762,1,0,0:0:0:0:
368,152,23841,1,0,0:0:0:0:
376,128,23920,1,0,0:0:0:0:
384,104,23999,1,0,0:0:0:0:
384,80,24078,1,0,0:0:0:0:
384,80,24235,1,0,0:0:0:0:
384,104,24314,1,0,0:0:0:0:
376,128,24393,1,0,0:0:0:0:
304,296,24551,5,0,0:0:0:0:
160,240,24709,1,0,0:0:0:0:
144,104,24867,2,0,P|224:128|296:176,1,150.000005722046
304,296,25183,1,0,0:0:0:0:
96,280,25499,5,0,0:0:0:0:
56,152,25656,1,0,0:0:0:0:
128,96,25972,1,0,0:0:0:0:
128,96,26051,1,0,0:0:0:0:
128,96,26130,1,0,0:0:0:0:
128,96,26209,1,0,0:0:0:0:
128,96,26288,1,0,0:0:0:0:
176,176,26446,5,0,0:0:0:0:
176,176,26525,1,0,0:0:0:0:
176,176,26604,1,0,0:0:0:0:
256,104,26762,1,0,0:0:0:0:
256,104,26841,1,0,0:0:0:0:
256,104,26920,1,0,0:0:0:0:
280,248,27078,1,0,0:0:0:0:
368,200,27235,5,0,0:0:0:0:
368,200,27314,1,0,0:0:0:0:
368,200,27393,1,0,0:0:0:0:
96,336,27551,1,0,0:0:0:0:
448,80,27709,1,0,0:0:0:0:
272,192,27867,1,0,0:0:0:0:
80,152,28183,5,0,0:0:0:0:
80,152,28222,1,0,0:0:0:0:
80,152,28262,1,0,0:0:0:0:
176,112,28499,5,0,0:0:0:0:
176,112,28538,1,0,0:0:0:0:
176,112,28578,1,0,0:0:0:0:
192,248,28814,1,0,0:0:0:0:
192,248,28854,1,0,0:0:0:0:
192,248,28893,1,0,0:0:0:0:
192,248,28933,1,0,0:0:0:0:
192,248,28972,1,0,0:0:0:0:
336,224,29130,1,0,0:0:0:0:
400,144,29288,5,0,0:0:0:0:
400,144,29328,1,0,0:0:0:0:
400,144,29367,1,0,0:0:0:0:
296,72,29604,1,0,0:0:0:0:
264,208,29762,1,0,0:0:0:0:
232,64,29920,1,0,0:0:0:0:
312,168,30078,1,0,0:0:0:0:
64,192,30393,2,0,L|144:144,1,75.0000028610231
176,240,30551,2,0,L|256:272,1,75.0000028610231
344,200,30709,2,0,L|384:184,8,37.5000014305115,0|0|0|0|0|0|0|0|0,0:0|0:0|0:0|0:0|0:0|0:0|0:0|0:0|0:0,0:0:0:0:
168,240,31341,5,0,0:0:0:0:
200,264,31420,1,0,0:0:0:0:
232,280,31499,1,0,0:0:0:0:
272,288,31578,1,0,0:0:0:0:
304,304,31656,1,0,0:0:0:0:
384,232,31814,5,0,0:0:0:0:
408,128,31972,1,0,0:0:0:0:
384,232,32130,1,0,0:0:0:0:
408,128,32288,1,0,0:0:0:0:
408,128,32446,2,0,L|312:56,1,112.500004291535
232,64,32722,1,0,0:0:0:0:
160,96,32920,1,0,0:0:0:0:
136,200,33078,6,0,L|200:312,1,112.500004291535
256,288,33393,2,0,L|384:256,1,112.500004291535
360,184,33709,2,0,L|296:80,2,112.500004291535,0|0|0,0:0|0:0|0:0,0:0:0:0:
232,96,34341,6,0,L|32:56,1,200
448,136,34656,1,0,0:0:0:0:
296,96,34814,6,0,L|499:57,1,200
48,144,35129,1,0,0:0:0:0:
224,288,35288,6,0,L|24:248,1,200
453,336,35603,1,0,0:0:0:0:
280,288,35762,6,0,L|480:248,1,200
42,336,36077,1,0,0:0:0:0:
368,168,36235,1,0,0:0:0:0:
376,144,36314,1,0,0:0:0:0:
384,120,36393,1,0,0:0:0:0:
256,304,36867,5,0,0:0:0:0:
256,56,37025,1,0,0:0:0:0:
104,184,37183,1,0,0:0:0:0:
432,192,37341,1,0,0:0:0:0:
128,64,37499,1,0,0:0:0:0:
408,304,37656,1,0,0:0:0:0:
400,64,37814,1,0,0:0:0:0:
120,304,37972,5,0,0:0:0:0:
344,112,38130,1,0,0:0:0:0:
176,256,38288,1,0,0:0:0:0:
288,160,38446,1,0,0:0:0:0:
232,208,38604,1,0,0:0:0:0:
232,208,38683,1,0,0:0:0:0:
232,208,38762,1,0,0:0:0:0:
288,240,38920,2,0,P|360:248|496:224,4,200,0|0|0|0|0,0:0|0:0|0:0|0:0|0:0,0:0:0:0:
80,144,39709,1,0,0:0:0:0:
104,88,39867,1,0,0:0:0:0:
144,40,40025,2,0,P|240:32|288:120,1,200
283,98,40341,1,0,0:0:0:0:
288,95,40499,1,0,0:0:0:0:
288,96,40658,2,0,P|343:54|472:24,1,200
336,216,40972,1,0,0:0:0:0:
224,200,41130,1,0,0:0:0:0:
392,80,41288,1,0,0:0:0:0:
176,256,41446,1,0,0:0:0:0:
176,256,41525,1,0,0:0:0:0:
176,256,41604,1,0,0:0:0:0:
176,256,41683,1,0,0:0:0:0:
176,256,41762,1,0,0:0:0:0:
48,176,41920,6,0,P|96:80|192:40,1,200,0|0,0:0|0:0,0:0:0:0:
176,41,42235,1,0,0:0:0:0:
392,128,42393,1,0,0:0:0:0:
208,344,42551,1,0,0:0:0:0:
72,96,42709,1,0,0:0:0:0:
344,176,42867,2,0,P|296:216|152:200,1,200
440,48,43183,5,0,0:0:0:0:
288,288,43341,1,0,0:0:0:0:
176,32,43499,1,0,0:0:0:0:
176,32,43578,1,0,0:0:0:0:
176,32,43656,1,0,0:0:0:0:
328,280,43814,1,0,0:0:0:0:
176,40,43972,2,0,L|184:56,8,18.7500007152558,0|0|0|0|0|0|0|0|0,0:0|0:0|0:0|0:0|0:0|0:0|0:0|0:0|0:0,0:0:0:0:
400,208,44446,1,0,0:0:0:0:
176,40,44604,1,0,0:0:0:0:
400,208,44762,1,0,0:0:0:0:
176,40,44920,1,0,0:0:0:0:
128,312,45078,1,0,0:0:0:0:
408,304,45235,1,0,0:0:0:0:
296,48,45393,1,0,0:0:0:0:
32,144,45551,1,0,0:0:0:0:
240,336,45709,1,0,0:0:0:0:
424,128,45867,1,0,0:0:0:0:
160,40,46025,1,0,0:0:0:0:
176,312,46183,2,0,P|256:304|352:224,1,200
72,72,46499,1,0,0:0:0:0:
400,64,46656,2,0,P|456:120|464:248,1,200
256,48,46972,5,0,0:0:0:0:
208,328,47130,2,0,P|136:296|80:192,1,200
256,48,47446,5,0,0:0:0:0:
304,328,47604,2,0,P|376:296|440:192,1,200
144,168,47920,1,0,0:0:0:0:
368,168,48078,1,0,0:0:0:0:
192,200,48235,1,0,0:0:0:0:
320,136,48393,1,0,0:0:0:0:
240,296,48551,1,0,0:0:0:0:
280,64,48709,1,0,0:0:0:0:
280,64,48788,1,0,0:0:0:0:
280,64,48867,1,0,0:0:0:0:
136,288,49025,5,0,0:0:0:0:
392,240,49183,1,0,0:0:0:0:
368,56,49341,1,0,0:0:0:0:
128,88,49499,1,0,0:0:0:0:
200,288,49656,1,0,0:0:0:0:
472,168,49972,5,0,0:0:0:0:
80,48,50288,1,0,0:0:0:0:
296,344,50604,1,0,0:0:0:0:
264,144,50762,1,0,0:0:0:0:
432,64,50920,1,0,0:0:0:0:
112,208,51078,1,0,0:0:0:0:
408,216,51235,1,0,0:0:0:0:
408,216,51314,1,0,0:0:0:0:
408,216,51393,2,0,L|432:208,6,18.7500007152558,0|0|0|0|0|0|0,0:0|0:0|0:0|0:0|0:0|0:0|0:0,0:0:0:0:
200,256,51709,5,0,0:0:0:0:
272,88,51867,1,0,0:0:0:0:
272,88,52025,1,0,0:0:0:0:
344,120,52183,1,0,0:0:0:0:
328,104,53288,1,0,0:0:0:0:
328,104,53446,1,0,0:0:0:0:
32,144,53604,1,0,0:0:0:0:
80,200,53683,1,0,0:0:0:0:
152,224,53762,1,0,0:0:0:0:
224,224,53841,1,0,0:0:0:0:
296,208,53920,1,0,0:0:0:0:
424,136,54078,6,0,B|456:224|456:208|456:208|344:264,1,150.000005722046
256,296,54393,1,0,0:0:0:0:
104,296,54551,2,0,B|120:224|120:224|56:160,1,150.000005722046
328,152,56446,1,0,0:0:0:0:
328,152,56604,1,0,0:0:0:0:
328,152,56762,1,0,0:0:0:0:
48,88,57235,1,0,0:0:0:0:
48,88,57393,2,0,B|64:176|104:224|104:224|256:144,1,300.000011444092
237,153,57867,1,0,0:0:0:0:
48,336,61972,6,0,P|24:272|24:192,1,150.000005722046
480,40,62288,1,0,0:0:0:0:
48,336,62446,6,0,P|16:264|24:192,1,150.000005722046
480,40,62762,1,0,0:0:0:0:
48,336,62920,6,0,P|24:288|24:192,1,150.000005722046
480,40,63236,1,0,0:0:0:0:
160,272,63393,1,0,0:0:0:0:
96,88,63551,1,0,0:0:0:0:
464,72,63709,1,0,0:0:0:0:
168,272,63867,1,0,0:0:0:0:
104,88,64025,1,0,0:0:0:0:
256,336,64183,6,0,L|256:320,8,8.75,0|0|0|0|0|0|0|0|0,0:0|0:0|0:0|0:0|0:0|0:0|0:0|0:0|0:0,0:0:0:0:
344,192,64656,1,0,0:0:0:0:
304,144,64814,1,0,0:0:0:0:
344,192,64972,1,0,0:0:0:0:
256,184,65130,1,0,0:0:0:0:
296,232,65288,1,0,0:0:0:0:
312,80,65446,1,0,0:0:0:0:
288,296,65604,1,0,0:0:0:0:
304,144,65762,5,0,0:0:0:0:
296,192,65841,1,0,0:0:0:0:
296,232,65920,1,0,0:0:0:0:
64,56,66078,1,0,0:0:0:0:
96,256,66235,1,0,0:0:0:0:
112,264,66314,1,0,0:0:0:0:
128,272,66393,1,0,0:0:0:0:
424,72,66551,1,0,0:0:0:0:
176,240,66709,5,0,0:0:0:0:
176,240,66748,1,0,0:0:0:0:
176,240,66788,1,0,0:0:0:0:
256,56,67025,2,0,P|336:64|424:24,1,150.000005722046
432,152,67341,1,0,0:0:0:0:
376,152,67499,2,0,B|392:216|352:232|352:312,1,150.000005722046
304,312,67814,2,0,B|272:336|240:336|160:320,1,150.000005722046
112,288,68130,1,0,0:0:0:0:
56,184,68288,1,0,0:0:0:0:
96,96,68446,6,0,P|160:48|240:32,1,150.000005722046
312,336,68762,2,0,B|200:320|200:320|160:280,1,150.000005722046
360,56,69078,2,0,B|416:120|432:192|432:192|432:200,1,150.000005722046
160,56,69393,2,0,B|104:120|88:192|88:192|88:200,1,150.000005722046
464,96,69709,1,0,0:0:0:0:
40,248,69867,1,0,0:0:0:0:
272,48,70183,5,0,0:0:0:0:
224,64,70262,1,0,0:0:0:0:
192,96,70341,1,0,0:0:0:0:
224,312,70499,1,0,0:0:0:0:
440,192,70656,1,0,0:0:0:0:
424,152,70735,1,0,0:0:0:0:
400,120,70814,1,0,0:0:0:0:
128,136,70972,1,0,0:0:0:0:
264,312,71130,5,0,0:0:0:0:
304,288,71209,1,0,0:0:0:0:
344,256,71288,1,0,0:0:0:0:
120,56,71446,2,0,L|264:120,1,150.000005722046
192,232,71762,1,0,0:0:0:0:
464,264,71920,1,0,0:0:0:0:
432,40,72235,5,0,0:0:0:0:
56,344,72393,1,0,0:0:0:0:
368,40,72551,1,0,0:0:0:0:
120,344,72709,5,0,0:0:0:0:
304,40,72867,1,0,0:0:0:0:
184,344,73025,1,0,0:0:0:0:
240,40,73183,1,0,0:0:0:0:
248,344,73341,5,0,0:0:0:0:
176,56,73499,1,0,0:0:0:0:
296,304,73656,1,0,0:0:0:0:
136,112,73814,5,0,0:0:0:0:
328,248,73972,1,0,0:0:0:0:
144,184,74130,1,0,0:0:0:0:
328,192,74288,1,0,0:0:0:0:
160,280,74920,6,0,B|208:232|272:168|272:168,1,150.000005722046
256,192,75235,6,0,B|208:144|144:72|144:72,1,150.000005722046
261,197,75551,6,0,B|304:240|360:296|376:312,1,150.000005722046
256,192,75867,6,0,B|208:240|144:304|144:304,1,150.000005722046
368,80,76341,1,0,0:0:0:0:
376,296,76499,1,0,0:0:0:0:
104,280,77130,6,0,B|80:248|64:184|72:128|120:56,1,225.000008583069
216,72,77920,1,0,0:0:0:0:
184,128,78078,1,0,0:0:0:0:
176,192,78235,1,0,0:0:0:0:
368,312,78709,2,0,P|408:288|440:192,1,150.000005722046
152,48,79341,2,0,P|112:72|88:120,1,78.7500030040742
94,98,79656,2,0,L|0:224,7,150.000005722046,0|0|0|0|0|0|0|0,0:0|0:0|0:0|0:0|0:0|0:0|0:0|0:0,0:0:0:0:
216,160,81078,1,0,0:0:0:0:
216,160,81156,1,0,0:0:0:0:
216,160,81235,1,0,0:0:0:0:
344,176,81393,1,0,0:0:0:0:
256,248,81551,1,0,0:0:0:0:
256,248,81630,1,0,0:0:0:0:
256,248,81709,1,0,0:0:0:0:
128,232,81867,1,0,0:0:0:0:
112,120,82025,1,0,0:0:0:0:
400,32,82183,2,0,B|448:104|416:192|384:240,1,150.000005722046
320,280,82499,1,0,0:0:0:0:
104,64,82656,1,0,0:0:0:0:
416,56,82814,1,0,0:0:0:0:
96,304,82972,1,0,0:0:0:0:
264,48,83130,1,0,0:0:0:0:
400,328,83288,1,0,0:0:0:0:
80,120,83446,1,0,0:0:0:0:
440,120,83604,1,0,0:0:0:0:
160,200,83762,1,0,0:0:0:0:
320,80,84077,1,0,0:0:0:0:
320,80,84156,1,0,0:0:0:0:
320,80,84235,1,0,0:0:0:0:
240,272,84392,1,0,0:0:0:0:
240,272,84470,1,0,0:0:0:0:
240,272,84549,1,0,0:0:0:0:
256,192,84709,12,0,85972,0:0:0:0:
256,184,86130,5,0,0:0:0:0:
256,184,86209,1,0,0:0:0:0:
256,184,86288,1,0,0:0:0:0:
208,112,86446,1,0,0:0:0:0:
256,184,86604,1,0,0:0:0:0:
256,184,86683,1,0,0:0:0:0:
256,184,86762,1,0,0:0:0:0:
304,112,86920,1,0,0:0:0:0:
208,112,87078,1,0,0:0:0:0:
184,240,87235,1,0,0:0:0:0:
216,256,87314,1,0,0:0:0:0:
256,264,87393,1,0,0:0:0:0:
296,256,87472,1,0,0:0:0:0:
336,240,87551,1,0,0:0:0:0:
448,192,87709,1,0,0:0:0:0:
416,72,87867,1,0,0:0:0:0:
384,40,87946,1,0,0:0:0:0:
336,24,88025,1,0,0:0:0:0:
176,48,88183,1,0,0:0:0:0:
96,160,88341,1,0,0:0:0:0:
88,208,88420,1,0,0:0:0:0:
96,256,88499,1,0,0:0:0:0:
304,320,88656,2,0,P|248:336|192:312,2,105.000004005432,0|0|0,0:0|0:0|0:0,0:0:0:0:
160,224,89130,1,0,0:0:0:0:
160,32,89288,2,0,P|176:88|152:144,2,105.000004005432,0|0|0,0:0|0:0|0:0,0:0:0:0:
376,96,89762,5,0,0:0:0:0:
112,128,90078,1,0,0:0:0:0:
128,144,90117,1,0,0:0:0:0:
144,168,90156,1,0,0:0:0:0:
384,216,90394,1,0,0:0:0:0:
368,232,90433,1,0,0:0:0:0:
344,248,90472,1,0,0:0:0:0:
120,312,90709,1,0,0:0:0:0:
144,256,90788,1,0,0:0:0:0:
200,240,90867,1,0,0:0:0:0:
232,192,90946,1,0,0:0:0:0:
288,184,91025,1,0,0:0:0:0:
352,64,91183,6,0,P|416:64|448:96,1,105.000004005432
472,176,91499,1,0,0:0:0:0:
352,64,91656,6,0,P|416:64|448:96,1,105.000004005432
472,176,91972,1,0,0:0:0:0:
224,88,92130,2,0,P|168:120|152:272,1,210.000008010865
142,253,92604,1,0,0:0:0:0:
376,216,92762,1,0,0:0:0:0:
142,253,92920,5,0,0:0:0:0:
136,208,92999,1,0,0:0:0:0:
144,168,93078,1,0,0:0:0:0:
168,136,93156,1,0,0:0:0:0:
208,112,93235,1,0,0:0:0:0:
142,253,93393,1,0,0:0:0:0:
384,344,93551,2,0,L|472:264,1,105.000004005432
142,253,93867,5,0,0:0:0:0:
384,344,94025,2,0,L|472:264,1,105.000004005432
142,253,94341,1,0,0:0:0:0:
384,344,94499,2,0,L|472:264,1,105.000004005432
48,160,94814,1,0,0:0:0:0:
136,104,95130,5,0,0:0:0:0:
160,88,95170,1,0,0:0:0:0:
192,80,95209,1,0,0:0:0:0:
240,128,95446,5,0,0:0:0:0:
280,120,95485,1,0,0:0:0:0:
320,104,95525,1,0,0:0:0:0:
288,320,95762,5,0,0:0:0:0:
248,296,95841,1,0,0:0:0:0:
216,256,95920,1,0,0:0:0:0:
208,208,95999,1,0,0:0:0:0:
224,160,96078,1,0,0:0:0:0:
288,96,96235,1,0,0:0:0:0:
272,40,96314,1,0,0:0:0:0:
216,16,96393,1,0,0:0:0:0:
72,96,96551,5,0,0:0:0:0:
136,312,96709,1,0,0:0:0:0:
416,328,96867,1,0,0:0:0:0:
440,176,97025,1,0,0:0:0:0:
416,128,97104,1,0,0:0:0:0:
376,96,97183,1,0,0:0:0:0:
336,80,97262,1,0,0:0:0:0:
288,72,97341,1,0,0:0:0:0:
40,216,97499,5,0,0:0:0:0:
