osu file format v9

[General]
AudioFilename: elderthings.mp3
AudioLeadIn: 0
PreviewTime: 46753
Countdown: 0
SampleSet: Normal
StackLeniency: 0.7
Mode: 0
LetterboxInBreaks: 0

[Editor]
DistanceSpacing: 0.9
BeatDivisor: 2
GridSize: 4

[Metadata]
Title:Elder Things (Short Ver.)
Artist:Denkare
Creator:Star Stream
Version:Normal
Source:Cthulhu ~Otome no Fureru, Tenshi no Yubisaki~
Tags:Yousei Teikoku Fairy Yui Itsuki visual novel Laurier

[Difficulty]
HPDrainRate:4
CircleSize:3
OverallDifficulty:4
ApproachRate:5
SliderMultiplier:1.1
SliderTickRate:1

[Events]
//Background and Video events
0,0,"82.jpg"
//Break Periods
//Storyboard Layer 0 (Background)
//Storyboard Layer 1 (Fail)
//Storyboard Layer 2 (Pass)
//Storyboard Layer 3 (Foreground)
//Storyboard Sound Samples
//Background Colour Transformations
3,100,163,162,255

[TimingPoints]
894,352.941176470588,4,1,1,60,1,0
47482,-100,4,1,1,70,0,1
70070,-100,4,1,1,70,0,0

[Colours]
Combo1 : 138,55,155
Combo2 : 185,35,28
Combo3 : 230,226,231

[HitObjects]
256,72,10776,1,4
256,172,11129,1,4
256,272,11482,1,4
256,372,11835,1,4
172,324,12188,6,0,B|60:268|44:156,1,220,4|0
88,68,13246,1,8
168,128,13599,2,0,B|184:188|248:216,1,110
308,144,14305,2,0,B|324:84|388:56,1,110,0|8
460,112,15011,6,0,B|512:212|496:332,2,220
368,72,16776,1,8
268,64,17129,1,0
168,76,17482,1,8
76,108,17835,6,0,B|24:208|40:328,1,220,4|0
124,376,18893,1,8
212,328,19246,2,0,B|256:292|312:288,1,110,0|8
380,216,19952,2,0,B|336:180|280:176,1,110,0|8
180,176,20658,6,0,B|88:176|92:32|180:32,2,220
280,176,22423,1,8
380,176,22776,1,0
480,176,23129,1,8
432,264,23482,6,0,B|364:360|240:356,1,220,4|0
156,312,24541,1,8
60,336,24893,2,0,B|24:296|24:236,1,110,0|8
88,160,25599,2,0,B|88:96,2,55,0|0|8
176,208,26305,6,0,B|276:264|392:248,1,220
464,184,27364,1,8
404,104,27717,2,0,B|304:48|188:64,2,220,0|0|4
484,284,29835,6,0,B|376:244,1,110,0|8
280,248,30541,2,0,B|176:286,1,110,0|8
84,324,31246,2,0,B|84:388,2,55,0|0|8
84,224,31952,6,0,B|0:128|84:24,1,220
176,56,33011,1,8
272,24,33364,2,0,B|356:128|272:224,2,220,0|0|4
176,56,35129,5,8
88,100,35482,2,0,B|64:148|68:208,1,110,0|8
144,272,36188,1,0
144,272,36541,1,8
232,316,36893,2,0,B|232:372,2,55,0|0|8
320,272,37599,6,0,B|380:256|404:204,1,110,0|8
396,108,38305,2,0,B|336:124|312:176,1,110,0|8
213,174,39011,2,0,B|189:123|129:107,1,110,0|8
44,156,39717,1,0
44,156,40070,1,8
120,220,40423,6,0,B|204:296,1,110,4|8
288,344,41129,2,0,B|369:270,1,110,0|8
440,200,41835,2,0,B|358:126,1,110,0|8
276,72,42541,2,0,B|194:145,1,110,0|8
100,172,43246,6,0,B|80:232|100:284,2,110,0|8|0
148,84,44305,1,8
228,28,44658,5,0
228,28,45011,1,8
328,28,45364,1,0
328,28,45717,1,8
420,68,46070,2,0,B|508:144|512:268,2,220,4|0|4
328,32,47835,5,8
240,76,48188,1,0
220,172,48541,1,8
136,224,48893,2,0,B|104:104|4:56,2,220,2|2|6
212,288,50658,5,8
300,332,51011,2,0,B|348:308|368:248,1,110,0|8
440,180,51717,2,0,B|496:200|516:256,2,110,2|8|2
348,140,52776,1,8
256,100,53129,6,0,B|248:164|188:176,1,110,6|8
100,220,53835,1,0
76,316,54188,1,8
152,380,54541,2,0,B|256:328|368:332,2,220,2|2|6
76,316,56305,5,8
12,244,56658,1,2
0,144,57011,1,8
28,48,57364,2,0,B|148:36,1,110,2|10
212,104,58070,2,0,B|332:116,1,110,10|10
412,72,58776,5,6
496,124,59129,1,8
440,204,59482,1,0
488,288,59835,1,8
408,348,60188,2,0,B|304:304|188:304,2,220,2|2|6
488,288,61952,5,8
404,232,62305,2,0,B|404:116,1,110,0|8
324,64,63011,1,2
324,64,63364,1,8
224,64,63717,1,2
224,64,64070,1,8
136,108,64423,6,0,B|120:168|64:200,1,110,6|8
24,280,65129,2,0,B|71:306|87:366,1,110,0|8
180,336,65835,2,0,B|272:272|396:280,2,220,2|2|6
88,368,67599,5,8
36,284,67952,1,2
36,284,68305,1,8
100,208,68658,2,0,B|212:168|236:48,2,220,2|2|6
36,284,70423,5,8
112,348,70776,2,0,B|228:360,1,110,0|8
316,324,71482,1,0
392,264,71835,1,8
448,180,72188,1,0
472,84,72541,1,8
388,28,72893,6,0,B|268:28,1,110,4|8
224,112,73599,2,0,B|344:112,1,110,0|8
424,152,74305,2,0,B|496:252|424:360,2,220,0|0|4
244,68,76423,6,0,B|132:68,1,110,0|8
64,140,77129,1,0
128,212,77482,1,8
64,288,77835,1,0
128,364,78188,1,8
220,324,78541,6,0,B|268:284|320:280,1,110,4|8
352,188,79246,2,0,B|300:184|252:144,1,110,0|8
152,136,79952,2,0,B|152:24,2,110,0|8|0
152,236,81011,5,4
