osu file format v9

[General]
AudioFilename: elderthings.mp3
AudioLeadIn: 0
PreviewTime: 46753
Countdown: 0
SampleSet: Normal
StackLeniency: 0.7
Mode: 0
LetterboxInBreaks: 0

[Editor]
DistanceSpacing: 1
BeatDivisor: 4
GridSize: 4

[Metadata]
Title:Elder Things (Short Ver.)
Artist:Denkare
Creator:Star Stream
Version:Hard
Source:Cthulhu ~Otome no Fureru, Tenshi no Yubisaki~
Tags:Yousei Teikoku Fairy Yui Itsuki visual novel Laurier

[Difficulty]
HPDrainRate:6
CircleSize:4
OverallDifficulty:6
ApproachRate:7
SliderMultiplier:1.5
SliderTickRate:1

[Events]
//Background and Video events
0,0,"82.jpg"
//Break Periods
//Storyboard Layer 0 (Background)
//Storyboard Layer 1 (Fail)
//Storyboard Layer 2 (Pass)
//Storyboard Layer 3 (Foreground)
//Storyboard Sound Samples
//Background Colour Transformations
3,100,163,162,255

[TimingPoints]
894,352.941176470588,4,1,1,60,1,0
47482,-100,4,1,1,60,0,1
70070,-100,4,1,1,60,0,0

[Colours]
Combo1 : 138,55,155
Combo2 : 185,35,28
Combo3 : 230,226,231

[HitObjects]
256,192,9364,12,4,10776
188,192,11129,5,0
304,288,11482,2,0,B|344:264,3,37.5
360,240,11835,2,0,B|380:192,3,37.5
364,168,12188,6,0,B|368:88|448:48,1,150,4|8
296,24,12893,2,0,B|292:104|212:144,1,150,0|8
160,92,13423,2,0,B|132:136|132:136|132:240,1,150
184,288,13952,1,8
32,192,14305,1,0
212,216,14658,1,8
40,272,15011,6,0,B|80:268|100:232,1,75,4|0
104,152,15364,2,0,B|84:116|44:112,1,75,8|0
32,192,15717,2,0,B|200:192,1,150,0|8
208,264,16246,2,0,B|256:232|256:232|256:128,1,150
204,84,16776,1,8
380,120,17129,2,0,B|416:144|420:184,1,75
384,248,17482,2,0,B|348:224|344:184,1,75,8|0
380,120,17835,5,4
380,120,18011,1,0
328,64,18188,2,0,B|248:64,1,75,8|0
188,28,18541,2,0,B|144:64|152:136|204:160,1,150,0|8
272,156,19070,2,0,B|316:176|324:248|280:284,1,150
232,340,19599,1,8
388,248,19952,1,0
384,68,20305,1,8
384,68,20658,6,0,B|420:140,1,75,4|0
492,152,21011,2,0,B|476:232,1,75,8|0
496,300,21364,2,0,B|444:324|444:324|336:280,1,150,0|8
336,216,21893,2,0,B|288:224|280:272,2,75
408,192,22423,1,8
256,96,22776,2,0,B|220:124,3,37.5
200,148,23129,2,0,B|200:204,3,37.5
228,212,23482,6,0,B|204:292|112:296,1,150,4|8
268,300,24188,2,0,B|304:232,2,75,0|0|8
320,356,24717,1,0
320,356,24893,6,0,B|356:284,1,75
424,268,25246,1,8
480,216,25423,1,0
424,168,25599,1,0
368,120,25776,2,0,B|368:40,2,75,0|8|0
236,192,26482,6,0,B|236:276,1,75,0|8
176,312,26835,1,0
176,312,27011,2,0,B|100:276,1,75
92,208,27364,2,0,B|48:216|32:268,1,75,8|0
37,254,27717,2,0,B|36:192|36:192|64:108,1,150,0|8
204,52,28423,2,0,B|248:40,2,37.5
148,104,28776,1,8
200,156,28952,2,0,B|248:164,2,37.5,0|0|12
148,104,29305,6,0,B|308:104,1,150
344,44,29835,2,0,B|400:76|400:144|364:180,1,150,0|8
296,192,30364,1,0
352,244,30541,2,0,B|388:280|388:280|492:280,2,150,0|8|0
280,264,31423,1,0
280,264,31599,1,8
280,264,31776,1,0
144,88,32129,6,0,B|128:128|144:168,2,75,0|8|0
144,88,32658,2,0,B|224:128|240:204,1,150,0|8
204,264,33188,1,0
164,200,33364,2,0,B|124:224|116:272|128:312|172:336,1,150,0|8
232,336,33893,1,0
308,336,34070,2,0,B|356:336,3,37.5
372,312,34423,2,0,B|408:276,3,37.5
400,248,34776,6,0,B|400:196|400:196|488:120,1,150,4|8
336,72,35482,2,0,B|336:124|336:124|248:200,1,150,0|8
128,116,36188,2,0,B|96:200|160:252,2,150,0|8|0
204,120,37070,1,0
204,120,37246,1,8
204,120,37423,1,0
256,340,37776,6,0,B|240:304|256:256,2,75,0|8|0
424,192,38482,2,0,B|440:228|424:276,2,75,0|8|0
348,60,39188,2,0,B|300:132|348:208,1,150
343,201,39893,1,0
256,224,40070,1,8
168,200,40246,1,0
104,64,40599,6,0,B|72:104|72:104|72:208,1,150
192,292,41305,2,0,B|180:332|140:344,2,75,0|8|0
256,76,42011,2,0,B|272:120|228:184|172:176,1,150
356,44,42717,1,0
356,44,42893,1,8
356,44,43070,1,0
412,260,43423,6,0,B|468:196|440:116,1,150
336,224,44129,2,0,B|320:264|320:264|332:324|392:344,1,150
336,224,44658,5,4
256,352,45011,1,0
176,224,45364,1,4
336,224,45717,1,8
256,192,46070,12,0,47129
192,272,47482,6,0,B|232:204|196:128,1,150,4|8
128,92,48011,1,0
128,92,48099,1,0
128,92,48188,2,0,B|268:156,1,150,0|8
412,188,48893,1,0
292,276,49246,1,8
412,188,49599,2,0,B|412:104|336:64,1,150,0|8
324,156,50129,6,0,B|324:208|324:208|396:276,1,150,4|0
472,268,50658,1,8
440,336,50835,1,0
440,336,50923,1,0
272,320,51188,1,0
200,304,51364,1,8
140,260,51541,1,0
120,188,51717,6,0,B|168:124,1,75
128,64,52070,2,0,B|204:48,1,75,8|0
256,188,52599,1,0
256,188,52776,1,8
320,96,52952,6,0,B|352:132|352:132|352:240,1,150,4|0
428,248,53482,2,0,B|368:332,1,75,8|0
384,308,53746,1,0
220,348,54011,1,0
160,300,54188,1,8
100,252,54364,1,0
56,192,54541,6,0,B|96:192|120:156,1,75
152,92,54893,2,0,B|196:96|216:128,2,75,8|0|0
76,96,55423,1,0
76,96,55599,1,8
76,96,55776,6,0,B|220:32,1,150
288,36,56305,2,0,B|288:120,1,75
360,136,56658,1,8
260,184,56923,1,0
360,236,57188,6,0,B|448:216|448:124,1,150
404,68,57717,1,8
256,240,58070,1,0
36,192,58423,1,8
96,144,58599,1,0
96,144,58688,1,0
96,144,58776,6,0,B|136:220|88:296,1,150,4|8
196,176,59482,2,0,B|168:128|168:128|168:28,1,150,0|8
288,124,60188,1,0
352,84,60364,1,0
352,160,60541,1,8
352,160,60893,5,0
340,272,61070,1,0
444,228,61246,1,8
340,272,61423,6,0,B|188:272,1,150,4|0
128,316,61952,2,0,B|92:276|92:276|92:164,2,150,8|0|8
212,192,63011,1,0
172,128,63188,1,0
204,60,63364,1,8
272,92,63541,2,0,B|352:104|416:48,1,150
348,188,64246,6,0,B|348:252|348:252|296:328,1,150,4|0
256,260,64776,1,8
184,276,64952,1,0
184,276,65041,1,0
184,276,65129,2,0,B|108:236|108:152,1,150,0|8
156,96,65658,1,0
200,36,65835,6,0,B|236:64|240:136|184:168,2,150,0|8|0
124,32,66717,1,0
124,32,66893,1,8
124,32,67070,2,0,B|276:32,1,150
304,100,67599,2,0,B|368:56,1,75,8|0
440,52,67952,2,0,B|464:108|424:168,2,112.5
344,168,68835,5,0
344,168,69011,2,0,B|308:240,1,75,8|0
236,248,69364,1,0
288,320,69541,1,0
376,296,69717,1,8
288,320,69893,1,0
256,192,70070,12,0,72541
348,192,72893,6,0,B|348:240|348:240|260:304,2,150,4|8|0
300,132,73776,1,0
348,76,73952,2,0,B|432:76,1,75,8|0
200,36,74482,5,0
148,88,74658,1,8
96,144,74835,1,0
96,144,75011,2,0,B|96:232,1,75
104,292,75364,2,0,B|192:280|208:196,1,150,8|4
256,144,75893,5,0
316,192,76070,1,8
372,140,76246,1,0
428,192,76423,2,0,B|428:272,1,75
484,316,76776,2,0,B|412:360,1,75,8|0
272,324,77305,5,0
208,284,77482,1,8
272,324,77658,1,0
272,248,77835,2,0,B|272:204|272:204|200:128,2,150,0|8|4
208,284,78717,5,0
144,324,78893,1,8
84,276,79070,1,0
88,200,79246,2,0,B|88:124,1,75
128,60,79599,2,0,B|176:136,2,75,8|0|0
128,60,80129,5,0
216,72,80305,1,8
304,80,80482,1,0
392,88,80658,1,0
392,88,81011,5,4
