osu file format v12

[General]
AudioFilename: Tenshi no Yubisaki (Denkare) - Elder Things (T. Smirnov) - [MP3Juices.com].mp3
AudioLeadIn: 0
PreviewTime: -1
Countdown: 0
SampleSet: None
StackLeniency: 0.7
Mode: 0
LetterboxInBreaks: 1
WidescreenStoryboard: 0

[Editor]
DistanceSpacing: 1
BeatDivisor: 4
GridSize: 8

[Metadata]
Title:Elder Things (Short Ver.)
TitleUnicode:Elder Things (Short Ver.)
Artist:Denkare
ArtistUnicode:Denkare
Creator:Naranja Sagged
Version:Normal+
Source:Cthulhu ~Otome no Fureru, Tenshi no Yubisaki~
Tags:yousei teikoku fairy yui visual novel cthulhu osu naranja sagged
BeatmapID:302201
BeatmapSetID:117256

[Difficulty]
HPDrainRate:7
CircleSize:4
OverallDifficulty:6
ApproachRate:7
SliderMultiplier:1.00000000596046
SliderTickRate:1

[Events]
//Background and Video events
0,0,"oshino meme.png",0,0
//Break Periods
//Storyboard Layer 0 (Background)
//Storyboard Layer 1 (Fail)
//Storyboard Layer 2 (Pass)
//Storyboard Layer 3 (Foreground)
//Storyboard Sound Samples
//Background Colour Transformations
3,100,163,162,255

[TimingPoints]
12123.2500778574,355.029585798817,4,1,0,100,1,0

[HitObjects]
256,192,1117,12,0,11146,0:0:0:0:
384,280,12123,6,0,L|336:256|336:256,3,50.000000298023
416,240,12922,1,0,0:0:0:0:
384,200,13099,1,0,0:0:0:0:
320,160,13365,2,0,L|264:144,3,50.000000298023
240,216,14164,1,0,0:0:0:0:
304,176,14430,1,0,0:0:0:0:
152,152,14963,2,0,L|152:208,3,50.000000298023
304,184,16028,1,0,0:0:0:0:
208,160,16383,1,0,0:0:0:0:
72,304,17093,2,0,L|136:256,2,75.0000004470345
120,304,17803,1,0,0:0:0:0:
216,272,18158,1,0,0:0:0:0:
344,120,18868,2,0,B|304:168|312:160,2,50.000000298023
264,176,19578,1,0,0:0:0:0:
328,256,19933,1,0,0:0:0:0:
232,256,20288,1,0,0:0:0:0:
256,160,20643,2,0,L|256:104,2,50.000000298023
256,88,21265,1,0,0:0:0:0:
256,216,21709,2,0,L|256:160,2,50.000000298023
256,144,22330,1,0,0:0:0:0:
144,192,22774,1,0,0:0:0:0:
240,192,23129,2,0,L|288:192,4,25.0000001490115
256,120,23750,1,0,0:0:0:0:
328,120,24016,1,0,0:0:0:0:
320,216,24371,2,0,P|280:264|216:272,1,125.000000745057
168,272,24993,1,0,0:0:0:0:
240,272,25259,1,0,0:0:0:0:
208,176,25614,2,0,P|176:136|272:136,1,200.000001192092
168,104,26679,1,0,0:0:0:0:
168,176,26945,1,0,0:0:0:0:
296,176,27389,1,0,0:0:0:0:
296,248,27655,1,0,0:0:0:0:
339,192,27922,2,0,B|304:168|304:168|264:200|264:200|224:160|224:160|176:208,1,200.000001192092
88,192,28987,1,0,0:0:0:0:
136,192,29164,1,0,0:0:0:0:
240,192,29519,1,0,0:0:0:0:
232,96,29874,2,0,B|384:96|336:88|320:144,1,150.000000894069
272,136,30584,1,0,0:0:0:0:
344,136,30851,1,0,0:0:0:0:
248,216,31294,1,0,0:0:0:0:
208,248,31472,1,0,0:0:0:0:
280,248,31738,1,0,0:0:0:0:
256,176,32004,1,0,0:0:0:0:
224,136,32182,2,0,P|152:184|152:176,1,200.000001192092
232,248,33247,1,0,0:0:0:0:
192,216,33425,2,0,L|256:216,1,50.000000298023
256,168,33780,1,0,0:0:0:0:
328,168,34046,2,0,L|240:224,1,100.000000596046
256,96,34845,1,0,0:0:0:0:
224,136,35022,2,0,L|288:136,1,50.000000298023
192,192,35555,1,0,0:0:0:0:
288,192,35910,1,0,0:0:0:0:
192,192,36265,1,0,0:0:0:0:
288,192,36620,2,0,L|344:192,2,50.000000298023
256,288,37330,1,0,0:0:0:0:
256,240,37507,2,0,P|280:248|272:256,1,25.0000001490115
256,136,37951,1,0,0:0:0:0:
304,120,38129,2,0,B|352:160|344:152,1,50.000000298023
224,192,38750,1,0,0:0:0:0:
272,192,38927,2,0,L|336:192,1,50.000000298023
256,264,39460,1,0,0:0:0:0:
256,216,39638,1,0,0:0:0:0:
256,168,39815,1,0,0:0:0:0:
160,192,40170,1,0,0:0:0:0:
208,192,40348,1,0,0:0:0:0:
232,192,40436,1,0,0:0:0:0:
280,136,40703,1,0,0:0:0:0:
304,152,40791,2,0,L|328:168,1,25.0000001490115
328,264,41235,1,0,0:0:0:0:
280,264,41413,2,0,L|176:264,1,100.000000596046
184,200,42034,1,0,0:0:0:0:
224,168,42212,1,0,0:0:0:0:
264,200,42389,1,0,0:0:0:0:
200,128,42744,2,0,P|264:128|256:136,1,175.00000104308
264,200,43632,1,0,0:0:0:0:
328,160,43898,1,0,0:0:0:0:
80,192,44785,2,0,P|184:192|192:200,1,100.000000596046
248,120,45496,1,0,0:0:0:0:
312,200,45851,1,0,0:0:0:0:
216,200,46206,2,0,B|192:208|192:208|176:192|176:192|152:216|152:216|144:192|144:192|128:216|128:216|112:192|112:192|96:216,1,175.00000104308
56,200,47004,1,0,0:0:0:0:
104,200,47182,1,0,0:0:0:0:
152,200,47359,1,0,0:0:0:0:
176,200,47448,2,0,P|288:144|304:144,1,125.000000745057
280,192,48069,1,0,0:0:0:0:
328,200,48247,1,0,0:0:0:0:
328,248,48425,1,0,0:0:0:0:
328,248,48602,1,0,0:0:0:0:
328,248,48780,1,0,0:0:0:0:
280,256,48957,2,0,L|200:256,1,75.0000004470345
208,208,49401,2,0,L|288:208,1,75.0000004470345
280,160,49845,1,0,0:0:0:0:
136,192,50377,2,0,B|208:128|224:136|240:160,1,125.000000745057
304,128,51087,1,0,0:0:0:0:
352,128,51265,1,0,0:0:0:0:
352,176,51442,1,0,0:0:0:0:
304,176,51620,1,0,0:0:0:0:
256,192,51797,2,0,B|232:176|232:176|208:200|208:200|184:168|184:168,1,100.000000596046
136,192,52330,2,0,L|312:192,1,175.00000104308
336,192,53040,2,0,P|280:120|264:120,1,100.000000596046
232,120,53572,1,0,0:0:0:0:
232,168,53750,2,0,L|232:224,1,50.000000298023
256,256,54105,1,0,0:0:0:0:
352,256,54460,1,0,0:0:0:0:
352,208,54638,2,0,L|352:152,1,50.000000298023
208,192,55348,2,0,L|320:192,3,100.000000596046
200,128,56856,2,0,L|304:128,1,100.000000596046
400,128,57567,1,0,0:0:0:0:
208,192,58277,1,0,0:0:0:0:
256,240,58632,2,0,L|256:136,1,100.000000596046
256,112,59075,1,0,0:0:0:0:
256,112,59253,1,0,0:0:0:0:
256,64,59430,2,0,L|320:64,1,50.000000298023
256,192,59874,1,0,0:0:0:0:
256,192,60052,1,0,0:0:0:0:
256,240,60229,2,0,L|392:240,1,125.000000745057
160,192,61472,2,0,L|272:192,1,100.000000596046
312,192,62004,2,0,L|392:192,1,75.0000004470345
360,240,62448,1,0,0:0:0:0:
312,288,62714,1,0,0:0:0:0:
264,288,62892,1,0,0:0:0:0:
256,240,63069,2,0,B|240:216|240:216|264:200|264:200|240:176|240:176|272:160,1,125.000000745057
256,104,64312,1,0,0:0:0:0:
328,104,64578,2,0,L|408:104,1,75.0000004470345
400,152,65022,1,0,0:0:0:0:
400,176,65111,1,0,0:0:0:0:
400,248,65377,2,0,L|320:248,1,75.0000004470345
248,256,65910,2,0,L|248:200,2,50.000000298023
248,104,66797,1,0,0:0:0:0:
248,152,66975,1,0,0:0:0:0:
248,200,67152,2,0,L|248:280,1,75.0000004470345
120,200,67951,1,0,0:0:0:0:
120,272,68217,1,0,0:0:0:0:
192,200,68572,2,0,P|352:200|360:232,1,225.000001341103
432,200,69638,1,0,0:0:0:0:
384,200,69815,2,0,P|248:200|232:208,1,150.000000894069
256,104,70703,1,0,0:0:0:0:
256,200,71058,1,0,0:0:0:0:
352,208,71413,1,0,0:0:0:0:
328,208,71501,1,0,0:0:0:0:
256,200,71768,1,0,0:0:0:0:
160,200,72123,1,0,0:0:0:0:
160,104,72478,1,0,0:0:0:0:
160,128,72567,1,0,0:0:0:0:
160,200,72833,1,0,0:0:0:0:
256,200,73188,1,0,0:0:0:0:
352,200,73543,1,0,0:0:0:0:
352,224,73632,1,0,0:0:0:0:
256,200,73898,1,0,0:0:0:0:
160,200,74253,1,0,0:0:0:0:
256,200,74608,1,0,0:0:0:0:
256,224,74697,1,0,0:0:0:0:
256,152,74963,1,0,0:0:0:0:
80,192,76028,1,0,0:0:0:0:
176,192,76383,1,0,0:0:0:0:
272,192,76738,1,0,0:0:0:0:
272,168,76827,1,0,0:0:0:0:
344,192,77093,1,0,0:0:0:0:
440,192,77448,1,0,0:0:0:0:
344,192,77803,1,0,0:0:0:0:
320,192,77892,1,0,0:0:0:0:
248,192,78158,1,0,0:0:0:0:
256,192,78868,12,0,81087,0:0:0:0:
