osu file format v12

[General]
AudioFilename: Tenshi no Yubisaki (Denkare) - Elder Things (T. Smirnov) - [MP3Juices.com].mp3
AudioLeadIn: 0
PreviewTime: -1
Countdown: 0
SampleSet: None
StackLeniency: 0.7
Mode: 0
LetterboxInBreaks: 1
WidescreenStoryboard: 1

[Editor]
DistanceSpacing: 1
BeatDivisor: 4
GridSize: 8

[Metadata]
Title:Elder Things (Short Ver.)
TitleUnicode:Elder Things (Short Ver.)
Artist:Denkare
ArtistUnicode:Denkare
Creator:Naranja Sagged
Version:Insane
Source:Cthulhu ~Otome no Fureru, Tenshi no Yubisaki~
Tags:yousei teikoku fairy yui visual novel cthulhu osu naranja sagged
BeatmapID:302667
BeatmapSetID:117256

[Difficulty]
HPDrainRate:6
CircleSize:5
OverallDifficulty:8
ApproachRate:8
SliderMultiplier:1.30000000596046
SliderTickRate:1

[Events]
//Background and Video events
0,0,"Cthulhu2.jpg",0,0
//Break Periods
//Storyboard Layer 0 (Background)
//Storyboard Layer 1 (Fail)
//Storyboard Layer 2 (Pass)
//Storyboard Layer 3 (Foreground)
//Storyboard Sound Samples
//Background Colour Transformations
3,100,163,162,255

[TimingPoints]
1249.17406493241,314.13612565445,4,1,0,100,1,0

[HitObjects]
256,192,1117,12,0,11679,0:0:0:0:
376,192,12008,6,0,L|320:192,5,32.5000001490115
280,192,12558,1,0,0:0:0:0:
216,192,12715,1,0,0:0:0:0:
152,192,12872,1,0,0:0:0:0:
280,192,13186,6,0,L|224:192,6,32.5000001490115
216,192,13814,1,0,0:0:0:0:
152,80,14128,6,0,B|200:80|200:80|240:112,1,97.5000004470345
240,144,14442,1,0,0:0:0:0:
240,176,14521,2,0,B|304:176|304:176|352:144,1,97.5000004470345
368,208,14914,1,0,0:0:0:0:
408,264,15071,6,0,L|368:288,5,32.5000001490115
440,264,15620,1,0,0:0:0:0:
480,264,15699,1,0,0:0:0:0:
440,176,15935,2,0,L|440:136,5,32.5000001490115
376,104,16641,1,0,0:0:0:0:
312,104,16798,1,0,0:0:0:0:
184,104,17113,6,0,B|136:104|136:104|96:136,1,97.5000004470345
96,168,17427,1,0,0:0:0:0:
96,200,17505,2,0,B|96:240|96:240|144:280,1,97.5000004470345
232,256,17976,6,0,L|280:256,5,32.5000001490115
200,256,18526,1,0,0:0:0:0:
168,256,18605,1,0,0:0:0:0:
232,184,18840,6,0,L|272:144,5,32.5000001490115
216,208,19390,1,0,0:0:0:0:
200,256,19547,1,0,0:0:0:0:
168,128,19861,6,0,B|208:128|208:128|256:168,1,97.5000004470345
248,200,20175,1,0,0:0:0:0:
248,232,20254,2,0,B|296:232|296:232|352:200,1,97.5000004470345
440,192,20725,6,0,L|496:192,5,32.5000001490115
408,192,21275,1,0,0:0:0:0:
408,160,21353,1,0,0:0:0:0:
408,128,21432,1,0,0:0:0:0:
328,72,21668,6,0,L|288:72,5,32.5000001490115
232,72,22217,1,0,0:0:0:0:
168,72,22374,1,0,0:0:0:0:
112,152,22610,2,0,L|112:224,3,65.000000298023
336,168,23631,5,0,0:0:0:0:
336,232,23788,1,0,0:0:0:0:
400,232,24024,1,0,0:0:0:0:
400,296,24102,1,0,0:0:0:0:
336,296,24259,1,0,0:0:0:0:
120,160,24416,6,0,L|160:160|152:160,2,32.5000001490115
184,128,24730,1,0,0:0:0:0:
288,128,25044,2,0,L|288:168,2,32.5000001490115
352,128,25359,1,0,0:0:0:0:
296,208,25594,6,0,L|384:208,1,65.000000298023
424,208,25908,1,0,0:0:0:0:
360,208,26065,1,0,0:0:0:0:
104,200,26380,6,0,B|120:176|120:176|128:200|128:200|144:176|144:176|152:200|152:200|168:176,1,130.000000596046
296,200,27008,1,0,0:0:0:0:
296,200,27243,1,0,0:0:0:0:
360,208,27401,1,0,0:0:0:0:
360,208,27558,1,0,0:0:0:0:
360,136,27715,6,0,P|288:136|272:152,1,97.5000004470345
120,192,28107,6,0,B|144:160|144:160|168:192|168:192|184:160|184:160|200:192|200:192|216:160|216:160|232:192|232:192|248:160|248:160|264:192|264:192|296:192,1,325.000001490115
456,192,29285,5,0,0:0:0:0:
368,192,29521,1,0,0:0:0:0:
264,192,29757,1,0,0:0:0:0:
264,128,29914,2,0,L|192:128,2,65.000000298023
136,200,30385,1,0,0:0:0:0:
208,136,30542,1,0,0:0:0:0:
280,72,30699,1,0,0:0:0:0:
368,72,30856,6,0,P|368:112|352:128,2,65.000000298023
320,72,31327,1,0,0:0:0:0:
352,128,31484,2,0,P|320:72|320:64,2,65.000000298023
256,192,32113,5,0,0:0:0:0:
256,192,32270,2,0,L|184:192,1,65.000000298023
192,128,32584,1,0,0:0:0:0:
192,224,32819,1,0,0:0:0:0:
264,112,33212,5,0,0:0:0:0:
144,192,33369,2,0,B|160:184|160:184|176:192|176:192|192:184|192:184|208:192|208:192|224:184,1,65.000000298023
264,192,33683,1,0,0:0:0:0:
328,192,33840,1,0,0:0:0:0:
424,192,34076,5,0,0:0:0:0:
424,192,34154,1,0,0:0:0:0:
424,192,34233,1,0,0:0:0:0:
424,192,34312,1,0,0:0:0:0:
424,192,34390,1,0,0:0:0:0:
424,192,34469,1,0,0:0:0:0:
424,192,34547,1,0,0:0:0:0:
424,128,34704,1,0,0:0:0:0:
376,40,34940,6,0,P|336:72|328:104,2,65.000000298023
248,96,35568,1,0,0:0:0:0:
248,96,35725,1,0,0:0:0:0:
120,120,36039,1,0,0:0:0:0:
112,48,36432,2,0,P|144:104|136:128,2,65.000000298023
72,104,36903,1,0,0:0:0:0:
104,176,37060,6,0,P|152:176|184:152,2,65.000000298023
160,224,37531,1,0,0:0:0:0:
264,176,37767,6,0,P|312:144|320:112,2,65.000000298023
264,272,38317,1,0,0:0:0:0:
328,280,38474,6,0,P|328:224|312:208,2,65.000000298023
344,184,39024,1,0,0:0:0:0:
328,88,39259,6,0,P|272:88|248:104,2,65.000000298023
392,88,39730,1,0,0:0:0:0:
456,88,39887,6,0,P|456:136|440:144,2,65.000000298023
408,168,40437,1,0,0:0:0:0:
344,184,40594,6,0,P|304:184|288:168,2,65.000000298023
248,184,41144,1,0,0:0:0:0:
184,184,41301,6,0,P|136:184|128:168,2,65.000000298023
88,184,41851,1,0,0:0:0:0:
88,248,42008,6,0,P|128:280|144:272,2,65.000000298023
184,272,42558,1,0,0:0:0:0:
248,272,42715,6,0,P|296:272|304:288,2,65.000000298023
248,176,43264,1,0,0:0:0:0:
312,176,43421,6,0,P|312:144|296:112,2,65.000000298023
312,80,43971,1,0,0:0:0:0:
248,80,44128,6,0,P|208:80|192:96,2,65.000000298023
80,96,44599,6,0,B|80:128|80:128|112:128|112:128|112:160|112:160|144:160|144:160|144:184,1,130.000000596046
72,216,44992,2,0,B|72:248|72:248|104:248|104:248|104:280|104:280|136:280|136:280|136:304,1,130.000000596046
192,96,45385,2,0,B|192:128|192:128|224:128|224:128|224:160|224:160|256:160|256:160|256:184,1,130.000000596046
168,216,45777,6,0,P|240:216|240:208,1,97.5000004470345
240,192,46092,2,0,B|224:160|224:160|240:136|240:136|224:112|224:112|240:88|240:88|224:64|224:64|240:40,1,162.500000745057
392,96,46877,5,0,0:0:0:0:
392,96,47191,1,0,0:0:0:0:
392,160,47348,1,0,0:0:0:0:
360,168,47427,2,0,B|312:208|312:208|256:168,2,130.000000596046
360,200,48133,1,0,0:0:0:0:
360,200,48291,1,0,0:0:0:0:
136,96,48526,5,0,0:0:0:0:
136,160,48683,1,0,0:0:0:0:
208,96,48919,2,0,B|232:160|232:160|304:160,1,130.000000596046
328,160,49312,1,0,0:0:0:0:
360,160,49390,2,0,B|432:160|432:160|464:208,2,130.000000596046
360,88,50175,5,0,0:0:0:0:
360,88,50332,1,0,0:0:0:0:
296,96,50490,2,0,P|248:120|240:112,2,65.000000298023
296,64,50882,1,0,0:0:0:0:
232,64,51039,1,0,0:0:0:0:
232,160,51275,6,0,L|184:216,2,65.000000298023
144,120,51825,6,0,B|144:152|144:152|168:176,1,65.000000298023
304,152,52060,2,0,B|304:112|304:112|280:88,1,65.000000298023
232,224,52374,5,0,0:0:0:0:
304,224,52531,1,0,0:0:0:0:
368,224,52688,1,0,0:0:0:0:
368,224,52767,1,0,0:0:0:0:
440,224,52846,1,0,0:0:0:0:
440,160,53003,6,0,B|440:88|440:88|400:40,1,130.000000596046
272,48,53474,1,0,0:0:0:0:
192,96,53709,2,0,B|152:160|152:160|168:200,1,97.5000004470345
64,160,54181,5,0,0:0:0:0:
160,160,54416,1,0,0:0:0:0:
160,160,54495,1,0,0:0:0:0:
256,160,54730,2,0,B|256:216|256:216|304:256,1,97.5000004470345
344,160,55202,5,0,0:0:0:0:
344,256,55437,2,0,L|232:256,1,97.5000004470345
184,256,55830,1,0,0:0:0:0:
120,256,55987,1,0,0:0:0:0:
120,256,56065,1,0,0:0:0:0:
120,256,56144,1,0,0:0:0:0:
120,256,56222,1,0,0:0:0:0:
120,256,56301,1,0,0:0:0:0:
120,256,56380,1,0,0:0:0:0:
120,256,56458,1,0,0:0:0:0:
120,256,56537,1,0,0:0:0:0:
120,224,56615,6,0,B|120:136|120:136|160:112,1,130.000000596046
256,104,57165,2,0,P|304:240|256:344,1,260.000001192092
288,248,58029,5,0,0:0:0:0:
352,248,58107,1,0,0:0:0:0:
352,248,58186,1,0,0:0:0:0:
416,248,58343,2,0,B|416:192|416:192|376:168,1,97.5000004470345
344,168,58657,2,0,B|272:168|272:168|240:216,1,130.000000596046
184,248,59128,5,0,0:0:0:0:
120,248,59285,1,0,0:0:0:0:
120,184,59442,2,0,L|120:112,2,65.000000298023
256,192,59914,5,0,0:0:0:0:
256,192,60071,1,0,0:0:0:0:
256,128,60228,2,0,B|360:128|360:128|392:176,1,162.500000745057
352,264,60856,5,0,0:0:0:0:
288,264,61013,1,0,0:0:0:0:
288,264,61092,1,0,0:0:0:0:
224,264,61249,1,0,0:0:0:0:
144,264,61406,6,0,B|144:184|144:184|200:144,1,130.000000596046
216,156,61798,1,0,0:0:0:0:
248,157,61877,2,0,B|337:158|337:158|375:215,1,130.000000596046
360,256,62348,5,0,0:0:0:0:
296,256,62505,1,0,0:0:0:0:
296,192,62662,2,0,B|296:120|296:120|264:104,1,97.5000004470345
208,112,63055,6,0,L|136:112,1,65.000000298023
80,112,63369,1,0,0:0:0:0:
80,176,63526,2,0,B|80:248|80:248|120:280,1,97.5000004470345
176,200,63997,5,0,0:0:0:0:
176,200,64076,1,0,0:0:0:0:
176,200,64154,1,0,0:0:0:0:
176,200,64233,1,0,0:0:0:0:
176,200,64312,2,0,B|256:200|256:200|296:160,1,130.000000596046
360,168,64783,1,0,0:0:0:0:
360,168,64940,1,0,0:0:0:0:
360,104,65097,6,0,B|280:104|280:104|248:144,1,130.000000596046
248,208,65568,5,0,0:0:0:0:
248,272,65725,1,0,0:0:0:0:
216,272,65804,2,0,L|144:272,2,65.000000298023
216,208,66275,2,0,L|216:176,1,32.5000001490115
312,112,66746,6,0,B|240:112|240:112|208:152,1,97.5000004470345
192,136,67060,1,0,0:0:0:0:
160,136,67139,2,0,B|160:208|160:208|184:224,1,97.5000004470345
256,280,67610,5,0,0:0:0:0:
256,280,67688,1,0,0:0:0:0:
320,280,67846,1,0,0:0:0:0:
400,224,68003,6,0,B|368:240|368:240|344:224,5,65.000000298023
256,88,69181,6,0,B|176:88|176:88|144:128,1,130.000000596046
168,224,69730,2,0,B|256:224|256:224|296:272,1,130.000000596046
392,184,70359,5,0,0:0:0:0:
328,256,70516,1,0,0:0:0:0:
272,184,70673,1,0,0:0:0:0:
272,184,70751,1,0,0:0:0:0:
272,184,70830,1,0,0:0:0:0:
272,184,70908,1,0,0:0:0:0:
272,112,70987,2,0,B|272:48|272:48|240:40,1,97.5000004470345
144,40,71380,5,0,0:0:0:0:
144,120,71537,2,0,B|144:192|144:192|176:240,1,130.000000596046
232,240,72008,5,0,0:0:0:0:
232,240,72086,1,0,0:0:0:0:
232,240,72165,1,0,0:0:0:0:
232,240,72243,1,0,0:0:0:0:
264,240,72322,6,0,B|360:240|360:240|416:192,1,162.500000745057
344,128,72950,5,0,0:0:0:0:
280,128,73107,1,0,0:0:0:0:
216,128,73264,1,0,0:0:0:0:
216,128,73343,1,0,0:0:0:0:
216,128,73421,1,0,0:0:0:0:
216,128,73500,1,0,0:0:0:0:
184,128,73579,6,0,B|184:216|184:216|144:232,1,130.000000596046
208,232,74050,1,0,0:0:0:0:
280,288,74207,1,0,0:0:0:0:
336,232,74364,1,0,0:0:0:0:
336,232,74442,1,0,0:0:0:0:
336,232,74521,1,0,0:0:0:0:
336,232,74599,1,0,0:0:0:0:
336,200,74678,6,0,B|336:120|336:120|280:96,1,130.000000596046
192,112,75228,5,0,0:0:0:0:
192,112,75306,1,0,0:0:0:0:
192,112,75385,1,0,0:0:0:0:
192,112,75463,1,0,0:0:0:0:
192,112,75542,1,0,0:0:0:0:
200,208,75777,5,0,0:0:0:0:
144,168,75935,1,0,0:0:0:0:
144,232,76092,1,0,0:0:0:0:
144,232,76170,1,0,0:0:0:0:
144,232,76249,1,0,0:0:0:0:
144,264,76327,6,0,B|232:264|232:264|264:232,1,130.000000596046
336,168,76877,5,0,0:0:0:0:
280,88,77034,1,0,0:0:0:0:
232,168,77191,1,0,0:0:0:0:
232,168,77270,1,0,0:0:0:0:
232,168,77348,1,0,0:0:0:0:
232,168,77427,1,0,0:0:0:0:
232,200,77505,6,0,B|232:288|232:288|288:320,1,130.000000596046
336,312,77976,2,0,B|424:312|424:312|456:264,1,130.000000596046
432,144,78605,5,0,0:0:0:0:
432,144,78683,1,0,0:0:0:0:
432,144,78762,1,0,0:0:0:0:
432,144,78840,1,0,0:0:0:0:
400,144,78919,6,0,B|304:144|304:144|264:200,1,162.500000745057
184,144,79547,1,0,0:0:0:0:
128,208,79704,1,0,0:0:0:0:
72,144,79861,1,0,0:0:0:0:
72,144,79940,1,0,0:0:0:0:
72,144,80018,1,0,0:0:0:0:
72,144,80097,1,0,0:0:0:0:
72,144,80175,1,0,0:0:0:0:
72,144,80254,1,0,0:0:0:0:
72,144,80332,1,0,0:0:0:0:
72,144,80411,1,0,0:0:0:0:
72,144,80490,1,0,0:0:0:0:
72,144,80568,1,0,0:0:0:0:
256,192,80961,5,4,0:0:0:0:
