osu file format v14

[General]
AudioFilename: denpa.mp3
AudioLeadIn: 0
PreviewTime: 59757
Countdown: 1
SampleSet: Soft
StackLeniency: 0.7
Mode: 0
LetterboxInBreaks: 1
WidescreenStoryboard: 1

[Editor]
Bookmarks: 96289
DistanceSpacing: 1.3
BeatDivisor: 4
GridSize: 32
TimelineZoom: 1.8

[Metadata]
Title:Den Den Passion
TitleUnicode:でんでんぱっしょん
Artist:Dempagumi.inc
ArtistUnicode:でんぱ組.inc
Creator:papapa213
Version:hyper
Source:
Tags:single 活在梦里
BeatmapID:1501934
BeatmapSetID:697776

[Difficulty]
HPDrainRate:5
CircleSize:4
OverallDifficulty:7
ApproachRate:8.6
SliderMultiplier:1.4
SliderTickRate:1

[Events]
//Background and Video events
0,0,"kawaiibg.jpg",0,0
//Break Periods
//Storyboard Layer 0 (Background)
//Storyboard Layer 1 (Fail)
//Storyboard Layer 2 (Pass)
//Storyboard Layer 3 (Foreground)
//Storyboard Sound Samples

[TimingPoints]
612,379.314704766721,4,1,0,40,1,0
6680,383.386581469649,4,1,0,40,1,0
11290,322.58064516129,4,1,0,40,1,0
12580,-100,4,2,0,40,0,0
16289,-90.9090909090909,4,2,0,40,0,0
16612,-100,4,2,0,40,0,0
22902,-166.666666666667,4,2,0,40,0,0
24193,-125,4,2,0,40,0,0
24999,-100,4,2,0,40,0,0
25483,-125,4,2,0,40,0,0
35806,-100,4,2,0,40,0,0
45160,-166.666666666667,4,2,0,40,0,0
46128,-100,4,2,0,40,0,0
50483,-90.9090909090909,4,2,0,40,0,0
50967,-100,4,2,0,40,0,0
58870,-83.3333333333333,4,2,0,40,0,0
59354,-100,4,2,0,40,0,0
60322,-100,4,2,0,40,0,1
83548,-100,4,2,0,40,0,0
93870,-166.666666666667,4,2,0,40,0,0

[HitObjects]
128,96,6680,5,0,0:0:0:0:
128,96,7063,1,0,0:0:0:0:
159,228,7446,1,0,0:0:0:0:
159,228,7830,1,0,0:0:0:0:
310,178,8213,5,0,0:0:0:0:
414,177,8596,1,0,0:0:0:0:
260,269,8980,1,0,0:0:0:0:
310,178,9363,1,0,0:0:0:0:
186,24,9747,5,0,0:0:0:0:
215,116,10130,1,0,0:0:0:0:
339,19,10513,1,0,0:0:0:0:
433,19,10897,1,0,0:0:0:0:
285,184,11290,5,0,0:0:0:0:
172,44,11451,2,0,P|204:34|265:46,1,70
285,184,11773,1,0,0:0:0:0:
285,184,12096,1,0,0:0:0:0:
172,44,12257,2,0,P|140:34|79:46,1,70
65,153,12580,6,0,P|116:137|136:120,1,70
218,113,12902,2,0,P|215:147|201:179,1,70
145,251,13225,2,0,P|176:265|211:267,1,70
348,191,13548,1,0,0:0:0:0:
278,250,13709,2,0,P|211:268|145:251,1,140
200,179,14193,2,0,P|240:174|271:146,1,70
307,78,14515,2,0,P|266:82|178:29,1,140
348,191,15160,6,0,P|392:199|435:181,1,70
502,168,15483,2,0,P|505:203|495:236,1,70
416,283,15806,2,0,P|450:276|480:257,1,70
480,76,16128,1,0,0:0:0:0:
501,168,16289,2,0,P|478:240|416:282,1,154.000004699707
323,192,16773,2,0,L|330:268,1,70
240,222,17096,2,0,L|247:153,1,70
160,117,17419,2,0,L|166:186,1,70
164,320,17741,6,0,P|109:304|98:291,1,70
23,248,18064,2,0,P|15:281|25:319,1,70
164,320,18386,2,0,P|121:353|92:359,1,70
23,315,18709,1,0,0:0:0:0:
106,357,18870,2,0,P|138:344|175:226,1,140
171,163,19354,2,0,P|145:187|113:200,1,70
31,109,19677,2,0,P|65:115|99:108,1,70
134,25,19999,2,0,P|99:18|65:25,1,70
202,85,20322,6,0,L|301:79,1,70
358,53,20644,2,0,B|387:72|387:72|359:96,1,70
260,246,20967,2,0,L|161:240,1,70
99,253,21289,2,0,B|73:232|73:232|104:213,1,70
211,167,21612,6,0,L|261:167,4,35
89,107,22096,2,0,L|69:72,9,35
42,41,22902,6,0,B|97:2|161:39|172:93|172:93|220:39|296:61,1,293.999991027832
253,143,24193,6,0,B|318:159|362:120|372:81|372:81|401:126|434:139|414:217,1,280
357,265,25160,2,0,L|281:265,1,70
101,229,25483,6,0,L|237:220,1,112
82,312,26128,1,0,0:0:0:0:
82,312,26451,1,0,0:0:0:0:
169,113,26773,2,0,L|186:256,1,112
231,44,27419,1,0,0:0:0:0:
231,44,27741,1,0,0:0:0:0:
403,85,28064,6,0,L|262:110,1,112
473,26,28709,1,0,0:0:0:0:
473,26,29031,1,0,0:0:0:0:
377,209,29354,2,0,P|334:238|309:244,1,56
251,310,29677,2,0,L|250:254,1,56
122,208,29999,2,0,P|165:237|189:243,1,56
251,170,30322,1,0,0:0:0:0:
90,101,30644,6,0,L|216:88,1,112
45,172,31289,1,0,0:0:0:0:
8,97,31451,2,0,L|5:41,2,56
53,256,31935,2,0,L|35:373,1,112
45,172,32580,1,0,0:0:0:0:
122,208,32741,2,0,L|177:210,2,56
117,129,33225,6,0,L|244:99,1,112
306,188,33709,1,0,0:0:0:0:
295,314,33870,1,0,0:0:0:0:
370,291,34031,1,0,0:0:0:0:
410,223,34192,1,0,0:0:0:0:
411,144,34354,1,0,0:0:0:0:
287,89,34515,1,0,0:0:0:0:
193,188,34677,6,0,L|305:188,1,112
410,223,35160,2,0,L|475:248,1,56
463,123,35483,2,0,L|398:148,1,56
262,275,35806,6,0,P|240:330|256:387,2,105
323,208,36451,1,0,0:0:0:0:
352,294,36612,2,0,L|372:350,2,35
323,208,36935,1,0,0:0:0:0:
189,122,37096,6,0,P|239:109|288:125,2,105
146,203,37741,1,0,0:0:0:0:
103,283,37902,2,0,L|103:334,2,35
100,123,38225,5,0,0:0:0:0:
189,122,38386,2,0,P|266:137|308:188,1,140
512,122,38870,1,0,0:0:0:0:
422,122,39031,2,0,P|345:137|303:188,1,140
307,377,39515,5,0,0:0:0:0:
305,286,39677,2,0,L|305:152,2,105
230,339,40322,2,0,P|162:344|88:303,1,140
182,236,40806,5,0,0:0:0:0:
182,236,40886,1,0,0:0:0:0:
182,236,40967,2,0,P|199:146|185:74,1,140
78,15,41451,1,0,0:0:0:0:
0,61,41612,2,0,P|22:149|72:204,1,140
107,114,42096,1,0,0:0:0:0:
261,71,42257,5,0,0:0:0:0:
261,71,42419,2,0,P|333:107|342:122,1,70
265,155,42741,1,0,0:0:0:0:
265,155,42902,2,0,L|270:227,1,70
344,315,43225,2,0,L|348:245,1,70
260,151,43548,1,0,0:0:0:0:
186,234,43709,5,0,0:0:0:0:
186,234,43789,1,0,0:0:0:0:
186,234,43870,2,0,L|234:240,3,35
255,243,44193,2,0,L|303:249,3,35
324,243,44515,2,0,L|372:237,3,35
392,227,44838,1,0,0:0:0:0:
404,66,45160,2,0,P|359:52|309:54,2,83.9999974365235
484,243,46128,6,0,L|487:319,1,70
392,227,46451,2,0,L|389:151,1,70
316,102,46773,2,0,P|252:100|221:109,1,70
151,187,47096,2,0,P|215:189|246:180,1,70
246,101,47419,1,0,0:0:0:0:
204,19,47580,6,0,B|238:8|238:8|273:18,2,70
152,94,48064,2,0,P|101:113|67:106,1,70
16,53,48386,2,0,P|57:87|68:120,1,70
68,213,48709,1,0,0:0:0:0:
67,225,48789,1,0,0:0:0:0:
66,235,48870,1,0,0:0:0:0:
28,337,49031,2,0,P|36:284|60:258,1,70
118,327,49354,2,0,P|168:341|191:335,2,70
190,256,49838,6,0,L|301:245,1,105
334,234,50160,2,0,P|292:264|272:312,1,105
244,343,50483,2,0,P|266:272|232:170,1,154.000004699707
175,142,50967,2,0,L|132:148,2,35
125,66,51289,6,0,P|76:90|65:106,1,70
98,187,51612,2,0,P|107:220|99:254,1,70
27,370,51935,2,0,P|17:336|25:302,1,70
109,337,52257,2,0,P|142:346|176:338,1,70
243,275,52580,1,0,0:0:0:0:
355,346,52741,1,0,0:0:0:0:
475,270,52902,2,0,L|331:260,1,140
243,275,53386,5,0,0:0:0:0:
277,129,53548,2,0,L|283:207,2,70
322,50,54031,1,0,0:0:0:0:
232,51,54193,2,0,P|145:61|71:86,1,140
15,175,54677,5,0,0:0:0:0:
72,290,54838,2,0,L|92:212,2,70
9,356,55322,1,0,0:0:0:0:
97,375,55483,2,0,P|166:378|246:352,1,140
321,261,55967,5,0,0:0:0:0:
376,130,56128,2,0,L|384:208,2,70
426,53,56612,1,0,0:0:0:0:
467,134,56773,2,0,P|477:191|466:288,1,140
393,322,57257,1,0,0:0:0:0:
321,261,57419,2,0,L|307:311,2,35
359,154,57741,5,0,0:0:0:0:
359,154,57902,1,0,0:0:0:0:
436,241,58064,1,0,0:0:0:0:
436,241,58225,1,0,0:0:0:0:
275,186,58386,2,0,P|207:181|135:194,1,140
202,283,58870,6,0,P|207:218|184:91,1,167.999994873047
82,26,59354,1,0,0:0:0:0:
111,111,59515,1,0,0:0:0:0:
166,38,59677,1,0,0:0:0:0:
250,26,59838,5,0,0:0:0:0:
221,111,59999,1,0,0:0:0:0:
166,38,60161,1,0,0:0:0:0:
165,176,60322,5,0,0:0:0:0:
221,111,60483,1,0,0:0:0:0:
184,213,60644,1,0,0:0:0:0:
265,185,60805,1,0,0:0:0:0:
356,271,60967,1,0,0:0:0:0:
305,197,61128,1,0,0:0:0:0:
252,294,61289,1,0,0:0:0:0:
295,156,61451,2,0,L|316:76,1,70
401,23,61773,6,0,L|439:23,1,35
472,52,61935,2,0,P|479:96|471:147,1,70
432,199,62257,2,0,P|431:233|438:268,1,70
512,384,62580,5,0,0:0:0:0:
421,375,62741,1,0,0:0:0:0:
322,290,62902,1,0,0:0:0:0:
410,263,63064,2,0,P|432:205|429:184,1,70
472,52,63386,2,0,P|404:67|334:58,1,140
263,1,63870,2,0,P|246:34|246:75,1,70
292,210,64193,6,0,L|300:130,1,70
209,285,64515,2,0,L|201:205,1,70
303,369,64838,2,0,L|311:289,1,70
292,210,65160,1,0,0:0:0:0:
202,215,65322,1,0,0:0:0:0:
196,215,65402,1,0,0:0:0:0:
190,215,65483,6,0,P|140:195|121:158,1,70
143,39,65806,2,0,P|161:89|146:128,1,70
48,186,66128,1,0,0:0:0:0:
2,89,66289,2,0,L|71:88,1,70
227,22,66612,1,0,0:0:0:0:
246,147,66773,6,0,P|277:91|277:76,1,70
376,7,67096,2,0,P|312:8|299:15,1,70
394,113,67419,1,0,0:0:0:0:
342,242,67580,2,0,L|348:189,1,35
325,200,67741,2,0,L|319:147,1,35
320,134,67902,1,0,0:0:0:0:
425,199,68064,6,0,L|499:212,1,70
342,242,68386,2,0,L|267:255,1,70
435,358,68709,2,0,L|421:283,1,70
329,173,69031,2,0,L|341:241,1,70
296,321,69354,2,0,P|223:320|203:306,1,70
201,295,69596,1,0,0:0:0:0:
170,321,69677,2,0,L|167:367,2,35
147,233,69999,1,0,0:0:0:0:
225,139,70160,1,0,0:0:0:0:
225,139,70241,1,0,0:0:0:0:
225,139,70322,2,0,P|181:152|146:154,1,70
48,47,70644,6,0,P|82:45|110:24,1,70
141,3,70886,1,0,0:0:0:0:
171,26,70967,2,0,P|198:46|233:48,1,70
330,15,71289,1,0,0:0:0:0:
401,72,71451,1,0,0:0:0:0:
507,15,71612,1,0,0:0:0:0:
436,72,71774,1,0,0:0:0:0:
507,211,71935,6,0,L|461:145,1,70
343,213,72257,2,0,L|389:147,1,70
429,259,72580,2,0,L|430:353,1,70
342,379,72902,1,0,0:0:0:0:
341,296,73064,1,0,0:0:0:0:
254,235,73225,1,0,0:0:0:0:
254,325,73386,2,0,P|208:345|172:343,1,70
28,252,73709,2,0,L|173:266,1,140
254,235,74193,2,0,P|264:188|262:165,1,70
138,89,74515,6,0,L|207:99,1,70
34,22,74838,2,0,L|103:11,1,70
0,102,75160,1,0,0:0:0:0:
108,208,75322,2,0,L|107:290,2,70
138,89,75806,6,0,P|173:60|218:54,1,70
274,163,76128,2,0,P|222:147|198:118,1,70
286,41,76451,2,0,L|363:39,1,70
479,100,76773,2,0,L|349:123,1,105
364,155,77096,2,0,P|364:210|406:257,2,105
452,179,77741,1,0,0:0:0:0:
392,248,77902,5,0,0:0:0:0:
300,249,78064,1,0,0:0:0:0:
243,177,78225,2,0,P|168:148|109:197,1,140
72,252,78709,1,0,0:0:0:0:
142,309,78870,1,0,0:0:0:0:
232,310,79031,1,0,0:0:0:0:
364,312,79193,5,0,0:0:0:0:
300,249,79354,1,0,0:0:0:0:
341,168,79515,2,0,P|402:139|462:169,1,140
512,244,79999,1,0,0:0:0:0:
452,312,80160,1,0,0:0:0:0:
364,312,80322,1,0,0:0:0:0:
300,249,80483,6,0,L|300:204,2,35
217,84,80806,2,0,L|217:226,1,140
138,269,81289,1,0,0:0:0:0:
83,195,81451,1,0,0:0:0:0:
83,34,81612,2,0,L|83:104,1,70
51,277,81935,1,0,0:0:0:0:
138,269,82096,2,0,L|217:269,1,70
298,372,82419,5,0,0:0:0:0:
298,372,82499,1,0,0:0:0:0:
298,372,82580,2,0,L|312:277,1,70
347,169,82902,1,0,0:0:0:0:
384,253,83064,1,0,0:0:0:0:
446,368,83225,2,0,P|461:315|459:288,1,70
414,154,83548,6,0,P|381:168|347:169,1,70
279,76,83870,2,0,P|312:88|346:91,1,70
439,48,84193,2,0,P|411:69|379:82,1,70
229,41,84515,1,0,0:0:0:0:
310,82,84677,2,0,P|379:83|439:48,1,140
482,146,85160,2,0,P|447:154|413:153,1,70
331,199,85483,2,0,P|390:234|459:233,1,140
237,159,86128,6,0,P|193:174|157:169,1,70
97,239,86451,2,0,P|141:254|177:249,1,70
262,297,86773,2,0,P|226:326|190:335,1,70
46,330,87096,1,0,0:0:0:0:
136,341,87257,2,0,P|205:336|261:296,1,140
326,177,87741,2,0,L|332:254,1,70
407,201,88064,2,0,L|412:131,1,70
489,92,88386,2,0,L|495:169,1,70
457,321,88709,6,0,P|402:305|391:292,1,70
316,249,89032,2,0,P|308:282|318:320,1,70
457,321,89354,2,0,P|414:354|385:360,1,70
316,316,89677,1,0,0:0:0:0:
399,358,89838,2,0,P|431:345|468:227,1,140
464,164,90322,2,0,P|438:188|406:201,1,70
324,110,90645,2,0,P|358:116|392:109,1,70
300,30,90967,2,0,P|265:23|231:30,1,70
110,140,91289,6,0,L|208:130,1,70
266,103,91612,2,0,B|289:132|289:132|268:158,1,70
166,325,91935,2,0,L|68:315,1,70
8,343,92258,2,0,B|-13:317|-13:317|10:288,1,70
99,229,92580,5,0,0:0:0:0:
199,176,92741,1,0,0:0:0:0:
206,176,92822,1,0,0:0:0:0:
212,176,92902,1,0,0:0:0:0:
219,176,92983,1,0,0:0:0:0:
226,176,93064,1,0,0:0:0:0:
307,250,93225,1,0,0:0:0:0:
300,250,93306,1,0,0:0:0:0:
294,250,93386,1,0,0:0:0:0:
287,250,93467,1,0,0:0:0:0:
280,250,93548,1,0,0:0:0:0:
196,310,93709,1,0,0:0:0:0:
269,363,93870,6,0,B|339:324|404:368|404:368|409:280|482:264|390:96|390:96|364:43|426:-5|490:20|501:62|475:100,1,629.999980773926
