osu file format v12

[General]
AudioFilename: Demi Lovato - Heart Attack (Official Audio)-1.mp3
AudioLeadIn: 0
PreviewTime: -1
Countdown: 0
SampleSet: Soft
StackLeniency: 0.7
Mode: 0
LetterboxInBreaks: 1

[Editor]
DistanceSpacing: 0.8
BeatDivisor: 4
GridSize: 8

[Metadata]
Title:Heart Attack
TitleUnicode:Heart Attack
Artist:Demi Lovato
ArtistUnicode:Demi Lovato
Creator:Lehon
Version:Normal
Source:
Tags:
BeatmapID:230651
BeatmapSetID:83554

[Difficulty]
HPDrainRate:6
CircleSize:3
OverallDifficulty:6
ApproachRate:6
SliderMultiplier:1.6
SliderTickRate:2

[Events]
//Background and Video events
0,0,"Demi-Lovato-Heart-Attack.jpg",1,1
//Break Periods
//Storyboard Layer 0 (Background)
//Storyboard Layer 1 (Fail)
//Storyboard Layer 2 (Pass)
//Storyboard Layer 3 (Foreground)
//Storyboard Sound Samples
//Background Colour Transformations
3,100,163,162,255

[TimingPoints]
11325,689.655172413793,4,2,0,100,1,0
63738,-66.6666666666667,4,2,0,100,0,1
74773,-100,4,2,0,100,0,0
127187,-66.6666666666667,4,2,0,100,0,1
138221,-66.6666666666667,4,2,0,100,0,0
161669,-50,4,2,0,100,0,0
162359,-66.6666666666667,4,2,0,100,0,0
163049,-66.6666666666667,4,2,0,70,0,0
182359,-66.6666666666667,4,2,0,100,0,1
204428,-66.6666666666667,4,2,0,100,0,0

[Colours]
Combo1 : 24,89,141
Combo2 : 210,210,210
Combo3 : 183,219,255
Combo4 : 224,154,248

[HitObjects]
176,304,11324,2,0,B|240:272|280:352|352:280,1,160,0|8,0:0|0:0,0:0:0:0:
360,240,12359,1,0,0:0:0:0:
352,176,12704,2,0,B|352:128|416:104|416:104|368:40,1,160,0|8,0:0|0:0,0:0:0:0:
256,88,14083,1,0,0:0:0:0:
130,58,14773,6,8,B|96:104|96:104|160:128|160:176,1,160,8|0,0:0|0:0,0:0:0:0:
192,304,16152,2,0,B|232:312|256:352|256:352|280:304|336:304,1,160,8|0,0:0|0:0,0:0:0:0:
432,264,17531,6,0,P|392:208|448:128,1,160,8|0,0:0|0:0,0:0:0:0:
416,72,18566,1,0,0:0:0:0:
352,64,18911,2,0,B|280:88|280:88|296:136|256:184,1,160,8|0,0:0|0:0,0:0:0:0:
144,136,20290,6,0,B|104:96|104:96|96:48,2,80,8|0|0,0:0|0:0|0:0,0:0:0:0:
200,176,21324,1,0,0:0:0:0:
208,240,21669,2,0,P|256:296|304:232,1,160,8|0,0:0|0:0,0:0:0:0:
360,136,23049,6,0,B|400:176|448:168|448:168|440:256,1,160,8|0,0:0|0:0,0:0:0:0:
432,296,24083,1,0,0:0:0:0:
384,336,24428,2,0,B|320:360|280:296|216:336,1,160,8|0,0:0|0:0,0:0:0:0:
120,256,25807,5,8,0:0:0:0:
184,144,26497,2,0,B|128:152|128:152|88:128,1,80
80,80,27187,2,0,P|160:32|216:72,1,160,8|0,0:0|0:0,0:0:0:0:
336,72,28566,5,8,0:0:0:0:
400,80,28911,2,0,B|464:120|464:120|464:160|432:208,1,160
416,256,29945,1,8,0:0:0:0:
288,272,30635,6,0,B|256:352|256:352|240:312|176:304,1,160,0|8,0:0|0:0,0:0:0:0:
144,336,31669,1,0,0:0:0:0:
80,328,32014,2,0,P|32:304|40:200,2,160,0|8|0,0:0|0:0|0:0,0:0:0:0:
160,232,34083,5,8,0:0:0:0:
144,104,34773,2,0,P|208:96|232:112,1,80
336,152,35462,2,0,P|272:160|248:144,1,80,8|0,0:0|0:0,0:0:0:0:
264,88,36152,2,0,P|344:56|408:96,1,160,0|8,0:0|0:0,0:0:0:0:
312,184,37531,6,0,B|272:208|272:208|256:240|256:240|240:208|240:208|176:168,2,160,0|8|0,0:0|0:0|0:0,0:0:0:0:
336,120,39256,1,0,0:0:0:0:
328,56,39600,2,0,P|272:24|184:64,2,160,8|0|8,0:0|0:0|0:0,0:0:0:0:
256,160,41669,5,0,0:0:0:0:
256,288,42359,1,8,0:0:0:0:
408,232,43221,2,0,P|448:208|456:152,1,80
432,144,43738,2,8,L|424:80,3,40
392,64,44428,6,0,P|312:40|248:88,1,160,4|8,1:0|0:0,0:0:0:0:
128,96,45807,2,0,B|120:152|168:176|168:176|144:240,1,160,0|8,0:0|0:0,0:0:0:0:
120,296,46842,1,0,0:0:0:0:
176,320,47187,6,0,P|248:352|320:320,1,160,0|8,0:0|0:0,0:0:0:0:
360,272,48221,2,0,L|432:280,2,40
312,232,48911,2,0,B|296:184|296:184|296:136,2,80,0|8|0,0:0|0:0|0:0,0:0:0:0:
200,232,49945,6,0,B|216:184|216:184|216:136,2,80,0|0|8,0:0|0:0|0:0,0:0:0:0:
200,296,50980,2,0,P|272:344|304:288,2,160
184,232,52704,5,0,0:0:0:0:
304,184,53393,1,8,0:0:0:0:
184,128,54083,1,0,0:0:0:0:
304,80,54773,1,8,0:0:0:0:
304,56,55462,5,4,0:0:0:0:
304,80,58221,1,4,0:0:0:0:
312,96,60980,2,0,B|312:152|312:152|336:200,2,80,4|0|0,0:0|0:0|0:0,0:0:0:0:
240,152,63738,6,0,B|200:112|136:136|144:200|128:208|184:264|256:320|256:320|320:256|384:232|400:144|312:80|256:160|256:160,1,600.000022888184,4|0,1:0|0:0,0:0:0:0:
256,64,65807,1,0,1:0:0:0:
48,256,66497,6,0,P|80:320|152:328,1,120.000004577637,0|0,0:0|0:0,0:0:0:0:
208,288,67187,2,0,B|256:328|256:328|312:280,1,120.000004577637,0|0,1:0|0:0,0:0:0:0:
389,333,67876,2,0,P|432:320|464:256,2,120.000004577637,0|0|0,0:0|0:0|1:0,0:0:0:0:
376,240,68911,1,0,0:0:0:0:
288,192,69256,6,0,L|160:176,2,120.000004577637,0|0|0,0:0|0:0|1:0,0:0:0:0:
264,96,70290,2,0,B|184:96|128:72|128:72|64:192,1,240.000009155274
40,248,71324,1,0,1:0:0:0:
176,112,72014,1,0,0:0:0:0:
208,304,72704,5,0,1:0:0:0:
256,176,73049,1,0,0:0:0:0:
304,304,73393,1,0,0:0:0:0:
184,224,73738,1,0,0:0:0:0:
328,224,74083,1,0,1:0:0:0:
256,48,74773,5,4,0:0:0:0:
176,304,77531,2,0,P|256:336|328:304,1,160,0|8,0:0|0:0,0:0:0:0:
360,256,78566,2,0,L|424:264,2,40
352,192,79256,2,0,L|296:184,1,40
280,200,79600,2,0,B|224:176|176:216|176:216|120:168,1,160,8|0,0:0|0:0,0:0:0:0:
80,216,80635,5,0,0:0:0:0:
72,280,80980,2,0,P|88:336|128:360,1,80,8|0,0:0|0:0,0:0:0:0:
168,344,81669,2,0,B|256:328|256:328|296:360,2,120
168,280,83049,1,0,0:0:0:0:
296,256,83738,6,0,P|352:256|392:280,1,80,8|0,0:0|0:0,0:0:0:0:
400,288,84256,1,0,0:0:0:0:
424,304,84428,2,0,P|445:313|501:313,1,80
496,248,85118,1,8,0:0:0:0:
440,136,85807,6,0,P|408:96|392:56,2,80,0|0|8,0:0|0:0|0:0,0:0:0:0:
400,184,86842,2,0,B|336:200|312:160|312:160|320:96,1,160
280,48,87876,1,8,0:0:0:0:
216,64,88221,1,0,0:0:0:0:
208,128,88566,1,0,0:0:0:0:
88,168,89256,5,8,0:0:0:0:
96,200,89428,1,0,0:0:0:0:
104,232,89600,2,0,P|136:280|176:296,2,80
168,216,90635,2,0,B|224:160|272:280|336:176,1,160,8|0,0:0|0:0,0:0:0:0:
344,144,91669,1,0,0:0:0:0:
408,128,92014,5,8,0:0:0:0:
464,152,92359,2,0,P|504:208|488:280,1,120
496,288,93049,1,0,0:0:0:0:
456,336,93393,1,8,0:0:0:0:
392,344,93738,1,0,0:0:0:0:
336,312,94083,1,0,0:0:0:0:
208,328,94773,6,0,P|168:336|104:320,2,80,8|0|0,0:0|0:0|0:0,0:0:0:0:
248,280,95807,1,0,0:0:0:0:
264,248,95980,1,0,0:0:0:0:
256,216,96152,1,8,0:0:0:0:
216,160,96497,2,0,P|168:144|120:168,1,80
80,176,97187,5,0,0:0:0:0:
64,240,97531,1,8,0:0:0:0:
144,336,98221,1,0,0:0:0:0:
176,344,98393,1,0,0:0:0:0:
208,344,98566,1,0,0:0:0:0:
272,328,98911,2,0,B|320:344|320:344|384:336,1,80,8|0,0:0|0:0,0:0:0:0:
408,320,99600,1,0,0:0:0:0:
440,200,100290,6,0,P|448:144|368:80,1,160,8|0,0:0|0:0,0:0:0:0:
312,80,101324,2,0,B|264:96|256:136|256:136|240:88|192:80,1,160
135,80,102359,2,0,P|64:144|72:200,1,160,0|8,0:0|0:0,0:0:0:0:
72,328,103738,5,0,0:0:0:0:
96,344,103911,1,0,0:0:0:0:
128,344,104083,1,0,0:0:0:0:
184,320,104428,1,8,0:0:0:0:
248,328,104773,1,0,0:0:0:0:
256,192,105118,12,0,106842,0:0:0:0:
80,176,107187,5,0,0:0:0:0:
80,112,107531,1,0,0:0:0:0:
120,64,107876,2,0,P|200:40|264:88,1,160,4|8,1:0|0:0,0:0:0:0:
384,96,109255,2,0,B|392:152|344:176|344:176|368:240,1,160,0|8,0:0|0:0,0:0:0:0:
392,296,110290,1,0,0:0:0:0:
336,320,110635,6,0,P|264:352|192:320,1,160,0|8,0:0|0:0,0:0:0:0:
152,272,111669,2,0,L|80:280,2,40
200,232,112359,2,0,B|216:184|216:184|216:136,2,80,0|8|0,0:0|0:0|0:0,0:0:0:0:
312,232,113393,6,0,B|296:184|296:184|296:136,2,80,0|0|8,0:0|0:0|0:0,0:0:0:0:
312,296,114428,2,0,P|240:344|208:288,2,160
328,232,116152,5,0,0:0:0:0:
208,184,116841,1,8,0:0:0:0:
328,128,117531,1,0,0:0:0:0:
208,80,118221,1,8,0:0:0:0:
208,56,118910,5,4,0:0:0:0:
208,80,121669,1,4,0:0:0:0:
200,96,124428,2,0,B|200:152|200:152|176:200,2,80,4|0|0,0:0|0:0|0:0,0:0:0:0:
272,152,127187,38,0,B|312:112|376:136|368:200|384:208|328:264|256:320|256:320|192:256|128:232|112:144|200:80|256:160|256:160,1,600.000022888184,4|0,1:0|0:0,0:0:0:0:
256,64,129255,1,0,1:0:0:0:
464,256,129945,6,0,P|432:320|360:328,1,120.000004577637,0|0,0:0|0:0,0:0:0:0:
304,288,130635,2,0,B|256:328|256:328|200:280,1,120.000004577637,0|0,1:0|0:0,0:0:0:0:
123,333,131324,2,0,P|80:320|48:256,2,120.000004577637,0|0|0,0:0|0:0|1:0,0:0:0:0:
136,240,132359,1,0,0:0:0:0:
224,192,132704,6,0,L|352:176,2,120.000004577637,0|0|0,0:0|0:0|1:0,0:0:0:0:
248,96,133738,2,0,B|328:96|384:72|384:72|448:192,1,240.000009155274
472,248,134772,1,0,1:0:0:0:
336,112,135462,1,0,0:0:0:0:
304,304,136152,5,0,1:0:0:0:
256,176,136497,1,0,0:0:0:0:
208,304,136841,1,0,0:0:0:0:
328,224,137186,1,0,0:0:0:0:
184,224,137531,1,0,1:0:0:0:
256,48,138221,5,4,0:0:0:0:
152,208,138911,1,0,1:0:0:0:
344,208,139600,1,0,0:0:0:0:
416,272,139945,5,0,0:0:0:0:
344,336,140290,2,0,B|272:360|272:360|192:344,1,120.000004577637,0|0,1:0|0:0,0:0:0:0:
184,336,140807,1,0,0:0:0:0:
144,312,140980,2,0,P|96:248|208:192,1,240.000009155274,0|0,0:0|1:0,0:0:0:0:
368,312,142359,2,0,P|416:248|304:192,1,240.000009155274,0|0,0:0|1:0,0:0:0:0:
256,104,143393,2,0,L|304:56,1,60.0000022888184
344,48,143738,6,0,B|448:32|448:32|424:104|488:168,1,240.000009155274,0|0,0:0|1:0,0:0:0:0:
168,48,145118,2,0,B|64:32|64:32|88:104|24:168,1,240.000009155274,0|0,0:0|1:0,0:0:0:0:
72,240,146152,2,0,L|144:256,1,60.0000022888184
144,208,146497,6,0,B|176:144|176:144|232:120,1,120.000004577637
232,224,147187,2,0,B|200:288|200:288|144:312,1,120.000004577637,0|0,1:0|0:0,0:0:0:0:
392,304,147876,2,0,B|347:284|347:284|315:220,1,120.000004577637
400,208,148566,2,0,B|368:144|368:144|312:120,1,120.000004577637,0|0,1:0|0:0,1:0:0:0:
280,112,149083,1,0,0:0:0:0:
232,96,149256,5,0,0:0:0:0:
136,104,149600,1,0,0:0:0:0:
72,168,149945,1,0,1:0:0:0:
72,264,150290,1,0,0:0:0:0:
128,336,150635,2,0,B|192:368|192:368|248:352,1,120.000004577637
398,290,151324,2,0,B|334:258|334:258|288:272,1,120.000004577637,0|0,1:0|0:0,0:0:0:0:
240,192,152014,6,0,P|312:128|416:200,1,240.000009155274,0|0,0:0|1:0,0:0:0:0:
240,192,153393,2,0,P|168:256|64:184,1,240.000009155274,0|0,0:0|1:0,0:0:0:0:
56,88,154428,1,0,0:0:0:0:
152,64,154773,6,0,B|224:24|224:24|272:72|272:72|352:32,1,240.000009155274,0|0,0:0|1:0,0:0:0:0:
400,112,155807,1,0,0:0:0:0:
352,192,156152,2,0,B|272:152|272:152|224:200|224:200|152:160,1,240.000009155274,0|0,0:0|1:0,0:0:0:0:
64,192,157187,1,0,0:0:0:0:
88,288,157531,6,0,P|128:336|192:328,1,120.000004577637
208,240,158221,2,0,B|256:200|256:200|312:256,1,120.000004577637
330,334,158911,2,0,P|384:336|424:288,1,120.000004577637
416,192,159600,1,0,0:0:0:0:
368,112,159945,1,0,0:0:0:0:
312,32,160290,6,0,L|184:32,1,120.000004577637
144,112,160980,1,0,0:0:0:0:
96,192,161325,1,0,0:0:0:0:
200,256,161669,2,2,B|208:224|208:224|216:256|216:256|224:224|224:224|232:256|232:256|240:224|240:224|248:256|248:256|256:224|256:224|264:256|264:256|272:224|272:224|280:256|280:256|288:224|288:224|296:256|296:256,1,320,0|0,0:0|0:0,1:0:0:0:
360,296,162704,1,0,0:0:0:0:
432,232,163049,6,0,P|456:176|408:120,1,120.000004577637
360,56,163738,1,8,0:0:0:0:
264,72,164083,2,0,L|152:88,1,60.0000022888184
160,96,164428,2,0,L|88:88,1,60.0000022888184
56,72,164773,1,0,0:0:0:0:
56,168,165118,2,0,B|32:224|32:224|64:256|64:296,1,120.000004577637,8|0,0:0|0:0,0:0:0:0:
88,312,165635,1,0,0:0:0:0:
136,320,165807,1,0,0:0:0:0:
328,312,166497,6,0,B|384:312|416:352|416:352|448:296|448:296|416:208,1,240.000009155274,8|0,0:0|0:0,0:0:0:0:
344,176,167531,1,0,0:0:0:0:
256,208,167876,1,8,0:0:0:0:
168,176,168221,1,0,0:0:0:0:
89,225,168566,2,0,B|64:296|64:296|96:352|96:352|128:312|184:312,1,240.000009155274,0|8,0:0|0:0,0:0:0:0:
272,344,169600,6,0,L|296:264,1,60.0000022888184,0|0,0:0|0:0,0:0:0:0:
272,240,169945,2,0,L|256:160,1,60.0000022888184
272,136,170290,1,0,0:0:0:0:
360,176,170635,2,0,B|384:128|384:128|440:112|464:168,1,120.000004577637,8|0,0:0|0:0,0:0:0:0:
472,184,171152,1,0,0:0:0:0:
464,232,171324,1,0,0:0:0:0:
312,120,172014,6,0,B|280:96|280:96|256:48|256:48|232:96|232:96|203:123,2,180.000006866455,8|0|0,0:0|0:0|0:0,0:0:0:0:
256,200,173393,1,8,0:0:0:0:
256,368,174083,5,4,0:0:0:0:
256,336,176842,1,4,0:0:0:0:
256,288,179600,2,0,B|245:266|245:266|248:160,2,120.000004577637,4|0|0,0:0|0:0|0:0,0:0:0:0:
240,152,182359,6,0,B|200:112|136:136|144:200|128:208|184:264|256:320|256:320|320:256|384:232|400:144|312:80|256:160|256:160,1,600.000022888184,4|0,1:0|0:0,0:0:0:0:
256,64,184427,1,0,1:0:0:0:
120,200,185118,6,0,P|96:256|120:328,1,120.000004577637
200,264,185807,2,0,B|256:240|256:240|328:280,1,120.000004577637,0|0,1:0|0:0,0:0:0:0:
403,311,186497,2,0,P|416:256|392:200,1,120.000004577637
384,104,187187,5,0,1:0:0:0:
304,40,187531,1,0,0:0:0:0:
208,40,187876,1,0,0:0:0:0:
136,96,188221,1,0,0:0:0:0:
128,192,188566,1,0,1:0:0:0:
160,280,188911,2,0,P|232:344|352:272,1,240.000009155274
344,192,189945,2,0,B|256:160|256:160|160:192,1,180.000006866455,0|0,1:0|0:0,0:0:0:0:
128,208,190635,1,0,0:0:0:0:
32,208,190980,5,0,0:0:0:0:
16,112,191324,1,0,1:0:0:0:
104,72,191669,1,0,0:0:0:0:
200,88,192014,2,0,L|272:96,1,60.0000022888184
304,80,192359,2,0,L|392:72,1,60.0000022888184
408,80,192704,2,0,B|488:136|488:136|424:192|480:280,1,240.000009155274,0|0,1:0|0:0,0:0:0:0:
392,320,193738,6,0,P|312:304|256:320,1,120.000004577637,0|0,0:0|1:0,0:0:0:0:
176,312,194428,2,0,P|104:336|88:192,1,240.000009155274
72,112,195462,1,0,1:0:0:0:
168,128,195807,1,0,0:0:0:0:
256,88,196152,2,0,B|341:159|397:47|485:95,1,240.000009155274,0|0,0:0|1:0,0:0:0:0:
440,184,197187,1,0,0:0:0:0:
400,272,197531,6,0,P|352:320|288:320,1,120.000004577637
208,328,198221,2,0,P|158:323|110:275,1,120.000004577637,0|0,1:0|0:0,0:0:0:0:
192,232,198911,2,0,P|264:152|320:256,1,240.000009155274,0|0,0:0|1:0,0:0:0:0:
376,320,199945,2,0,B|256:352|256:352|104:296,1,240.000009155274
64,272,200980,1,0,1:0:0:0:
208,72,201669,6,0,B|240:48|240:48|256:32|256:32|272:48|272:48|312:80,2,120.000004577637,0|0|0,0:0|0:0|1:0,0:0:0:0:
240,176,202704,6,0,B|200:136|136:160|144:224|128:232|184:288|256:344|256:344|320:280|384:256|400:168|312:104|256:184|256:184,1,600.000022888184,0|4,0:0|0:0,0:0:0:0:
