osu file format v12

[General]
AudioFilename: 01 Heart Attack.mp3
AudioLeadIn: 0
PreviewTime: -1
Countdown: 0
SampleSet: Normal
StackLeniency: 0.7
Mode: 0
LetterboxInBreaks: 1
WidescreenStoryboard: 0

[Editor]
DistanceSpacing: 1.3
BeatDivisor: 4
GridSize: 8

[Metadata]
Title:Heart Attack
TitleUnicode:Heart Attack
Artist:Demi Lovato
ArtistUnicode:Demi Lovato
Creator:LeafeonRock
Version:Simple Heart
Source:
Tags:
BeatmapID:373625
BeatmapSetID:151633

[Difficulty]
HPDrainRate:3
CircleSize:3
OverallDifficulty:3
ApproachRate:4
SliderMultiplier:1.4
SliderTickRate:1

[Events]
//Background and Video events
0,0,"Demi Lovato.png",0,0
//Break Periods
2,162200,166555
//Storyboard Layer 0 (Background)
//Storyboard Layer 1 (Fail)
//Storyboard Layer 2 (Pass)
//Storyboard Layer 3 (Foreground)
//Storyboard Sound Samples
//Background Colour Transformations
3,100,163,162,255

[TimingPoints]
0,500,4,1,0,100,1,0

[Colours]
Combo1 : 255,210,210
Combo2 : 255,0,0
Combo3 : 255,79,79
Combo4 : 247,102,123
Combo5 : 255,159,159

[HitObjects]
64,184,1750,1,0,0:0:0:0:
240,200,2375,1,0,0:0:0:0:
72,168,4500,5,0,0:0:0:0:
208,168,5125,1,0,0:0:0:0:
256,192,8500,12,0,11375,0:0:0:0:
48,200,12000,6,0,L|168:200,5,105
144,200,14750,2,0,L|304:208,4,140
120,224,18000,2,0,L|280:232,3,140
200,136,20750,2,0,L|192:328,3,175
120,176,24250,1,0,0:0:0:0:
288,192,24875,1,0,0:0:0:0:
112,176,27125,5,0,0:0:0:0:
208,176,27500,1,0,0:0:0:0:
320,96,29625,2,0,L|48:280,1,315
128,80,32000,2,0,L|128:312,1,210
120,224,34125,2,0,L|320:224,3,175
144,56,37250,2,0,L|120:336,2,280
120,184,40125,2,0,L|296:184,6,175
256,192,45000,12,0,47625,0:0:0:0:
256,192,49500,12,0,53250,0:0:0:0:
104,128,55500,5,0,0:0:0:0:
272,136,56250,1,0,0:0:0:0:
96,256,56875,1,0,0:0:0:0:
336,256,57500,1,0,0:0:0:0:
176,168,59750,5,0,0:0:0:0:
72,288,61000,1,0,0:0:0:0:
344,304,61625,1,0,0:0:0:0:
96,192,62375,1,0,0:0:0:0:
360,200,63000,1,0,0:0:0:0:
232,152,63625,2,0,B|96:80|144:336|-24:336,1,350
160,48,66125,2,0,L|144:240,5,175
464,176,70375,2,0,L|16:184,1,420
88,192,74875,6,0,L|360:208,3,245
128,152,79625,1,0,0:0:0:0:
328,160,80000,1,0,0:0:0:0:
136,256,82500,5,0,0:0:0:0:
456,160,83750,1,0,0:0:0:0:
112,176,85125,1,0,0:0:0:0:
384,168,86500,1,0,0:0:0:0:
104,184,87875,1,0,0:0:0:0:
256,144,89250,1,0,0:0:0:0:
120,280,90625,1,0,0:0:0:0:
280,304,91000,1,0,0:0:0:0:
88,144,92125,1,0,0:0:0:0:
288,168,92375,1,0,0:0:0:0:
104,280,93125,1,0,0:0:0:0:
320,280,93750,1,0,0:0:0:0:
240,112,95375,5,0,0:0:0:0:
120,64,97500,2,0,L|112:344,5,280
128,192,103500,2,0,L|424:192,3,280
152,32,107750,2,0,L|80:352,3,315
200,32,113000,2,0,L|192:352,3,315
72,160,119000,1,0,0:0:0:0:
400,168,119625,1,0,0:0:0:0:
96,288,120250,1,0,0:0:0:0:
400,288,120750,1,0,0:0:0:0:
208,232,121750,5,0,0:0:0:0:
408,144,122375,1,0,0:0:0:0:
160,144,123125,1,0,0:0:0:0:
376,240,123625,1,0,0:0:0:0:
144,40,127125,6,0,L|144:280,5,210
208,32,132375,2,0,L|192:288,6,245
40,152,138875,1,0,0:0:0:0:
312,112,140375,1,0,0:0:0:0:
112,208,141750,1,0,0:0:0:0:
320,168,143125,1,0,0:0:0:0:
120,144,144500,1,0,0:0:0:0:
400,184,145875,1,0,0:0:0:0:
96,264,147125,1,0,0:0:0:0:
192,264,147875,1,0,0:0:0:0:
288,272,148625,1,0,0:0:0:0:
384,272,149250,1,0,0:0:0:0:
96,184,151000,5,0,0:0:0:0:
200,192,151750,1,0,0:0:0:0:
296,192,152375,1,0,0:0:0:0:
64,272,153000,1,0,0:0:0:0:
200,280,153500,1,0,0:0:0:0:
320,288,154125,1,0,0:0:0:0:
240,160,154750,1,0,0:0:0:0:
168,112,155375,1,0,0:0:0:0:
80,64,156125,1,0,0:0:0:0:
16,136,156875,1,0,0:0:0:0:
88,232,157500,1,0,0:0:0:0:
160,288,158125,1,0,0:0:0:0:
248,336,158875,1,0,0:0:0:0:
320,264,159500,1,0,0:0:0:0:
384,200,160125,1,0,0:0:0:0:
368,120,160875,1,0,0:0:0:0:
256,176,161375,1,0,0:0:0:0:
192,208,162000,1,0,0:0:0:0:
256,192,167875,12,0,172000,0:0:0:0:
120,200,174125,5,0,0:0:0:0:
400,208,174875,1,0,0:0:0:0:
128,312,175500,1,0,0:0:0:0:
400,344,176125,1,0,0:0:0:0:
88,136,176750,5,0,0:0:0:0:
352,128,177500,1,0,0:0:0:0:
88,256,178250,1,0,0:0:0:0:
360,248,178750,1,0,0:0:0:0:
256,192,182000,12,0,185750,0:0:0:0:
128,176,187250,5,0,0:0:0:0:
360,176,187875,1,0,0:0:0:0:
128,288,188625,1,0,0:0:0:0:
352,296,189375,1,0,0:0:0:0:
208,216,190000,1,0,0:0:0:0:
80,304,190625,1,0,0:0:0:0:
328,320,191375,1,0,0:0:0:0:
136,216,192000,1,0,0:0:0:0:
320,192,192750,1,0,0:0:0:0:
112,224,193625,5,0,0:0:0:0:
288,224,194125,1,0,0:0:0:0:
96,328,194875,1,0,0:0:0:0:
312,320,195500,1,0,0:0:0:0:
152,208,196125,1,0,0:0:0:0:
304,200,196875,1,0,0:0:0:0:
120,184,199125,6,0,L|376:184,4,245
232,208,204625,5,0,0:0:0:0:
