osu file format v13

[General]
AudioFilename: giveyourheartabreak.mp3
AudioLeadIn: 2000
PreviewTime: 37256
Countdown: 0
SampleSet: Soft
StackLeniency: 0.7
Mode: 0
LetterboxInBreaks: 0
WidescreenStoryboard: 0

[Editor]
DistanceSpacing: 1.2
BeatDivisor: 4
GridSize: 4
TimelineZoom: 1.2

[Metadata]
Title:Give Your Heart A Break
TitleUnicode:Give Your Heart A Break
Artist:Demi Lovato
ArtistUnicode:Demi Lovato
Creator:Squirrel
Version:Heartless
Source:
Tags:unbroken josh alexander billy steinberg dancepop now that's what i call music! 43
BeatmapID:448142
BeatmapSetID:187949

[Difficulty]
HPDrainRate:6
CircleSize:4
OverallDifficulty:6
ApproachRate:7
SliderMultiplier:1.6
SliderTickRate:1

[Events]
//Background and Video events
0,0,"background.jpg",0,0
Video,0,"Give Your Heart a Break.avi"
//Break Periods
2,125261,137819
//Storyboard Layer 0 (Background)
//Storyboard Layer 1 (Fail)
//Storyboard Layer 2 (Pass)
//Storyboard Layer 3 (Foreground)
//Storyboard Sound Samples
//Background Colour Transformations
3,100,0,0,0

[TimingPoints]
213,487.80487804878,4,2,1,30,1,0
23598,487.80487804878,4,2,0,50,1,0
37256,-133.333333333333,4,2,1,50,0,0
39207,-100,4,2,3,70,0,1
62622,-100,4,2,1,50,0,0
63130,487.80487804878,4,2,1,50,1,0
64593,487.80487804878,4,2,1,50,1,0
70436,487.80487804878,4,2,0,50,1,0
78232,487.80487804878,4,2,0,50,1,0
93841,-100,4,2,3,70,0,1
125061,-100,4,2,0,50,0,0
138719,-133.333333333333,4,2,0,50,0,0
147012,-133.333333333333,4,2,1,30,0,0
147500,-114.942528735632,4,2,1,45,0,0
147988,-100,4,2,1,60,0,0
148475,-100,4,2,3,70,0,1
164085,-100,4,2,3,70,0,0
179695,-100,4,2,3,70,0,1
194329,-114.942528735632,4,2,3,50,0,1
194817,-133.333333333333,4,2,3,40,0,1
195305,-133.333333333333,4,2,0,40,0,0
195810,487.80487804878,4,2,0,40,1,0
195810,-133.333333333333,4,2,0,40,0,0
197273,487.80487804878,4,2,0,40,1,0
197273,-133.333333333333,4,2,0,40,0,0
201175,-133.333333333333,4,2,0,30,0,0
201663,-133.333333333333,4,2,0,20,0,0
202151,-133.333333333333,4,2,0,10,0,0
202638,-133.333333333333,4,2,0,5,0,0

[Colours]
Combo1 : 237,209,116
Combo2 : 125,95,87
Combo3 : 169,205,86
Combo4 : 240,81,81

[HitObjects]
44,165,213,5,2,0:0:0:0:
183,296,700,1,8,0:0:0:0:
55,152,1188,1,2,0:0:0:0:
235,215,1676,6,0,P|264:242|278:279,1,80,8|0,0:0|0:0,0:0:0:0:
183,296,2164,1,2,0:0:0:0:
283,132,2652,1,8,0:0:0:0:
474,140,3139,1,2,0:0:0:0:
374,304,3627,6,0,P|342:282|317:250,1,80,8|0,0:0|0:0,0:0:0:0:
288,158,4115,1,2,0:0:0:0:
288,350,4603,1,8,0:0:0:0:
267,159,5091,1,2,0:0:0:0:
114,276,5578,6,0,P|72:279|30:258,1,80,8|0,0:0|0:0,0:0:0:0:
91,184,6066,1,2,0:0:0:0:
276,135,6554,1,8,0:0:0:0:
209,315,7042,1,2,0:0:0:0:
90,162,7530,6,0,P|96:120|121:83,1,80,8|0,0:0|0:0,0:0:0:0:
185,154,8018,1,2,0:0:0:0:
308,304,8505,2,0,P|338:328|378:335,1,80,8|0,0:0|0:0,0:0:0:0:
377,237,8993,2,0,P|342:211|304:206,1,80,2|0,0:0|0:0,0:0:0:0:
224,256,9481,6,0,P|176:264|140:252,1,80,8|0,0:0|0:0,0:0:0:0:
116,164,9969,1,2,0:0:0:0:
236,10,10457,2,0,P|252:48|252:94,1,80,8|0,0:0|0:0,0:0:0:0:
158,67,10944,1,2,0:0:0:0:
78,15,11188,1,0,0:0:0:0:
158,68,11432,6,0,P|133:97|96:112,1,80,8|0,0:0|0:0,0:0:0:0:
0,126,11920,1,2,0:0:0:0:
8,320,12408,2,0,L|85:362,1,80,8|0,0:0|0:0,0:0:0:0:
171,333,12896,1,2,0:0:0:0:
178,238,13139,1,0,0:0:0:0:
92,196,13383,2,0,L|16:223,1,80,8|0,0:0|0:0,0:0:0:0:
8,320,13871,5,2,0:0:0:0:
102,340,14115,2,0,P|138:324|160:292,1,80,0|8,0:0|0:0,0:0:0:0:
187,199,14603,1,0,0:0:0:0:
160,291,14847,2,0,P|199:294|236:281,1,80,2|0,0:0|0:0,0:0:0:0:
311,219,15335,1,8,0:0:0:0:
398,257,15578,1,0,0:0:0:0:
388,352,15822,6,0,P|350:341|321:314,1,80,2|0,0:0|0:0,0:0:0:0:
311,219,16310,1,8,0:0:0:0:
383,156,16554,1,0,0:0:0:0:
471,117,16798,2,0,P|481:156|471:194,1,80,2|0,0:0|0:0,0:0:0:0:
398,257,17286,1,8,0:0:0:0:
384,156,17530,1,0,0:0:0:0:
292,48,17774,6,0,P|253:38|214:46,1,80,2|0,0:0|0:0,0:0:0:0:
156,123,18261,2,0,P|159:162|178:197,1,80,8|0,0:0|0:0,0:0:0:0:
269,229,18749,2,0,P|306:214|333:186,1,80,2|0,0:0|0:0,0:0:0:0:
252,135,19237,1,8,0:0:0:0:
167,90,19481,1,0,0:0:0:0:
74,115,19725,6,0,P|44:145|35:185,1,80,2|0,0:0|0:0,0:0:0:0:
130,192,20213,2,0,P|119:231|90:259,1,80,8|0,0:0|0:0,0:0:0:0:
33,335,20700,2,0,P|67:354|107:353,1,80,2|0,0:0|0:0,0:0:0:0:
197,317,21188,1,8,0:0:0:0:
262,247,21432,1,0,0:0:0:0:
354,276,21676,6,0,P|370:317|401:343,2,80,2|0|8,0:0|0:0|0:0,0:0:0:0:
336,181,22408,1,0,0:0:0:0:
431,168,22652,1,2,0:0:0:0:
449,262,22896,1,0,0:0:0:0:
431,168,23139,1,8,0:0:0:0:
493,95,23383,1,0,0:0:0:0:
493,95,23598,5,4,0:0:0:0:
300,97,24085,2,0,P|268:118|250:154,1,80,8|0,0:0|0:0,0:0:0:0:
250,154,24573,1,2,0:0:0:0:
250,154,25061,1,8,0:0:0:0:
191,230,25305,1,0,0:0:0:0:
155,141,25549,6,0,P|127:102|98:88,1,80,2|0,0:0|0:0,0:0:0:0:
66,180,26037,1,8,0:0:0:0:
66,180,26280,1,0,0:0:0:0:
149,227,26524,2,0,P|192:220|221:197,1,80,2|0,0:0|0:0,0:0:0:0:
279,121,27012,2,0,P|302:90|338:72,1,80,8|0,0:0|0:0,0:0:0:0:
365,165,27500,5,2,0:0:0:0:
429,345,27988,1,8,0:0:0:0:
335,365,28232,1,0,0:0:0:0:
335,365,28476,2,0,P|335:325|349:288,1,80,2|0,0:0|0:0,0:0:0:0:
438,250,28963,1,8,0:0:0:0:
438,250,29451,5,2,0:0:0:0:
466,158,29695,1,0,0:0:0:0:
430,68,29939,2,0,L|351:73,1,80,8|0,0:0|0:0,0:0:0:0:
288,147,30427,1,2,0:0:0:0:
288,147,30671,1,0,0:0:0:0:
200,107,30915,2,0,P|223:74|258:55,1,80,8|0,0:0|0:0,0:0:0:0:
352,75,31402,6,0,P|377:107|384:146,1,80,2|0,0:0|0:0,0:0:0:0:
339,230,31890,1,8,0:0:0:0:
242,228,32134,1,0,0:0:0:0:
207,138,32378,2,0,B|189:59,2,80,2|0|8,0:0|0:0|0:0,0:0:0:0:
195,233,33110,1,0,0:0:0:0:
117,289,33354,5,2,0:0:0:0:
174,105,33841,2,0,P|200:76|240:64,1,80,8|0,0:0|0:0,0:0:0:0:
320,114,34329,2,0,P|294:143|254:155,1,80,2|0,0:0|0:0,0:0:0:0:
231,248,34817,2,0,P|195:231|170:200,1,80,8|0,0:0|0:0,0:0:0:0:
89,150,35305,1,2,0:0:0:0:
241,32,35793,5,8,0:0:0:0:
316,91,36037,1,0,0:0:0:0:
246,158,36280,2,0,P|212:177|172:181,1,80,2|0,0:0|0:0,0:0:0:0:
83,146,36768,1,8,0:0:0:0:
99,289,37256,6,0,P|126:303|155:309,1,60.0000022888184,4|0,0:0|0:0,0:0:0:0:
232,341,37744,1,8,0:0:0:0:
294,284,37988,2,0,L|282:222,2,60.0000022888184,0|2|0,0:0|0:0|0:0,0:0:0:0:
334,358,38719,2,0,P|358:339|372:313,1,60.0000022888184,8|0,0:0|0:0,0:0:0:0:
399,221,39207,5,6,0:0:0:0:
471,158,39451,1,0,0:0:0:0:
486,253,39695,1,8,0:0:0:0:
419,321,39939,2,0,P|379:322|342:306,1,80,0|2,0:0|0:0,0:0:0:0:
165,232,40671,2,0,P|204:230|241:246,1,80,8|0,0:0|0:0,0:0:0:0:
282,333,41158,5,2,0:0:0:0:
187,327,41402,1,0,0:0:0:0:
146,328,41524,1,0,0:0:0:0:
108,312,41646,2,0,P|69:266|64:227,1,80,8|2,0:0|0:0,0:0:0:0:
57,152,42134,1,0,0:0:0:0:
130,90,42378,2,0,L|108:5,2,80,0|8|0,0:0|0:0|0:0,0:0:0:0:
172,176,43110,5,6,0:0:0:0:
265,198,43354,2,0,P|303:196|338:178,1,80,0|8,0:0|0:0,0:0:0:0:
281,102,43841,1,0,0:0:0:0:
339,178,44085,2,0,P|375:109|349:35,1,160,2|8,0:0|0:0,0:0:0:0:
281,102,44817,1,0,0:0:0:0:
340,177,45061,5,2,0:0:0:0:
302,264,45305,1,0,0:0:0:0:
209,291,45549,2,0,P|170:288|138:265,1,80,8|0,0:0|0:0,0:0:0:0:
208,199,46037,1,2,0:0:0:0:
114,178,46280,1,0,0:0:0:0:
114,178,46524,2,0,L|48:128,1,80,8|0,0:0|0:0,0:0:0:0:
8,43,47012,5,6,0:0:0:0:
100,70,47256,2,0,P|81:105|50:129,1,80,0|8,0:0|0:0,0:0:0:0:
41,226,47744,1,0,0:0:0:0:
41,226,47988,2,0,P|54:302|123:346,1,160,2|8,0:0|0:0,0:0:0:0:
209,310,48719,1,0,0:0:0:0:
134,249,48963,6,0,P|164:224|202:214,1,80,2|0,0:0|0:0,0:0:0:0:
299,217,49451,2,0,P|337:206|367:181,1,80,8|0,0:0|0:0,0:0:0:0:
371,84,49939,2,0,P|332:91|299:113,1,80,2|0,0:0|0:0,0:0:0:0:
217,164,50427,1,8,0:0:0:0:
217,164,50671,2,0,P|145:192|74:160,1,160
147,98,51402,5,8,0:0:0:0:
217,179,51646,2,0,P|145:206|74:174,1,160
147,98,52378,5,8,0:0:0:0:
217,194,52622,2,0,P|184:215|145:222,1,80,0|2,0:0|0:0,0:0:0:0:
147,98,53110,5,0,0:0:0:0:
144,222,53354,2,0,L|136:304,1,80,8|0,0:0|0:0,0:0:0:0:
233,312,53841,2,0,L|251:142,1,160,2|8,0:0|0:0,0:0:0:0:
261,57,54573,1,0,0:0:0:0:
331,122,54817,6,0,P|259:153|189:120,1,160,6|8,0:0|0:0,0:0:0:0:
261,57,55549,1,0,0:0:0:0:
352,28,55793,2,0,P|388:43|415:72,1,80,2|0,0:0|0:0,0:0:0:0:
394,167,56280,2,0,P|357:152|331:123,1,80,8|0,0:0|0:0,0:0:0:0:
485,138,56768,6,0,P|489:177|476:215,1,80,2|0,0:0|0:0,0:0:0:0:
446,252,57134,1,0,0:0:0:0:
400,269,57256,2,0,P|361:265|322:275,1,80,8|0,0:0|0:0,0:0:0:0:
228,300,57744,2,0,P|165:256|163:179,1,160,2|8,0:0|0:0,0:0:0:0:
256,208,58476,1,0,0:0:0:0:
164,178,58719,6,0,P|213:119|290:118,1,160,2|8,0:0|0:0,0:0:0:0:
341,202,59451,1,0,0:0:0:0:
304,291,59695,2,0,P|266:302|226:299,1,80,2|0,0:0|0:0,0:0:0:0:
179,216,60183,2,0,P|216:202|255:207,1,80,8|0,0:0|0:0,0:0:0:0:
100,251,60671,6,0,P|101:175|164:131,1,160,2|8,0:0|0:0,0:0:0:0:
258,111,61402,1,0,0:0:0:0:
165,131,61646,1,2,0:0:0:0:
145,37,61890,1,0,0:0:0:0:
240,23,62134,2,0,P|279:23|315:41,1,80,8|0,0:0|0:0,0:0:0:0:
350,131,62622,6,0,P|374:161|411:177,1,80,6|0,0:0|0:0,0:0:0:0:
433,84,63110,1,8,0:0:0:0:
433,84,63373,2,0,P|469:98|495:128,2,80,0|2|0,0:0|0:0|0:0,0:0:0:0:
350,131,64105,2,0,P|315:148|276:148,1,80,8|0,0:0|0:0,0:0:0:0:
294,54,64593,5,2,0:0:0:0:
294,54,65080,2,0,L|205:79,1,80,8|0,0:0|0:0,0:0:0:0:
135,125,65568,1,2,0:0:0:0:
175,212,65812,2,0,P|189:248|219:274,1,80,0|8,0:0|0:0,0:0:0:0:
316,275,66300,1,0,0:0:0:0:
258,198,66544,5,2,0:0:0:0:
411,313,67032,2,0,P|390:345|356:367,1,80,8|0,0:0|0:0,0:0:0:0:
260,355,67519,2,0,P|225:335|174:336,1,80,2|0,0:0|0:0,0:0:0:0:
116,267,68007,1,8,0:0:0:0:
185,200,68251,1,0,0:0:0:0:
185,200,68495,6,0,P|191:161|214:129,1,80,2|0,0:0|0:0,0:0:0:0:
308,105,68983,2,0,P|331:72|336:33,1,80,8|0,0:0|0:0,0:0:0:0:
240,42,69471,1,2,0:0:0:0:
308,105,69714,1,0,0:0:0:0:
403,99,69958,1,8,0:0:0:0:
403,99,70202,1,0,0:0:0:0:
495,72,70436,6,0,L|502:167,1,80,6|0,0:0|0:0,0:0:0:0:
421,207,70923,2,0,L|452:286,2,80,8|0|2,0:0|0:0|0:0,0:0:0:0:
340,155,71655,1,0,0:0:0:0:
335,251,71899,2,0,P|300:269|261:268,1,80,8|0,0:0|0:0,0:0:0:0:
188,205,72387,5,2,0:0:0:0:
188,205,72875,2,0,P|205:169|201:130,1,80,8|0,0:0|0:0,0:0:0:0:
107,154,73362,1,2,0:0:0:0:
63,239,73606,2,0,P|75:276|106:300,1,80,0|8,0:0|0:0,0:0:0:0:
203,300,74094,1,0,0:0:0:0:
277,239,74338,6,0,L|344:175,1,80,2|0,0:0|0:0,0:0:0:0:
297,95,74826,2,0,L|226:168,1,80,8|0,0:0|0:0,0:0:0:0:
186,231,75314,2,0,P|141:240|105:228,1,80,2|0,0:0|0:0,0:0:0:0:
66,144,75801,2,0,P|103:132|142:139,1,80,8|0,0:0|0:0,0:0:0:0:
110,230,76289,5,2,0:0:0:0:
66,144,76533,1,0,0:0:0:0:
107,57,76777,2,0,L|29:15,2,80,8|0|2,0:0|0:0|0:0,0:0:0:0:
200,83,77509,1,0,0:0:0:0:
284,127,77753,2,0,P|261:159|225:175,1,80,8|0,0:0|0:0,0:0:0:0:
284,35,78232,5,6,0:0:0:0:
368,80,78475,1,0,0:0:0:0:
364,175,78719,2,0,L|350:260,1,80,8|0,0:0|0:0,0:0:0:0:
428,312,79207,2,0,L|442:232,1,80,2|0,0:0|0:0,0:0:0:0:
452,137,79695,1,8,0:0:0:0:
364,175,79939,1,0,0:0:0:0:
274,139,80183,5,2,0:0:0:0:
182,168,80427,2,0,L|93:181,2,80,0|8|0,0:0|0:0|0:0,0:0:0:0:
255,229,81158,1,2,0:0:0:0:
165,263,81402,1,0,0:0:0:0:
255,229,81646,1,8,0:0:0:0:
332,288,81890,1,0,0:0:0:0:
378,203,82134,6,0,P|365:165|337:137,1,80,2|0,0:0|0:0,0:0:0:0:
241,129,82622,1,8,0:0:0:0:
171,195,82866,2,0,P|164:232|176:271,1,80,0|2,0:0|0:0,0:0:0:0:
260,225,83353,1,0,0:0:0:0:
321,299,83597,1,8,0:0:0:0:
271,381,83841,1,0,0:0:0:0:
179,353,84085,5,6,0:0:0:0:
85,376,84329,1,0,0:0:0:0:
21,303,84573,2,0,P|12:264|18:224,1,80,8|0,0:0|0:0,0:0:0:0:
108,260,85061,1,2,0:0:0:0:
108,260,85305,1,0,0:0:0:0:
92,165,85549,2,0,L|46:100,1,80,8|0,0:0|0:0,0:0:0:0:
46,100,86036,5,6,0:0:0:0:
231,41,86524,2,0,P|253:73|261:114,1,80,8|0,0:0|0:0,0:0:0:0:
357,111,87012,2,0,P|350:150|326:184,1,80,2|0,0:0|0:0,0:0:0:0:
235,209,87500,1,8,0:0:0:0:
168,141,87744,1,0,0:0:0:0:
259,112,87988,1,2,0:0:0:0:
437,187,88475,2,0,P|462:155|470:111,1,80,8|0,0:0|0:0,0:0:0:0:
386,68,88963,1,2,0:0:0:0:
317,135,89207,2,0,L|316:217,2,80,0|8|0,0:0|0:0|0:0,0:0:0:0:
314,38,89939,5,6,0:0:0:0:
241,100,90183,1,0,0:0:0:0:
149,128,90427,2,0,P|146:86|161:47,1,80,8|0,0:0|0:0,0:0:0:0:
241,100,90914,1,2,0:0:0:0:
245,196,91158,1,0,0:0:0:0:
157,158,91402,1,8,0:0:0:0:
157,158,91890,5,6,0:0:0:0:
256,192,92012,12,0,93353,0:0:0:0:
157,158,93841,5,6,0:0:0:0:
155,62,94085,1,0,0:0:0:0:
59,69,94329,1,8,0:0:0:0:
39,163,94573,2,0,P|45:204|73:240,1,80,0|2,0:0|0:0,0:0:0:0:
262,199,95305,2,0,P|301:195|333:172,1,80,8|0,0:0|0:0,0:0:0:0:
350,78,95792,5,2,0:0:0:0:
444,85,96036,1,0,0:0:0:0:
444,85,96158,1,0,0:0:0:0:
444,85,96280,2,0,P|409:154|334:173,1,160,8|2,0:0|0:0,0:0:0:0:
245,215,97012,1,0,0:0:0:0:
151,237,97256,2,0,P|118:259|99:294,1,80,8|0,0:0|0:0,0:0:0:0:
190,324,97744,5,6,0:0:0:0:
283,302,97988,2,0,P|323:270|338:237,1,80,0|8,0:0|0:0,0:0:0:0:
245,215,98475,1,0,0:0:0:0:
283,303,98719,2,0,P|354:332|425:299,1,160,2|8,0:0|0:0,0:0:0:0:
468,213,99451,1,0,0:0:0:0:
444,306,99695,5,2,0:0:0:0:
376,238,99939,1,0,0:0:0:0:
401,145,100183,2,0,B|476:79,1,80,8|0,0:0|0:0,0:0:0:0:
381,39,100671,1,2,0:0:0:0:
288,66,100914,1,0,0:0:0:0:
288,66,101158,2,0,L|224:115,1,80,8|0,0:0|0:0,0:0:0:0:
160,186,101646,5,6,0:0:0:0:
211,267,101890,2,0,P|241:241|255:204,1,80,0|8,0:0|0:0,0:0:0:0:
225,115,102378,1,0,0:0:0:0:
225,115,102622,2,0,P|152:91|83:129,1,160,2|8,0:0|0:0,0:0:0:0:
35,212,103353,1,0,0:0:0:0:
102,279,103597,6,0,P|141:277|176:259,1,80,2|0,0:0|0:0,0:0:0:0:
192,161,104085,2,0,P|152:164|117:183,1,80,8|0,0:0|0:0,0:0:0:0:
177,259,104573,2,0,P|201:289|237:307,1,80,2|0,0:0|0:0,0:0:0:0:
334,303,105061,1,8,0:0:0:0:
334,303,105305,2,0,P|378:239|454:226,1,160
428,319,106036,5,8,0:0:0:0:
324,293,106280,2,0,P|368:229|444:216,1,160
428,319,107012,5,8,0:0:0:0:
312,281,107256,2,0,P|326:245|356:218,1,80,0|2,0:0|0:0,0:0:0:0:
428,319,107744,5,0,0:0:0:0:
450,197,107988,2,0,P|433:160|403:134,1,80,8|0,0:0|0:0,0:0:0:0:
318,90,108475,2,0,P|379:42|457:53,1,160,2|8,0:0|0:0,0:0:0:0:
404,134,109207,1,0,0:0:0:0:
318,90,109451,6,0,P|242:102|181:53,1,160,6|8,0:0|0:0,0:0:0:0:
85,48,110183,1,0,0:0:0:0:
181,54,110427,2,0,P|179:92|161:128,1,80,2|0,0:0|0:0,0:0:0:0:
65,144,110914,2,0,P|66:104|84:69,1,80,8|0,0:0|0:0,0:0:0:0:
123,219,111402,5,6,0:0:0:0:
27,231,111646,1,0,0:0:0:0:
32,182,111768,1,0,0:0:0:0:
65,144,111890,2,0,P|103:127|144:129,1,80,8|0,0:0|0:0,0:0:0:0:
215,188,112378,2,0,L|264:340,1,160,2|8,0:0|0:0,0:0:0:0:
360,346,113110,1,0,0:0:0:0:
344,251,113353,6,0,L|290:88,1,160,2|8,0:0|0:0,0:0:0:0:
373,44,114085,1,0,0:0:0:0:
462,77,114329,2,0,P|441:110|408:132,1,80,2|0,0:0|0:0,0:0:0:0:
317,95,114817,2,0,P|337:61|373:44,1,80,8|0,0:0|0:0,0:0:0:0:
337,193,115305,6,0,P|298:195|261:180,1,80,2|0,0:0|0:0,0:0:0:0:
236,153,115671,1,0,0:0:0:0:
224,118,115792,1,8,0:0:0:0:
160,46,116036,1,0,0:0:0:0:
66,66,116280,1,2,0:0:0:0:
32,156,116524,1,0,0:0:0:0:
87,234,116768,2,0,P|133:245|178:236,1,80,8|0,0:0|0:0,0:0:0:0:
135,148,117256,6,0,L|124:307,1,160,6|8,0:0|0:0,0:0:0:0:
213,344,117988,1,0,0:0:0:0:
181,253,118231,2,0,P|147:274|124:307,1,80,2|0,0:0|0:0,0:0:0:0:
213,343,118719,2,0,P|246:323|269:290,1,80,8|0,0:0|0:0,0:0:0:0:
259,194,119207,5,6,0:0:0:0:
269,290,119451,1,0,0:0:0:0:
302,304,119573,1,0,0:0:0:0:
338,301,119695,1,8,0:0:0:0:
430,274,119939,1,0,0:0:0:0:
449,180,120183,2,0,P|442:103|380:57,1,160,2|8,0:0|0:0,0:0:0:0:
287,27,120914,6,0,P|295:104|357:151,1,160,2|0,0:0|0:0,0:0:0:0:
357,151,121646,1,8,0:0:0:0:
357,151,121890,1,0,0:0:0:0:
374,245,122134,2,0,P|337:271|294:272,1,80,2|0,0:0|0:0,0:0:0:0:
207,266,122622,1,8,0:0:0:0:
162,350,122866,1,0,0:0:0:0:
258,349,123110,1,6,0:0:0:0:
258,349,123597,6,0,P|285:322|301:285,1,80,8|0,0:0|0:0,0:0:0:0:
333,192,124085,2,0,L|415:179,2,80,2|0|8,0:0|0:0|0:0,0:0:0:0:
237,175,124817,1,0,0:0:0:0:
209,82,125061,1,6,0:0:0:0:
256,192,138719,12,8,140183,0:0:0:0:
209,82,140671,6,0,P|236:94|254:118,1,60.0000022888184,6|0,0:0|0:0,0:0:0:0:
255,202,141158,1,8,0:0:0:0:
176,171,141402,1,0,0:0:0:0:
94,193,141646,1,2,0:0:0:0:
69,273,141890,1,0,0:0:0:0:
138,321,142134,2,0,L|149:383,1,60.0000022888184,8|0,0:0|0:0,0:0:0:0:
215,328,142622,6,0,L|204:266,2,60.0000022888184,6|0|8,0:0|0:0|0:0,0:0:0:0:
292,360,143353,1,0,0:0:0:0:
375,348,143597,1,2,0:0:0:0:
435,289,143841,1,0,0:0:0:0:
351,294,144085,2,0,P|357:323|375:348,1,60.0000022888184,8|0,0:0|0:0,0:0:0:0:
435,288,144573,6,0,P|413:234|359:210,1,120.000004577637,6|8,0:0|0:0,0:0:0:0:
276,224,145305,1,0,0:0:0:0:
228,154,145549,2,0,P|212:121|212:92,1,60.0000022888184,2|0,0:0|0:0,0:0:0:0:
269,36,146036,2,0,P|304:37|332:56,1,60.0000022888184,8|0,0:0|0:0,0:0:0:0:
371,120,146524,1,6,0:0:0:0:
371,120,147012,6,0,P|374:149|369:178,1,60.0000022888184,8|0,0:0|0:0,0:0:0:0:
291,147,147500,2,0,P|266:181|227:193,1,69.6000005841065,2|0,0:0|0:0,0:0:0:0:
202,102,147988,2,0,P|167:119|127:115,1,80,8|0,0:0|0:0,0:0:0:0:
152,24,148475,5,6,0:0:0:0:
106,108,148719,1,0,0:0:0:0:
128,202,148963,1,8,0:0:0:0:
210,253,149207,2,0,P|245:270|270:302,1,80,0|2,0:0|0:0,0:0:0:0:
80,267,149939,2,0,P|54:237|45:197,1,80,8|0,0:0|0:0,0:0:0:0:
142,185,150427,5,2,0:0:0:0:
210,252,150671,1,0,0:0:0:0:
210,252,150792,1,0,0:0:0:0:
210,252,150914,2,0,P|287:252|342:308,1,160,8|2,0:0|0:0,0:0:0:0:
253,342,151646,1,0,0:0:0:0:
342,308,151890,2,0,P|380:319|418:310,1,80,8|0,0:0|0:0,0:0:0:0:
386,218,152378,5,6,0:0:0:0:
473,256,152622,2,0,P|452:289|419:311,1,80,0|8,0:0|0:0,0:0:0:0:
386,218,153110,1,0,0:0:0:0:
299,174,153353,2,0,P|222:162|161:211,1,160,2|8,0:0|0:0,0:0:0:0:
168,308,154085,1,0,0:0:0:0:
247,255,154329,5,2,0:0:0:0:
168,308,154573,1,0,0:0:0:0:
90,252,154817,2,0,P|72:217|70:178,1,80,8|0,0:0|0:0,0:0:0:0:
165,192,155305,1,2,0:0:0:0:
257,219,155549,1,0,0:0:0:0:
257,219,155792,2,0,L|333:177,1,80,8|0,0:0|0:0,0:0:0:0:
334,84,156280,5,6,0:0:0:0:
244,49,156524,2,0,P|236:87|246:126,2,80,0|8|0,0:0|0:0|0:0,0:0:0:0:
334,84,157256,2,0,P|334:161|277:214,1,160,2|8,0:0|0:0,0:0:0:0:
183,236,157988,1,0,0:0:0:0:
231,153,158231,6,0,P|261:178|277:215,1,80,2|0,0:0|0:0,0:0:0:0:
248,306,158719,2,0,P|213:326|174:331,1,80,8|0,0:0|0:0,0:0:0:0:
92,280,159207,2,0,P|53:287|20:309,1,80,2|0,0:0|0:0,0:0:0:0:
87,376,159695,1,8,0:0:0:0:
91,279,159939,2,0,P|62:207|94:136,1,160
157,209,160671,5,8,0:0:0:0:
94,135,160914,2,0,P|169:115|236:155,1,160
157,209,161646,5,8,0:0:0:0:
236,156,161890,2,0,P|251:192|250:232,1,80,0|2,0:0|0:0,0:0:0:0:
157,209,162378,5,0,0:0:0:0:
180,302,162622,2,0,P|216:327|263:327,1,80,8|0,0:0|0:0,0:0:0:0:
332,279,163110,2,0,P|333:201|278:146,1,160,2|8,0:0|0:0,0:0:0:0:
184,166,163841,1,0,0:0:0:0:
243,241,164085,6,0,L|302:78,1,160,6|8,0:0|0:0,0:0:0:0:
206,43,164817,1,0,0:0:0:0:
129,100,165061,2,0,L|200:151,1,80,2|0,0:0|0:0,0:0:0:0:
175,241,165549,2,0,L|106:191,1,80,8|0,0:0|0:0,0:0:0:0:
31,249,166036,2,0,L|102:300,1,80,2|0,0:0|0:0,0:0:0:0:
95,295,166402,1,0,0:0:0:0:
95,295,166524,6,0,P|132:283|172:288,1,80,8|0,0:0|0:0,0:0:0:0:
217,374,167012,1,2,0:0:0:0:
217,374,167256,2,0,P|254:386|294:382,1,80,0|8,0:0|0:0,0:0:0:0:
265,292,167744,1,0,0:0:0:0:
327,218,167988,6,0,P|363:206|402:218,1,80,2|0,0:0|0:0,0:0:0:0:
447,232,168353,1,0,0:0:0:0:
486,204,168475,2,0,L|477:124,1,80,8|0,0:0|0:0,0:0:0:0:
484,28,168963,1,2,0:0:0:0:
398,71,169207,1,0,0:0:0:0:
328,136,169451,2,0,P|288:135|252:110,1,80,8|0,0:0|0:0,0:0:0:0:
318,41,169939,5,2,0:0:0:0:
222,37,170183,2,0,P|187:68|176:100,1,80,0|8,0:0|0:0,0:0:0:0:
109,168,170671,1,0,0:0:0:0:
206,169,170914,2,0,P|199:130|176:99,1,80,2|0,0:0|0:0,0:0:0:0:
79,93,171402,1,8,0:0:0:0:
23,171,171646,1,0,0:0:0:0:
23,171,171890,6,0,P|34:209|60:238,1,80,6|0,0:0|0:0,0:0:0:0:
156,247,172378,2,0,P|182:276|193:314,1,80,8|0,0:0|0:0,0:0:0:0:
120,378,172866,2,0,P|83:365|56:336,1,80,2|0,0:0|0:0,0:0:0:0:
61,239,173353,1,8,0:0:0:0:
156,247,173597,1,0,0:0:0:0:
119,158,173841,5,6,0:0:0:0:
180,84,174085,1,0,0:0:0:0:
225,67,174207,1,0,0:0:0:0:
270,84,174329,2,0,L|339:44,1,80,8|0,0:0|0:0,0:0:0:0:
436,49,174817,2,0,P|461:80|469:119,1,80,2|0,0:0|0:0,0:0:0:0:
425,204,175305,1,8,0:0:0:0:
341,250,175549,2,0,P|333:173|385:115,1,160,0|2,0:0|0:0,0:0:0:0:
425,204,176280,5,8,0:0:0:0:
329,247,176524,2,0,P|320:169|372:111,1,160,0|2,0:0|0:0,0:0:0:0:
425,204,177256,5,8,0:0:0:0:
318,257,177500,2,0,P|305:220|308:180,1,80,0|6,0:0|0:0,0:0:0:0:
425,204,177988,5,0,0:0:0:0:
382,321,178231,2,0,P|351:344|311:349,1,80,8|0,0:0|0:0,0:0:0:0:
223,311,178719,2,0,P|196:237|128:198,1,160,2|8,0:0|0:0,0:0:0:0:
34,177,179451,1,0,0:0:0:0:
98,105,179695,6,0,L|142:38,1,80,6|0,0:0|0:0,0:0:0:0:
229,79,180183,2,0,L|310:41,1,80,8|0,0:0|0:0,0:0:0:0:
344,131,180671,1,2,0:0:0:0:
354,229,180914,1,0,0:0:0:0:
354,229,181158,2,0,P|315:227|280:208,1,80,8|0,0:0|0:0,0:0:0:0:
344,131,181646,5,6,0:0:0:0:
438,111,181890,1,0,0:0:0:0:
473,121,182012,1,0,0:0:0:0:
495,151,182134,2,0,P|506:189|497:227,1,80,8|0,0:0|0:0,0:0:0:0:
418,281,182622,2,0,P|378:280|341:299,1,80,2|0,0:0|0:0,0:0:0:0:
268,358,183110,2,0,P|232:376|193:374,1,80,8|0,0:0|0:0,0:0:0:0:
117,314,183597,6,0,P|94:280|58:262,1,80,2|0,0:0|0:0,0:0:0:0:
31,354,184085,1,8,0:0:0:0:
117,314,184329,1,0,0:0:0:0:
205,279,184573,2,0,P|202:240|216:203,1,80,2|0,0:0|0:0,0:0:0:0:
308,176,185061,2,0,P|311:215|297:252,1,80,8|0,0:0|0:0,0:0:0:0:
216,203,185549,2,0,L|177:124,1,80,2|0,0:0|0:0,0:0:0:0:
138,107,185914,1,0,0:0:0:0:
88,108,186036,6,0,P|60:135|52:173,1,80,8|0,0:0|0:0,0:0:0:0:
96,260,186524,1,2,0:0:0:0:
189,285,186768,1,0,0:0:0:0:
281,256,187012,1,8,0:0:0:0:
308,164,187256,1,0,0:0:0:0:
308,164,187500,6,0,P|347:162|382:142,1,80,6|0,0:0|0:0,0:0:0:0:
320,67,187988,1,8,0:0:0:0:
402,115,188231,1,0,0:0:0:0:
395,210,188475,1,2,0:0:0:0:
340,289,188719,2,0,P|320:338|325:369,1,80,0|8,0:0|0:0,0:0:0:0:
417,344,189207,1,0,0:0:0:0:
473,266,189451,5,6,0:0:0:0:
395,210,189695,1,2,0:0:0:0:
349,193,189817,1,0,0:0:0:0:
301,201,189939,2,0,L|227:233,1,80,8|0,0:0|0:0,0:0:0:0:
153,171,190427,2,0,L|226:138,1,80,2|0,0:0|0:0,0:0:0:0:
135,262,190914,2,0,P|97:249|72:218,1,80,8|0,0:0|0:0,0:0:0:0:
71,122,191402,6,2,P|108:86|214:97,1,160,2|8,0:0|0:0,0:0:0:0:
153,171,192134,1,0,0:0:0:0:
248,185,192378,2,0,P|281:164|301:130,1,80,2|0,0:0|0:0,0:0:0:0:
319,34,192866,1,8,0:0:0:0:
319,130,193110,1,0,0:0:0:0:
402,82,193353,1,6,0:0:0:0:
402,82,193841,6,0,P|415:119|410:158,1,80,8|0,0:0|0:0,0:0:0:0:
365,228,194329,2,0,P|331:238|308:264,1,69.6000005841065,2|0,0:0|0:0,0:0:0:0:
375,303,194817,2,0,P|403:296|426:277,1,60.0000022888184,8|0,0:0|0:0,0:0:0:0:
365,228,195305,1,6,0:0:0:0:
208,228,195810,6,0,P|130:220|103:187,1,120.000004577637,8|2,0:0|0:0,0:0:0:0:
80,117,196541,1,0,0:0:0:0:
122,51,196785,1,8,0:0:0:0:
195,25,197029,1,0,0:0:0:0:
269,48,197273,6,0,P|260:77|264:107,1,60.0000022888184,2|0,0:0|0:0,0:0:0:0:
310,169,197760,2,0,P|313:198|305:227,1,60.0000022888184,8|0,0:0|0:0,0:0:0:0:
234,191,198248,1,2,0:0:0:0:
310,169,198492,2,0,L|379:148,1,60.0000022888184,0|8,0:0|0:0,0:0:0:0:
397,223,198980,1,0,0:0:0:0:
339,275,199224,6,0,L|270:296,1,60.0000022888184,2|0,0:0|0:0,0:0:0:0:
254,365,199712,2,0,P|225:346|207:317,1,60.0000022888184,8|0,0:0|0:0,0:0:0:0:
182,252,200199,2,0,P|169:223|142:204,1,60.0000022888184,2|0,0:0|0:0,0:0:0:0:
75,238,200687,1,8,0:0:0:0:
44,165,200931,1,0,0:0:0:0:
256,192,201175,12,2,203126,0:0:0:0:
