osu file format v13

[General]
AudioFilename: giveyourheartabreak.mp3
AudioLeadIn: 2000
PreviewTime: 37256
Countdown: 0
SampleSet: Soft
StackLeniency: 0.7
Mode: 0
LetterboxInBreaks: 0
WidescreenStoryboard: 0

[Editor]
DistanceSpacing: 1
BeatDivisor: 2
GridSize: 4
TimelineZoom: 1

[Metadata]
Title:Give Your Heart A Break
TitleUnicode:Give Your Heart A Break
Artist:Demi Lovato
ArtistUnicode:Demi Lovato
Creator:Squirrel
Version:Easy
Source:
Tags:unbroken josh alexander billy steinberg dancepop now that's what i call music! 43
BeatmapID:480978
BeatmapSetID:187949

[Difficulty]
HPDrainRate:2
CircleSize:3
OverallDifficulty:2
ApproachRate:3
SliderMultiplier:0.9
SliderTickRate:1

[Events]
//Background and Video events
0,0,"background.jpg",0,0
Video,0,"Give Your Heart a Break.avi"
//Break Periods
2,62822,68996
2,125261,137279
//Storyboard Layer 0 (Background)
//Storyboard Layer 1 (Fail)
//Storyboard Layer 2 (Pass)
//Storyboard Layer 3 (Foreground)
//Storyboard Sound Samples
//Background Colour Transformations
3,100,0,0,0

[TimingPoints]
213,487.80487804878,4,2,1,30,1,0
23598,487.80487804878,4,2,0,50,1,0
39207,-100,4,2,3,70,0,1
62622,-100,4,2,0,50,0,0
63130,487.80487804878,4,2,1,50,1,0
64593,487.80487804878,4,2,1,50,1,0
70436,487.80487804878,4,2,1,50,1,0
78232,487.80487804878,4,2,0,50,1,0
93841,-100,4,2,3,70,0,1
125061,-100,4,2,0,50,0,0
138719,-100,4,2,1,50,0,0
140671,-100,4,2,0,50,0,0
148475,-100,4,2,3,70,0,1
164085,-100,4,2,3,70,0,0
179695,-100,4,2,3,70,0,1
195305,-100,4,2,0,40,0,0
195810,487.80487804878,4,2,0,40,1,0
197273,487.80487804878,4,2,0,40,1,0
201175,-100,4,2,0,30,0,0
201663,-100,4,2,0,20,0,0
202151,-100,4,2,0,10,0,0
202638,-100,4,2,0,5,0,0

[Colours]
Combo1 : 237,209,116
Combo2 : 125,95,87
Combo3 : 169,205,86
Combo4 : 240,81,81

[HitObjects]
206,201,213,6,0,P|260:133|233:51,1,180,2|2,0:0|0:0,0:0:0:0:
173,118,1676,1,8,0:0:0:0:
117,188,2164,2,0,P|143:270|228:289,1,180,2|2,0:0|0:0,0:0:0:0:
314,267,3627,1,8,0:0:0:0:
402,287,4115,6,0,B|417:257|447:246|476:246|476:246|484:204|465:158,1,180,2|2,0:0|0:0,0:0:0:0:
418,82,5578,1,8,0:0:0:0:
330,58,6066,2,0,P|291:79|247:82,1,90,2|8,0:0|0:0,0:0:0:0:
161,52,7042,2,0,P|107:59|75:83,1,90,2|8,0:0|0:0,0:0:0:0:
56,166,8018,5,2,0:0:0:0:
112,237,8505,2,0,L|73:328,2,90,0|2|8,0:0|0:0|0:0,0:0:0:0:
179,176,9969,2,0,P|220:161|264:169,1,90,2|8,0:0|0:0,0:0:0:0:
344,211,10944,1,0,0:0:0:0:
431,190,11432,1,8,0:0:0:0:
454,277,11920,6,0,P|427:312|386:335,1,90,2|8,0:0|0:0,0:0:0:0:
297,327,12896,2,0,P|254:314|211:326,1,90,2|8,0:0|0:0,0:0:0:0:
123,308,13871,2,0,P|65:194|139:89,1,270,2|8,0:0|0:0,0:0:0:0:
222,54,15822,6,0,P|230:97|214:139,1,90,2|8,0:0|0:0,0:0:0:0:
162,213,16798,1,2,0:0:0:0:
193,297,17286,1,8,0:0:0:0:
282,292,17774,2,0,P|304:253|305:209,1,90,2|8,0:0|0:0,0:0:0:0:
255,133,18749,1,2,0:0:0:0:
344,118,19237,1,8,0:0:0:0:
389,196,19725,6,0,L|473:164,2,90,2|8|2,0:0|0:0|0:0,0:0:0:0:
338,270,21188,1,8,0:0:0:0:
389,341,21676,2,0,P|309:304|221:315,1,180,2|2,0:0|0:0,0:0:0:0:
130,310,23139,1,8,0:0:0:0:
75,238,23598,5,6,0:0:0:0:
118,158,24085,2,0,P|158:140|202:148,1,90,8|2,0:0|0:0,0:0:0:0:
168,231,25061,1,8,0:0:0:0:
75,237,25549,2,0,P|29:163|65:86,1,180,2|2,0:0|0:0,0:0:0:0:
156,75,27012,1,8,0:0:0:0:
231,25,27500,5,2,0:0:0:0:
303,77,27988,1,8,0:0:0:0:
382,34,28476,2,0,L|456:108,1,90,2|8,0:0|0:0,0:0:0:0:
465,185,29451,1,2,0:0:0:0:
375,175,29939,2,0,P|332:186|301:219,1,90,8|0,0:0|0:0,0:0:0:0:
285,306,30915,1,8,0:0:0:0:
197,284,31402,6,0,L|113:330,1,90,2|8,0:0|0:0,0:0:0:0:
89,243,32378,2,0,L|166:198,1,90,2|8,0:0|0:0,0:0:0:0:
209,118,33354,1,2,0:0:0:0:
299,115,33841,2,0,P|320:155|321:206,1,90,8|2,0:0|0:0,0:0:0:0:
311,289,34817,1,8,0:0:0:0:
223,269,35305,6,0,P|182:288|157:325,2,90,2|0|0,0:0|0:0|0:0,0:0:0:0:
289,208,36768,1,8,0:0:0:0:
231,138,37256,1,6,0:0:0:0:
231,138,39207,5,6,0:0:0:0:
144,113,39695,1,8,0:0:0:0:
73,168,40183,2,0,P|51:206|52:252,1,90,2|8,0:0|0:0,0:0:0:0:
79,338,41158,1,2,0:0:0:0:
169,330,41646,2,0,B|234:312|234:312|276:326|276:326|342:309,1,180,8|8,0:0|0:0,0:0:0:0:
422,268,43110,5,6,0:0:0:0:
434,178,43597,2,0,P|420:137|386:108,1,90,8|2,0:0|0:0,0:0:0:0:
298,85,44573,1,8,0:0:0:0:
225,138,45061,2,0,P|203:176|204:221,2,90,2|8|2,0:0|0:0|0:0,0:0:0:0:
298,85,46524,1,8,0:0:0:0:
215,48,47012,6,0,P|172:62|144:96,1,90,6|8,0:0|0:0,0:0:0:0:
130,184,47988,1,2,0:0:0:0:
185,255,48476,1,8,0:0:0:0:
274,263,48963,1,2,0:0:0:0:
355,223,49451,2,0,P|374:174|367:127,1,90,8|2,0:0|0:0,0:0:0:0:
299,84,50427,1,8,0:0:0:0:
218,123,50915,5,6,0:0:0:0:
177,203,51402,2,0,P|192:240|236:274,1,90,8|2,0:0|0:0,0:0:0:0:
313,236,52378,1,8,0:0:0:0:
269,157,52866,2,0,P|201:102|115:117,1,180,2|2,0:0|0:0,0:0:0:0:
80,201,54329,1,8,0:0:0:0:
136,270,54817,6,0,P|164:304|174:348,1,90,6|8,0:0|0:0,0:0:0:0:
84,341,55793,1,2,0:0:0:0:
24,273,56280,1,8,0:0:0:0:
80,201,56768,2,0,P|165:183|223:246,1,180,6|2,0:0|0:0,0:0:0:0:
276,317,58232,1,8,0:0:0:0:
355,360,58719,6,0,P|397:365|440:343,1,90,6|8,0:0|0:0,0:0:0:0:
481,265,59695,1,2,0:0:0:0:
430,190,60183,1,8,0:0:0:0:
342,170,60671,2,0,L|266:109,1,90,2|8,0:0|0:0,0:0:0:0:
203,171,61646,2,0,L|278:232,1,90,2|8,0:0|0:0,0:0:0:0:
355,264,62622,5,6,0:0:0:0:
355,264,70436,5,6,0:0:0:0:
390,346,70923,2,0,P|305:338|265:261,1,180,8|8,0:0|0:0,0:0:0:0:
313,183,72387,1,2,0:0:0:0:
403,181,72875,2,0,B|490:135,2,90,8|2|8,0:0|0:0|0:0,0:0:0:0:
313,183,74338,5,2,0:0:0:0:
276,100,74826,1,8,0:0:0:0:
190,71,75314,2,0,P|152:103|113:110,1,90,2|8,0:0|0:0,0:0:0:0:
45,169,76289,1,2,0:0:0:0:
61,257,76777,2,0,P|119:319|203:300,1,180,8|8,0:0|0:0,0:0:0:0:
286,269,78232,5,6,0:0:0:0:
364,312,78719,1,8,0:0:0:0:
440,264,79207,2,0,L|428:167,1,90,2|8,0:0|0:0,0:0:0:0:
361,115,80183,1,2,0:0:0:0:
272,128,80671,1,8,0:0:0:0:
182,121,81158,2,0,L|103:77,1,90,2|8,0:0|0:0,0:0:0:0:
67,160,82134,6,0,B|123:196|123:196|136:241|136:241|199:278,1,180,2|2,0:0|0:0,0:0:0:0:
281,292,83597,1,8,0:0:0:0:
344,228,84085,2,0,P|345:183|323:145,1,90,2|8,0:0|0:0,0:0:0:0:
257,206,85061,1,2,0:0:0:0:
175,243,85549,1,8,0:0:0:0:
120,171,86036,6,0,L|143:74,1,90,2|8,0:0|0:0,0:0:0:0:
229,66,87012,1,2,0:0:0:0:
281,140,87500,1,8,0:0:0:0:
353,192,87988,2,0,P|396:200|438:185,1,90,2|8,0:0|0:0,0:0:0:0:
389,110,88963,1,2,0:0:0:0:
256,192,89207,12,0,91890,0:0:0:0:
389,110,93841,5,6,0:0:0:0:
447,178,94329,1,8,0:0:0:0:
411,260,94817,2,0,P|354:263|312:237,1,90,2|8,0:0|0:0,0:0:0:0:
279,172,95792,1,2,0:0:0:0:
195,139,96280,2,0,P|108:129|51:194,1,180,8|8,0:0|0:0,0:0:0:0:
40,284,97744,5,6,0:0:0:0:
100,351,98231,2,0,P|141:366|186:365,1,90,8|2,0:0|0:0,0:0:0:0:
242,294,99207,1,8,0:0:0:0:
329,273,99695,2,0,L|386:348,2,90,2|8|2,0:0|0:0|0:0,0:0:0:0:
269,205,101158,1,8,0:0:0:0:
264,115,101646,6,0,P|292:80|334:66,1,90,6|8,0:0|0:0,0:0:0:0:
409,115,102622,1,2,0:0:0:0:
361,191,103110,1,8,0:0:0:0:
270,205,103597,2,0,P|219:197|184:159,1,90,2|8,0:0|0:0,0:0:0:0:
125,110,104573,2,0,P|80:107|40:126,1,90,2|8,0:0|0:0,0:0:0:0:
21,214,105549,5,6,0:0:0:0:
74,286,106036,2,0,L|157:329,1,90,8|2,0:0|0:0,0:0:0:0:
238,359,107012,1,8,0:0:0:0:
328,356,107500,1,2,0:0:0:0:
397,299,107988,1,8,0:0:0:0:
414,211,108475,2,0,P|372:194|346:158,1,90,2|8,0:0|0:0,0:0:0:0:
336,69,109451,6,0,P|309:34|267:19,1,90,6|8,0:0|0:0,0:0:0:0:
184,54,110427,1,2,0:0:0:0:
141,133,110914,1,8,0:0:0:0:
177,215,111402,1,2,0:0:0:0:
257,255,111890,2,0,L|365:262,1,90,8|2,0:0|0:0,0:0:0:0:
436,260,112866,1,8,0:0:0:0:
497,194,113353,6,0,P|485:151|452:121,1,90,6|8,0:0|0:0,0:0:0:0:
368,153,114329,1,2,0:0:0:0:
340,67,114817,1,8,0:0:0:0:
257,102,115305,1,2,0:0:0:0:
189,42,115792,1,8,0:0:0:0:
99,49,116280,2,0,P|81:90|88:134,1,90,2|8,0:0|0:0,0:0:0:0:
164,182,117256,5,6,0:0:0:0:
86,226,117744,2,0,P|73:310|147:351,1,180,8|8,0:0|0:0,0:0:0:0:
225,305,119207,1,6,0:0:0:0:
294,248,119695,2,0,P|335:229|379:234,1,90,8|2,0:0|0:0,0:0:0:0:
350,319,120671,1,8,0:0:0:0:
438,302,121158,6,0,P|466:254|466:213,1,90,2|8,0:0|0:0,0:0:0:0:
405,152,122134,2,0,P|365:135|336:100,1,90,2|8,0:0|0:0,0:0:0:0:
419,64,123110,1,2,0:0:0:0:
347,10,123597,2,0,P|265:39|249:123,1,180,8|8,0:0|0:0,0:0:0:0:
337,100,125061,5,6,0:0:0:0:
337,100,138719,6,0,P|251:192|140:133,1,270,2|8,0:0|0:0,0:0:0:0:
74,73,140671,6,0,P|52:111|53:156,1,90,2|8,0:0|0:0,0:0:0:0:
95,236,141646,1,2,0:0:0:0:
184,240,142134,1,8,0:0:0:0:
242,170,142622,2,0,P|327:114|385:245,1,270,2|8,0:0|0:0,0:0:0:0:
376,321,144573,6,0,P|441:310|479:256,2,135,2|0|8,0:0|0:0|0:0,0:0:0:0:
287,309,146524,1,6,0:0:0:0:
287,309,148475,5,6,0:0:0:0:
255,224,148963,1,8,0:0:0:0:
172,186,149451,2,0,L|109:250,1,90,2|8,0:0|0:0,0:0:0:0:
30,208,150427,1,2,0:0:0:0:
56,122,150914,2,0,P|114:56|202:51,1,180,8|8,0:0|0:0,0:0:0:0:
277,99,152378,5,6,0:0:0:0:
291,187,152866,2,0,P|312:225|350:248,1,90,8|2,0:0|0:0,0:0:0:0:
427,200,153841,1,8,0:0:0:0:
506,242,154329,2,0,L|499:346,2,90,2|8|2,0:0|0:0|0:0,0:0:0:0:
504,151,155792,1,8,0:0:0:0:
424,106,156280,6,0,P|381:116|349:147,1,90,6|8,0:0|0:0,0:0:0:0:
321,233,157256,1,2,0:0:0:0:
235,260,157744,1,8,0:0:0:0:
149,230,158231,2,0,P|140:187|152:144,1,90,2|8,0:0|0:0,0:0:0:0:
241,124,159207,2,0,P|286:131|331:114,1,90,2|8,0:0|0:0,0:0:0:0:
415,133,160183,5,2,0:0:0:0:
431,221,160671,2,0,L|366:296,1,90,8|2,0:0|0:0,0:0:0:0:
288,323,161646,1,8,0:0:0:0:
200,304,162134,1,2,0:0:0:0:
169,219,162622,1,8,0:0:0:0:
224,148,163110,2,0,L|305:186,1,90,2|8,0:0|0:0,0:0:0:0:
363,255,164085,5,6,0:0:0:0:
450,231,164573,1,8,0:0:0:0:
449,141,165061,2,0,L|366:105,1,90,2|8,0:0|0:0,0:0:0:0:
299,166,166036,1,6,0:0:0:0:
308,256,166524,2,0,P|293:297|259:326,1,90,8|2,0:0|0:0,0:0:0:0:
174,297,167500,1,8,0:0:0:0:
119,368,167988,5,6,0:0:0:0:
32,342,168475,2,0,L|54:247,1,90,8|2,0:0|0:0,0:0:0:0:
116,191,169451,1,8,0:0:0:0:
64,117,169939,1,2,0:0:0:0:
107,38,170427,1,8,0:0:0:0:
196,33,170914,2,0,L|294:52,1,90,2|8,0:0|0:0,0:0:0:0:
295,139,171890,6,0,B|226:127|226:127|193:157|193:157|126:150,1,180,6|2,0:0|0:0,0:0:0:0:
46,186,173353,1,8,0:0:0:0:
19,272,173841,2,0,P|54:298|98:308,1,90,2|8,0:0|0:0,0:0:0:0:
184,281,174817,2,0,P|204:241|211:193,1,90,0|8,0:0|0:0,0:0:0:0:
134,151,175792,5,6,0:0:0:0:
180,74,176280,2,0,L|266:25,1,90,8|2,0:0|0:0,0:0:0:0:
346,13,177256,1,8,0:0:0:0:
405,80,177744,2,0,P|432:114|438:158,1,90,2|8,0:0|0:0,0:0:0:0:
427,248,178719,1,2,0:0:0:0:
342,279,179207,1,8,0:0:0:0:
253,262,179695,6,0,L|155:283,1,90,6|8,0:0|0:0,0:0:0:0:
120,202,180671,2,0,L|210:181,1,90,2|8,0:0|0:0,0:0:0:0:
291,149,181646,1,2,0:0:0:0:
303,59,182134,2,0,P|270:29|222:23,1,90,8|2,0:0|0:0,0:0:0:0:
138,42,183110,1,8,0:0:0:0:
67,97,183597,6,0,L|46:191,1,90,2|8,0:0|0:0,0:0:0:0:
130,220,184573,2,0,L|150:125,1,90,2|8,0:0|0:0,0:0:0:0:
197,56,185549,1,6,0:0:0:0:
284,34,186036,2,0,P|301:118|241:181,1,180,8|8,0:0|0:0,0:0:0:0:
162,139,187500,5,6,0:0:0:0:
74,116,187988,2,0,L|11:186,1,90,8|2,0:0|0:0,0:0:0:0:
7,272,188963,1,8,0:0:0:0:
74,331,189451,1,6,0:0:0:0:
144,276,189939,2,0,P|195:205|282:204,1,180,8|8,0:0|0:0,0:0:0:0:
354,259,191402,5,6,0:0:0:0:
438,289,191890,2,0,L|493:214,2,90,8|2|8,0:0|0:0|0:0,0:0:0:0:
370,348,193353,1,6,0:0:0:0:
280,332,193841,2,0,P|234:319|195:327,2,90,8|2|8,0:0|0:0|0:0,0:0:0:0:
370,348,195305,5,6,0:0:0:0:
434,284,195810,2,0,P|442:196|391:124,1,180,8|8,0:0|0:0,0:0:0:0:
309,88,197273,2,0,L|327:0,2,90,2|8|2,0:0|0:0|0:0,0:0:0:0:
297,177,198736,1,8,0:0:0:0:
273,263,199224,5,2,0:0:0:0:
187,290,199712,2,0,P|147:270|122:233,1,90,8|2,0:0|0:0,0:0:0:0:
206,201,200687,1,8,0:0:0:0:
256,192,201175,12,2,203126,0:0:0:0:
