osu file format v14

[General]
AudioFilename: Bloom Nobly, Cherry Blossoms of Sumizome ~ Border of Life.mp3
AudioLeadIn: 1500
PreviewTime: 88281
Countdown: 0
SampleSet: Normal
StackLeniency: 0.5
Mode: 0
LetterboxInBreaks: 0
WidescreenStoryboard: 1

[Editor]
Bookmarks: 525,22467,44410,66353,88296,110239,132182,137667,154125,176067,198010,219953,241896,252867,274639,296753,318696,340639,351267
DistanceSpacing: 0.9
BeatDivisor: 4
GridSize: 4
TimelineZoom: 2.1

[Metadata]
Title:Yuuga ni Sakase, Sumizome no Sakura ~ Border of Life
TitleUnicode:優雅に咲かせ、墨染の桜 ~ Border of Life
Artist:Demetori
ArtistUnicode:Demetori
Creator:jonathanlfj
Version:Extra Stage Collab
Source:東方Project
Tags:captin1 Giralda Nyquill RLC Touhou ZUN 如臨深遠 ~雨縒煙柳~東方妖々夢 ~ Perfect Cherry Blossom 西行寺 幽々子 Yuyuko Saigyouji collaboration c71 Tokunan 徳南 Kyuuhouji 九宝時 Sinen ni Nozomu ga Gotoshi Bloom Nobly
BeatmapID:660698
BeatmapSetID:293766

[Difficulty]
HPDrainRate:5.5
CircleSize:4
OverallDifficulty:8
ApproachRate:9
SliderMultiplier:1.8
SliderTickRate:1

[Events]
//Background and Video events
0,0,"41230366.jpg",0,0
//Break Periods
2,132367,137052
2,242081,250538
//Storyboard Layer 0 (Background)
//Storyboard Layer 1 (Fail)
//Storyboard Layer 2 (Pass)
//Storyboard Layer 3 (Foreground)
Sprite,Foreground,Centre,"lfj.png",120,50 S,0,510,,0.68 F,0,510,852,0,1 F,0,852,22110,1 F,0,22110,22452,1,0 F,0,110224,110567,0,1 F,0,110567,132167,1 F,0,132167,132510,1,0 F,0,296738,297081,0,1 F,0,297081,318338,1 F,0,318338,318681,1,0
Sprite,Foreground,Centre,"rlc.png",120,50 S,0,510,,0.68 F,0,44395,44738,0,1 F,0,44738,65995,1 F,0,65995,66338,1,0 F,0,66338,197995,0 F,0,197995,198338,0,1 F,0,198338,219595,1 F,0,219595,219938,1,0 F,0,318681,319024,0,1 F,0,319024,340624,1 F,0,340624,340967,1,0
Sprite,Foreground,Centre,"captin.png",120,50 S,0,510,,0.68 F,0,22452,22795,0,1 F,0,22795,44052,1 F,0,44052,44395,1,0 F,0,154110,154452,0,1 F,0,154452,175710,1 F,0,175710,176052,1,0 F,0,252852,253195,0,1 F,0,253195,274281,1 F,0,274281,274624,1,0
Sprite,Foreground,Centre,"nyquill.png",120,50 S,0,510,,0.68 F,0,88281,88624,0,1 F,0,88624,109881,1 F,0,109881,110224,1,0 F,0,137652,137995,0,1 F,0,137995,153767,1 F,0,153767,154110,1,0 F,0,219938,220281,0,1 F,0,220281,241881,1 F,0,241881,242224,1,0
Sprite,Foreground,Centre,"giralda.png",120,50 S,0,510,,0.68 F,0,66338,66681,0,1 F,0,66681,87938,1 F,0,87938,88281,1,0 F,0,176052,176395,0,1 F,0,176395,197652,1 F,0,197652,197995,1,0 F,0,274624,274967,0,1 F,0,274967,296395,1 F,0,296395,296738,1,0
//Storyboard Sound Samples

[TimingPoints]
510,342.857142857143,4,1,1,60,1,0
510,-90.9090909090909,4,2,1,70,0,1
22452,-100,4,2,1,60,0,0
44395,-100,4,2,1,60,0,0
45595,-100,4,1,1,60,0,0
45938,-100,4,2,1,60,0,0
48338,-100,4,1,1,60,0,0
48852,-100,4,2,1,60,0,0
49538,-100,4,1,1,60,0,0
49881,-100,4,2,1,60,0,0
51081,-100,4,1,1,60,0,0
51424,-100,4,2,1,60,0,0
53824,-100,4,1,1,60,0,0
55024,-100,4,2,0,60,0,0
55367,-100,4,2,1,60,0,0
55538,-100,4,1,1,60,0,0
55795,-100,4,2,1,60,0,0
56567,-100,4,1,1,60,0,0
57081,-100,4,2,1,60,0,0
59310,-100,4,1,1,60,0,0
59824,-100,4,2,1,60,0,0
60510,-100,4,1,1,60,0,0
61195,-100,4,2,1,60,0,0
62052,-100,4,1,1,60,0,0
62567,-100,4,2,1,60,0,0
64795,-100,4,1,1,60,0,0
65481,-100,4,2,1,60,0,0
70281,-100,4,2,1,60,0,0
70624,-100,4,2,1,70,0,0
88281,-90.9090909090909,4,1,1,60,0,1
108681,-100,4,1,1,60,0,1
110224,-125,4,2,1,50,0,0
137652,-133.333333333333,4,2,1,50,0,0
142452,-111.111111111111,4,2,1,60,0,0
143138,-133.333333333333,4,2,1,60,0,0
143481,-100,4,2,1,60,0,0
176052,-133.333333333333,4,2,1,50,0,0
187024,-100,4,2,1,60,0,0
197995,-100,4,1,1,70,0,1
198338,-100,4,2,1,70,0,1
201252,-76.9230769230769,4,1,1,70,0,1
201681,-100,4,2,1,70,0,1
201938,-100,4,1,1,70,0,1
202367,-100,4,2,1,70,0,1
203481,-66.6666666666667,4,2,1,70,0,1
203824,-100,4,2,1,70,0,1
204167,-76.9230769230769,4,1,1,70,0,1
204510,-100,4,2,1,70,0,1
205710,-100,4,1,1,70,0,1
206224,-100,4,2,1,70,0,1
207424,-100,4,1,1,70,0,1
207767,-100,4,2,1,70,0,1
210852,-100,4,1,1,70,0,1
211110,-100,4,2,1,70,0,1
211710,-83.3333333333333,4,2,1,70,0,1
212910,-100,4,2,1,70,0,1
214195,-100,4,2,0,70,0,1
214452,-100,4,2,1,70,0,1
214624,-100,4,2,1,40,0,1
214795,-100,4,2,1,70,0,1
214967,-100,4,2,1,50,0,1
215138,-100,4,2,1,70,0,1
215310,-100,4,2,1,60,0,1
215481,-100,4,2,1,70,0,1
216852,-66.6666666666667,4,2,1,70,0,1
217195,-66.6666666666667,4,2,1,70,0,1
218224,-83.3333333333333,4,2,1,70,0,1
218567,-100,4,2,1,70,0,1
219938,-100,4,1,1,60,0,0
252338,-100,4,2,1,60,0,0
252510,-100,4,2,1,5,0,0
252595,-100,4,2,1,60,0,0
252767,-100,4,2,1,5,0,0
252852,-100,4,2,1,70,0,1
274452,-100,4,2,1,70,0,0
274624,-83.3333333333333,4,2,1,75,0,1
296738,-100,4,2,1,60,0,0
318681,-100,4,2,1,60,0,0
340452,-100,4,2,0,60,0,0
343367,-100,4,2,0,50,0,0
346110,-100,4,2,0,40,0,0
348852,-100,4,2,0,30,0,0

[Colours]
Combo1 : 83,121,253
Combo2 : 255,108,244
Combo3 : 160,55,255
Combo4 : 255,45,50

[HitObjects]
144,200,510,6,0,P|232:168|344:208,1,198.000006042481,4|8,1:0|1:0,0:0:0:0:
88,288,1024,1,2,0:0:0:0:
216,144,1195,2,0,P|224:72|224:24,1,99.0000030212403
248,296,1538,1,10,1:2:0:0:
368,216,1710,6,0,B|392:168|392:168|392:96|352:32,1,198.000006042481,2|0,1:2|0:0,0:0:0:0:
184,232,2224,1,8,1:0:0:0:
376,320,2395,2,0,P|425:324|488:312,1,99.0000030212403,2|0,0:0|0:0,0:0:0:0:
304,152,2738,1,0,0:0:0:0:
160,320,2910,2,0,L|56:328,1,99.0000030212403,10|0,1:2|0:0,0:0:0:0:
192,112,3252,6,2,P|200:176|192:220,1,99.0000030212403,2|0,1:2|0:0,1:0:0:0:
24,124,3595,2,2,P|12:76|16:8,1,99.0000030212403,10|0,1:0|0:0,1:0:0:0:
272,72,3938,1,2,1:0:0:0:
112,260,4110,1,2,0:0:0:0:
120,64,4281,1,8,1:0:0:0:
320,216,4452,6,2,B|396:220|456:180|456:180|468:124,1,198.000006042481,4|0,1:2|0:0,1:0:0:0:
252,36,4967,2,0,P|240:92|248:148,1,99.0000030212403,8|0,1:0|0:0,0:0:0:0:
368,320,5310,1,0,0:0:0:0:
464,224,5481,2,2,P|480:164|480:128,1,99.0000030212403,10|0,1:2|0:0,1:0:0:0:
236,272,5824,6,0,B|172:284|172:284|112:268|112:268|40:284,1,198.000006042481,4|0,1:2|0:0,0:0:0:0:
204,156,6338,2,0,B|256:160|256:160|304:176,1,99.0000030212403,10|0,1:2|0:0,0:0:0:0:
96,172,6681,1,0,0:0:0:0:
200,52,6852,2,0,B|244:32|244:32|304:24,1,99.0000030212403,2|8,0:0|1:0,0:0:0:0:
456,176,7195,6,0,P|348:212|280:152,1,198.000006042481,2|0,1:2|0:0,0:0:0:0:
376,16,7710,2,0,P|380:72|376:120,1,99.0000030212403,10|0,1:2|0:0,0:0:0:0:
220,248,8052,1,0,0:0:0:0:
272,68,8224,1,2,0:0:0:0:
348,264,8395,1,8,1:0:0:0:
152,152,8567,6,2,P|88:152|0:264,1,198.000006042481,4|0,1:2|0:0,1:0:0:0:
220,248,9081,2,2,P|252:212|272:152,1,99.0000030212403,10|0,1:0|0:0,1:0:0:0:
240,88,9338,1,0,0:0:0:0:
240,88,9424,2,2,L|352:72,1,99.0000030212403,2|0,1:0|0:0,1:0:0:0:
468,204,9767,1,8,1:0:0:0:
372,340,9938,6,2,P|312:276|304:160,1,198.000006042481,4|0,1:2|0:0,1:0:0:0:
412,36,10452,2,0,L|404:144,1,99.0000030212403,8|0,1:0|0:0,0:0:0:0:
164,176,10795,1,8,1:2:0:0:
308,76,10967,1,8,1:2:0:0:
356,300,11138,1,8,0:3:0:0:
112,268,11310,6,0,P|68:212|104:88,1,198.000006042481,4|0,1:0|0:0,0:0:0:0:
308,320,11824,2,0,L|210:332,1,99.0000030212403,10|0,1:2|0:0,0:0:0:0:
360,216,12167,1,0,0:0:0:0:
212,164,12338,2,0,P|180:104|172:64,1,99.0000030212403,2|8,0:0|1:0,0:0:0:0:
448,136,12681,6,0,P|476:224|424:316,1,198.000006042481,2|0,1:2|0:0,0:0:0:0:
320,116,13195,2,0,P|312:56|312:8,1,99.0000030212403,10|0,1:2|0:0,0:0:0:0:
360,216,13538,1,0,0:0:0:0:
200,292,13710,2,0,P|152:296|76:284,1,99.0000030212403,2|8,0:0|1:0,0:0:0:0:
156,180,14052,1,0,0:0:0:0:
296,280,14224,6,2,L|308:392,1,99.0000030212403,2|0,1:2|0:0,1:0:0:0:
220,104,14567,2,2,L|228:0,1,99.0000030212403,10|0,1:2|0:0,1:0:0:0:
156,180,14910,1,2,1:0:0:0:
320,116,15081,1,0,0:0:0:0:
116,52,15252,1,10,1:0:0:0:
320,12,15424,6,2,P|400:56|416:164,1,198.000006042481,2|0,1:2|0:0,1:0:0:0:
240,252,15938,2,0,P|192:244|128:248,1,99.0000030212403,8|0,1:0|0:0,0:0:0:0:
328,176,16281,1,0,1:0:0:0:
184,352,16452,1,2,0:0:0:0:
224,140,16624,1,8,1:0:0:0:
424,236,16795,6,0,P|352:288|244:260,1,198.000006042481,4|0,1:2|0:0,0:0:0:0:
308,64,17310,2,0,L|412:72,1,99.0000030212403,10|0,1:2|0:0,0:0:0:0:
224,140,17652,1,0,0:0:0:0:
200,28,17824,1,2,0:0:0:0:
328,176,17995,1,8,1:0:0:0:
128,188,18167,6,0,B|60:240|64:332|64:332|80:312|88:292,1,198.000006042481,2|0,1:2|0:0,0:0:0:0:
64,112,18681,2,0,L|44:4,1,99.0000030212403,10|0,1:2|0:0,0:0:0:0:
160,176,19024,1,0,0:0:0:0:
24,232,19195,1,2,0:0:0:0:
248,264,19367,1,8,1:0:0:0:
168,80,19538,6,2,L|152:284,1,198.000006042481,4|8,1:2|0:0,1:0:0:0:
420,148,20052,2,2,L|412:48,1,99.0000030212403,10|0,1:0|0:0,1:0:0:0:
248,264,20395,1,4,1:2:0:0:
468,240,20567,1,8,0:3:0:0:
312,108,20738,1,2,0:1:0:0:
364,320,20910,5,2,1:0:0:0:
360,348,20995,1,0,1:0:0:0:
356,376,21081,1,0,1:0:0:0:
468,240,21252,1,8,0:0:0:0:
296,148,21424,2,0,L|184:156,1,99.0000030212403,4|0,1:2|0:0,0:0:0:0:
168,172,21681,1,0,0:0:0:0:
140,188,21767,2,0,L|132:256,2,66.0000020141602,8|0|0,0:3|0:0|0:0,0:0:0:0:
264,272,22110,2,8,L|256:376,1,99.0000030212403,8|8,0:3|0:3,0:3:0:0:
392,220,22452,6,0,B|425:170|425:170|419:31,2,180,4|8|2,1:0|0:0|0:0,0:0:0:0:
210,185,23310,1,0,0:0:0:0:
325,91,23481,1,8,0:0:0:0:
319,275,23652,6,0,L|312:372,1,90,2|0,0:0|0:0,0:0:0:0:
152,201,23995,1,0,0:0:0:0:
94,346,24167,1,8,0:0:0:0:
249,219,24338,1,0,0:0:0:0:
259,204,24424,1,0,0:0:0:0:
269,189,24510,2,0,L|267:80,1,90,2|0,0:0|0:0,0:0:0:0:
82,79,24852,1,8,0:0:0:0:
4,235,25024,5,0,0:0:0:0:
4,235,25110,1,0,0:0:0:0:
4,235,25195,2,0,P|79:277|155:236,2,180,2|8|2,0:0|0:0|0:0,0:0:0:0:
164,147,26052,2,0,L|272:145,1,90,0|8,0:0|0:0,0:0:0:0:
436,270,26395,6,0,P|378:263|330:248,1,90,2|0,0:0|0:0,0:0:0:0:
365,42,26738,2,0,L|370:155,1,90,2|8,0:0|0:0,0:0:0:0:
295,332,27081,1,0,0:0:0:0:
273,339,27167,1,0,0:0:0:0:
252,346,27252,2,0,L|153:336,1,90,2|0,0:0|0:0,0:0:0:0:
34,202,27595,1,8,0:0:0:0:
214,128,27767,2,0,L|217:179,1,45
256,244,27938,6,2,B|215:268|215:268|147:257|138:172,1,180,6|8,2:0|2:0,1:0:0:0:
335,146,28452,1,0,0:0:0:0:
356,320,28624,1,2,0:0:0:0:
438,170,28795,1,0,0:0:0:0:
262,219,28967,1,8,0:0:0:0:
96,149,29138,6,0,L|89:58,1,90,2|0,0:0|0:0,0:0:0:0:
102,41,29395,1,0,0:0:0:0:
115,22,29481,1,0,0:0:0:0:
237,233,29652,2,0,L|230:324,1,90,10|0,0:0|0:0,0:0:0:0:
57,218,29995,2,0,L|9:227,2,45,2|0|0,0:0|0:0|0:0,0:0:0:0:
209,125,30338,1,8,0:0:0:0:
305,320,30510,5,0,0:0:0:0:
305,320,30595,1,0,0:0:0:0:
305,320,30681,2,2,B|436:337|436:337|403:289,1,180,2|8,2:0|2:0,1:0:0:0:
269,176,31195,1,0,0:0:0:0:
123,292,31367,2,0,L|125:352,1,45,2|0,0:0|0:0,0:0:0:0:
92,197,31538,1,0,0:0:0:0:
222,280,31710,1,8,0:0:0:0:
14,254,31881,6,2,B|3:210|3:210|6:162,1,90,6|0,2:0|2:0,1:0:0:0:
210,13,32224,2,0,B|212:57|212:57|201:101,1,90,2|8,0:0|0:0,0:0:0:0:
41,67,32567,1,0,0:0:0:0:
73,53,32652,1,0,0:0:0:0:
109,48,32738,1,8,0:3:0:0:
283,223,32910,1,0,0:0:0:0:
105,166,33081,2,0,P|75:161|14:161,1,90,12|0,0:0|0:0,0:0:0:0:
293,75,33424,6,0,P|370:118|452:88,2,180,4|8|2,1:0|0:0|0:0,0:0:0:0:
378,21,34281,1,0,0:0:0:0:
416,214,34452,1,8,0:0:0:0:
217,125,34624,6,0,P|152:117|115:120,1,90,2|0,0:0|0:0,0:0:0:0:
1,276,34967,1,0,0:0:0:0:
166,283,35138,1,8,0:0:0:0:
39,180,35310,1,0,0:0:0:0:
31,163,35395,1,0,0:0:0:0:
24,146,35481,2,0,L|29:48,1,90,2|0,0:0|0:0,0:0:0:0:
243,30,35824,1,8,0:0:0:0:
256,212,35995,5,0,0:0:0:0:
249,229,36081,1,0,0:0:0:0:
241,245,36167,2,0,L|59:257,2,180,2|8|2,0:0|0:0|0:0,0:0:0:0:
373,324,37024,2,0,P|436:317|489:304,1,90,0|8,0:0|0:0,0:0:0:0:
312,147,37367,6,0,P|267:138|223:134,1,90,2|0,0:0|0:0,0:0:0:0:
251,358,37710,2,0,B|268:320|268:320|269:272,1,90,2|8,0:0|0:0,0:0:0:0:
152,82,38052,1,0,0:0:0:0:
134,113,38138,1,0,0:0:0:0:
133,149,38224,1,2,0:0:0:0:
145,182,38310,1,0,0:0:0:0:
170,207,38395,1,0,0:0:0:0:
379,199,38567,2,0,L|481:187,1,90,8|0,0:0|0:0,0:0:0:0:
206,337,38910,6,2,P|119:350|48:297,1,180,6|8,2:0|2:0,1:0:0:0:
256,231,39424,1,0,0:0:0:0:
396,313,39595,1,2,0:0:0:0:
412,320,39681,1,0,0:0:0:0:
428,326,39767,2,0,L|441:208,1,90,0|8,0:0|0:0,0:0:0:0:
317,23,40110,6,0,P|327:73|345:124,1,90,2|0,0:0|0:0,0:0:0:0:
309,349,40452,2,0,P|322:306|331:262,1,90,2|8,0:0|0:0,0:0:0:0:
232,127,40795,1,0,0:0:0:0:
48,252,40967,2,0,L|38:312,2,45,2|0|0,0:0|0:0|0:0,0:0:0:0:
222,207,41310,1,8,0:0:0:0:
135,51,41481,5,0,0:0:0:0:
135,51,41567,1,0,0:0:0:0:
135,51,41652,2,2,B|118:92|152:124|152:124|121:168|123:232,1,180,2|10,2:0|2:0,1:0:0:0:
262,352,42167,1,0,0:0:0:0:
313,168,42338,1,0,0:0:0:0:
157,330,42510,1,2,0:1:0:0:
395,341,42681,1,8,0:0:0:0:
506,123,42852,6,2,P|443:75|330:91,1,180,6|0,2:0|2:0,1:0:0:0:
295,278,43367,2,0,P|339:272|380:254,1,90,4|0,0:0|0:0,0:0:0:0:
249,120,43710,1,8,0:3:0:0:
102,174,43881,6,0,L|57:170,3,30
357,156,44224,1,8,0:0:0:0:
152,272,44395,6,0,L|136:372,1,90,4|2,2:2|2:2,2:2:0:0:
28,248,44738,1,0,1:0:0:0:
267,239,44910,2,0,B|284:282|284:282|270:339,1,90,2|0,0:0|0:0,0:0:0:0:
184,168,45252,2,0,B|167:125|167:125|181:68,1,90,2|0,0:2|1:0,0:0:0:0:
480,58,45595,6,2,P|443:136|336:149,1,180,0|2,2:0|0:1,0:0:0:0:
266,100,46110,1,2,1:0:0:0:
429,235,46281,1,0,0:0:0:0:
267,239,46452,1,2,0:0:0:0:
267,239,46538,1,2,0:0:0:0:
267,239,46624,1,2,0:0:0:0:
357,156,46795,2,0,P|364:109|369:55,1,90,0|2,1:0|0:0,0:0:0:0:
398,311,47138,6,0,B|311:286|319:352|223:332,1,180,4|0,0:2|1:0,0:0:0:0:
55,265,47652,2,0,P|39:319|46:382,1,90,2|0,0:2|0:0,0:0:0:0:
137,323,47995,1,2,0:2:0:0:
59,126,48167,1,0,1:0:0:0:
1,211,48338,6,2,P|89:220|162:151,1,180,0|2,2:2|2:1,0:0:0:0:
352,80,48852,1,2,1:0:0:0:
247,239,49024,1,2,0:2:0:0:
247,239,49110,1,2,0:2:0:0:
247,239,49195,1,0,0:0:0:0:
234,53,49367,1,2,0:1:0:0:
334,177,49538,2,2,P|337:228|345:294,1,90,0|2,0:0|2:1,0:0:0:0:
136,367,49881,6,0,P|145:277|152:188,1,180,4|0,1:0|1:0,0:0:0:0:
88,101,50395,2,0,P|28:94|-12:87,1,90,2|0,0:2|0:0,0:0:0:0:
244,139,50738,1,2,0:2:0:0:
59,202,50910,1,0,1:0:0:0:
192,62,51081,2,2,P|236:54|281:50,1,90,0|2,2:1|2:1,0:0:0:0:
88,101,51424,5,2,0:2:0:0:
200,240,51595,2,0,P|273:241|362:159,1,180,2|2,1:1|0:2,0:0:0:0:
354,177,52024,1,2,0:2:0:0:
354,177,52110,1,2,0:2:0:0:
244,139,52281,1,0,1:0:0:0:
372,285,52452,1,2,0:2:0:0:
204,324,52624,6,0,L|86:314,1,90,4|0,0:2|0:0,0:0:0:0:
294,325,52967,1,0,1:0:0:0:
29,268,53138,2,0,P|18:312|26:356,1,90,2|0,0:2|0:0,0:0:0:0:
179,205,53481,1,2,0:2:0:0:
40,98,53652,1,2,1:2:0:0:
157,111,53824,6,2,B|188:117|212:100|212:100|243:122|243:122|287:103|287:103|344:112,1,180,6|2,1:0|2:1,0:0:0:0:
340,111,54252,1,0,2:2:0:0:
357,113,54338,1,0,2:0:0:0:
158,208,54510,1,0,2:0:0:0:
328,281,54681,1,8,2:0:0:0:
140,211,54852,1,8,2:0:0:0:
250,93,55024,1,2,0:0:0:0:
251,77,55110,1,0,0:0:0:0:
252,61,55195,1,2,0:0:0:0:
253,45,55281,1,0,0:0:0:0:
254,29,55367,5,4,1:0:0:0:
353,200,55538,2,2,L|462:186,1,90,0|10,2:0|2:1,0:0:0:0:
154,113,55881,2,0,L|53:101,1,90,2|0,0:1|1:0,0:0:0:0:
233,226,56224,1,0,1:0:0:0:
370,93,56395,1,10,0:1:0:0:
455,294,56567,6,2,P|402:347|278:333,1,180,2|2,1:0|1:1,0:0:0:0:
257,146,57081,1,2,1:1:0:0:
280,336,57252,1,2,2:0:0:0:
412,218,57424,1,2,1:2:0:0:
429,215,57510,1,2,0:0:0:0:
446,212,57595,1,2,1:2:0:0:
370,93,57767,1,10,1:2:0:0:
331,267,57938,1,2,0:2:0:0:
167,221,58110,6,0,L|156:114,1,90,2|0,1:1|0:0,0:0:0:0:
124,301,58452,1,10,0:1:0:0:
287,178,58624,6,0,L|298:71,1,90,2|0,0:1|1:0,0:0:0:0:
331,267,58967,1,0,1:0:0:0:
71,215,59138,1,10,0:1:0:0:
157,131,59310,6,2,L|177:321,1,180,2|2,1:0|1:1,0:0:0:0:
383,195,59824,1,8,0:2:0:0:
265,308,59995,1,2,0:2:0:0:
369,185,60167,1,0,1:0:0:0:
376,339,60338,1,2,1:2:0:0:
271,204,60510,2,2,P|276:147|305:105,1,90,12|2,0:2|2:1,0:0:0:0:
405,38,60852,6,2,P|342:78|237:43,1,180,4|10,1:0|2:1,0:0:0:0:
131,214,61367,2,0,L|142:116,1,90,2|0,0:1|1:0,0:0:0:0:
225,185,61710,1,0,1:0:0:0:
47,157,61881,1,10,0:1:0:0:
131,311,62052,6,2,B|170:309|196:293|196:293|242:311|242:311|277:292|330:296,1,180,2|0,1:0|1:0,0:0:0:0:
512,199,62567,1,10,0:1:0:0:
316,296,62738,1,2,0:2:0:0:
368,63,62910,1,2,1:2:0:0:
387,103,62995,1,2,0:2:0:0:
379,147,63081,1,2,1:2:0:0:
292,116,63252,1,10,0:2:0:0:
454,33,63424,1,2,0:2:0:0:
429,206,63595,6,0,P|439:260|450:307,1,90,6|0,1:0|0:0,0:0:0:0:
466,126,63938,1,10,0:1:0:0:
297,265,64110,6,0,P|287:319|276:366,1,90,2|0,0:1|1:0,0:0:0:0:
245,188,64452,1,0,1:0:0:0:
383,334,64624,1,10,0:1:0:0:
201,296,64795,6,2,P|137:290|71:331,1,135,2|0,1:0|1:0,0:0:0:0:
53,342,65138,2,2,L|35:214,1,90,0|2,1:0|1:0,0:0:0:0:
135,80,65481,1,4,0:3:0:0:
165,113,65567,1,0,0:3:0:0:
177,155,65652,1,8,0:3:0:0:
165,198,65738,1,0,0:3:0:0:
131,228,65824,1,4,0:3:0:0:
81,154,65995,5,6,1:2:0:0:
201,296,66167,1,2,2:0:0:0:
292,202,66338,6,0,P|364:152|448:174,1,180,4|8,0:0|0:0,0:0:0:0:
289,323,66852,2,0,L|200:315,1,90
81,154,67195,1,2,0:0:0:0:
138,258,67367,1,8,0:0:0:0:
209,48,67538,6,0,L|120:40,1,90,2|0,0:0|0:0,0:0:0:0:
259,185,67881,1,0,0:0:0:0:
346,122,68052,2,0,B|416:115|416:115|451:83|451:83|512:76,1,180,8|0,0:0|0:0,0:0:0:0:
388,270,68567,1,0,0:0:0:0:
450,182,68738,1,10,0:0:0:0:
481,322,68910,1,0,0:0:0:0:
312,327,69081,6,0,L|223:318,1,90,2|0,0:0|0:0,0:0:0:0:
98,280,69424,1,10,0:0:0:0:
228,127,69595,1,2,0:0:0:0:
259,243,69767,1,0,0:0:0:0:
161,204,69938,1,0,0:0:0:0:
313,157,70110,1,10,0:0:0:0:
205,309,70281,6,2,P|123:338|54:287,1,180,2|0,0:1|0:1,0:1:0:0:
259,243,70795,2,0,B|348:212|348:270|436:237,1,180,8|0,0:0|0:0,0:0:0:0:
313,157,71310,2,0,P|301:115|300:70,1,90,2|8,0:0|0:0,0:0:0:0:
397,101,71652,1,2,0:0:0:0:
204,167,71824,6,0,B|145:162|145:162|100:121|100:121|40:115,1,180,4|8,0:0|0:0,0:0:0:0:
253,66,72338,1,0,0:0:0:0:
253,66,72424,1,0,0:0:0:0:
253,66,72510,1,0,0:0:0:0:
313,157,72681,1,2,0:0:0:0:
168,256,72852,2,0,L|156:346,1,90,8|2,0:0|0:0,0:0:0:0:
368,229,73195,5,0,0:0:0:0:
368,229,73367,1,0,0:0:0:0:
203,156,73538,2,0,B|109:139|107:197|29:182,1,180,8|0,0:0|0:0,0:0:0:0:
168,256,74052,1,2,0:0:0:0:
290,199,74224,2,0,P|301:157|292:113,1,90,8|2,0:0|0:0,0:0:0:0:
212,59,74567,5,0,0:0:0:0:
392,83,74738,1,2,0:0:0:0:
179,56,74910,2,0,L|161:146,1,90,8|2,0:0|0:0,0:0:0:0:
398,109,75252,2,0,L|416:199,1,90,0|2,0:0|0:0,0:0:0:0:
242,179,75595,1,10,0:0:0:0:
297,333,75767,6,2,B|343:363|400:342|400:342|436:364|469:350,1,180,6|2,0:0|0:0,0:1:0:0:
508,141,76281,1,8,0:0:0:0:
367,233,76452,1,0,0:0:0:0:
367,233,76538,1,0,0:0:0:0:
367,233,76624,1,0,0:0:0:0:
468,245,76795,1,8,0:3:0:0:
403,129,76967,1,12,0:0:0:0:
448,15,77138,1,4,0:3:0:0:
402,129,77310,6,0,P|332:180|247:160,1,180,4|8,0:0|0:0,0:0:0:0:
128,290,77824,2,0,L|140:200,1,90
127,75,78167,1,2,0:0:0:0:
247,161,78338,1,8,0:0:0:0:
127,75,78510,6,0,P|81:79|34:82,1,90,2|0,0:0|0:0,0:0:0:0:
148,181,78852,1,0,0:0:0:0:
234,60,79024,2,0,B|292:48|292:48|338:74|338:74|405:60,1,180,8|0,0:0|0:0,0:0:0:0:
315,235,79538,1,2,0:0:0:0:
192,123,79710,1,8,0:0:0:0:
162,298,79881,1,2,0:0:0:0:
314,235,80052,6,0,P|359:227|403:219,1,90,2|2,0:0|0:0,0:0:0:0:
482,167,80395,1,10,0:0:0:0:
368,24,80567,1,2,0:0:0:0:
319,111,80738,1,0,0:0:0:0:
465,64,80910,1,0,0:0:0:0:
269,27,81081,1,10,0:0:0:0:
405,126,81252,6,2,P|444:205|414:287,1,180,2|0,0:1|0:0,0:1:0:0:
230,211,81767,2,0,B|290:239|359:210|359:210|310:200,1,180,8|0,0:0|0:0,0:0:0:0:
155,165,82281,2,0,P|143:208|154:251,1,90,2|10,0:0|0:0,0:0:0:0:
240,122,82624,1,2,0:0:0:0:
63,160,82795,5,8,0:3:0:0:
50,173,83138,2,0,B|37:311|37:311|62:278,1,180,4|0,0:0|0:0,0:0:0:0:
113,73,83652,2,0,L|24:61,1,90,6|10,0:3|0:0,0:0:0:0:
211,195,83995,6,0,B|294:148|303:206|384:163,1,180,2|0,0:0|0:0,0:0:0:0:
216,308,84510,2,0,B|133:261|124:319|43:276,1,180,8|0,0:0|0:0,0:0:0:0:
158,375,85024,1,2,0:0:0:0:
325,352,85195,2,0,P|313:310|314:265,1,90,10|0,0:0|0:0,0:0:0:0:
402,162,85538,5,8,1:0:0:0:
218,141,85709,1,0,1:0:0:0:
432,180,85881,2,0,L|449:271,1,90,8|2,0:0|0:2,0:0:0:0:
196,156,86224,2,0,L|177:245,1,90,10|2,1:2|1:2,0:0:0:0:
366,46,86567,1,8,0:3:0:0:
290,130,86738,6,2,B|226:121|226:121|193:83|193:83|128:75,1,180,2|2,0:1|0:1,0:1:0:0:
36,295,87252,2,0,L|132:286,1,90,8|0,0:0|0:0,0:0:0:0:
224,280,87481,2,0,L|272:276,2,30
328,133,87767,2,0,L|415:155,1,90,12|0,0:0|0:0,0:0:0:0:
479,95,88024,2,0,L|391:73,1,90,12|0,0:0|0:0,0:0:0:0:
352,224,88281,6,0,B|284:208|284:208|248:172|248:172|128:140,1,198.000006042481,4|8,0:0|2:2,0:0:0:0:
0,324,88795,2,0,L|120:364,1,99.0000030212403,0|2,2:0|2:2,0:0:0:0:
208,260,89138,1,2,1:2:0:0:
108,176,89310,1,8,0:0:0:0:
112,320,89481,6,0,B|180:340|180:340|224:356|284:336|312:264,1,198.000006042481
488,256,89995,2,0,P|504:320|496:360,1,99.0000030212403,8|0,0:0|0:0,0:0:0:0:
372,228,90338,1,2,1:2:0:0:
392,128,90510,1,2,1:2:0:0:
492,36,90681,1,8,0:0:0:0:
480,136,90852,1,0,0:0:0:0:
388,24,91024,6,0,L|272:0,1,99.0000030212403,2|0,0:0|0:0,0:0:0:0:
172,144,91367,2,2,L|300:172,1,99.0000030212403,10|0,0:0|0:0,0:0:0:0:
0,24,91710,1,2,0:0:0:0:
20,148,91881,1,0,0:0:0:0:
116,48,92052,1,8,0:0:0:0:
16,168,92224,2,2,B|4:244|4:244|20:304|20:304|4:380,1,198.000006042481,6|2,0:0|0:0,0:0:0:0:
264,216,92738,2,0,P|348:292|304:392,1,198.000006042481,10|8,0:0|0:0,0:0:0:0:
124,204,93252,2,0,L|136:84,1,99.0000030212403,8|0,0:0|0:0,0:0:0:0:
184,248,93595,6,0,B|112:232|112:232|76:280|88:312|116:384,1,198.000006042481,4|0,0:0|0:0,0:0:0:0:
292,208,94110,2,0,P|300:268|264:328,2,99.0000030212403,10|0|0,0:0|0:0|0:0,0:0:0:0:
192,268,94624,2,0,P|176:320|208:392,1,99.0000030212403,2|8,0:0|0:0,0:0:0:0:
388,344,94967,6,0,P|444:296|440:164,1,198.000006042481
268,276,95481,2,0,L|152:296,1,99.0000030212403,10|0,0:0|0:0,0:0:0:0:
284,112,95824,2,0,L|404:96,1,99.0000030212403,0|2,0:0|0:0,0:0:0:0:
346,220,96167,1,8,0:0:0:0:
208,48,96338,6,0,P|124:32|64:120,1,198.000006042481,4|0,0:0|0:0,0:0:0:0:
248,208,96852,2,0,L|346:220,1,99.0000030212403,8|0,0:0|0:0,0:0:0:0:
346,220,97110,1,0,0:0:0:0:
346,220,97195,1,0,0:0:0:0:
500,112,97367,2,0,L|384:92,1,99.0000030212403,0|8,0:0|0:0,0:0:0:0:
216,316,97710,6,0,P|156:236|192:132,1,198.000006042481,4|0,0:0|0:0,0:0:0:0:
372,244,98224,2,0,L|467:269,1,99.0000030212403,8|4,0:0|0:2,0:0:0:0:
304,340,98567,1,0,0:0:0:0:
256,220,98738,1,0,0:0:0:0:
256,220,98824,1,0,0:0:0:0:
256,220,98910,1,8,0:0:0:0:
384,172,99081,6,0,P|464:80|440:0,1,198.000006042481,4|0,0:0|0:0,0:0:0:0:
236,108,99595,2,0,L|224:9,1,99.0000030212403,10|2,0:2|0:2,0:0:0:0:
256,220,99938,1,0,0:0:0:0:
236,108,100110,1,2,0:2:0:0:
148,180,100281,1,8,0:0:0:0:
344,180,100452,6,0,P|392:84|340:-20,1,198.000006042481
148,180,100967,2,0,L|48:220,1,99.0000030212403,10|2,0:2|0:2,0:0:0:0:
232,260,101310,1,0,0:0:0:0:
284,104,101481,2,0,P|324:64|408:72,1,99.0000030212403,2|8,0:2|0:0,0:0:0:0:
200,168,101824,1,0,0:0:0:0:
200,168,101995,6,2,P|148:112|32:136,1,198.000006042481,2|10,0:0|0:0,0:0:0:0:
260,260,102510,1,0,0:0:0:0:
320,100,102681,2,0,P|376:44|492:68,1,198.000006042481,2|10,0:0|0:0,0:0:0:0:
216,172,103195,6,2,P|152:88|180:-20,1,198.000006042481,6|2,0:0|0:0,0:0:0:0:
328,208,103710,2,0,B|344:260|344:260|320:324,1,99.0000030212403,8|0,0:0|0:0,0:0:0:0:
152,332,104052,2,0,B|136:280|136:280|160:216,1,99.0000030212403,8|2,0:0|0:0,0:0:0:0:
240,264,104395,1,10,0:0:0:0:
80,384,104567,6,2,B|140:380|140:380|192:344|192:344|284:336,1,198.000006042481,6|2,0:0|0:0,0:0:0:0:
416,172,105081,2,0,L|324:240,1,99.0000030212403,10|2,0:0|0:0,0:0:0:0:
488,256,105424,1,0,0:0:0:0:
428,56,105595,2,0,L|340:120,1,99.0000030212403,2|8,0:0|0:0,0:0:0:0:
172,16,105938,6,2,B|252:72|252:72|348:4,1,198.000006042481,6|2,0:0|0:0,0:0:0:0:
84,56,106452,2,0,L|176:120,1,99.0000030212403,10|2,0:0|0:0,0:0:0:0:
44,296,106795,1,0,0:0:0:0:
104,184,106967,2,0,L|196:252,1,99.0000030212403,2|8,0:0|0:0,0:0:0:0:
336,96,107310,6,2,B|280:84|256:44|256:44|228:84|168:96,1,198.000006042481,6|2,0:0|0:0,0:0:0:0:
336,276,107824,2,0,P|356:216|336:160,1,99.0000030212403,10|0,0:0|0:0,0:0:0:0:
162,182,108167,2,0,P|156:230|176:276,1,99.0000030212403,10|8,0:0|0:0,0:0:0:0:
256,8,108510,1,10,0:0:0:0:
256,104,108681,6,0,B|220:220|288:172|256:292,1,180,6|8,0:0|0:0,0:0:0:0:
256,364,109195,1,0,0:0:0:0:
256,364,109367,1,4,0:0:0:0:
152,288,109538,2,0,P|48:296|4:336,2,135
324,228,110224,6,0,P|332:268|336:316,1,72,4|0,0:0|0:0,0:0:0:0:
176,184,110567,2,0,P|174:143|180:96,1,72,2|0,0:0|0:0,0:0:0:0:
240,248,110910,2,0,P|172:228|88:256,1,144,8|0,0:0|0:0,0:0:0:0:
68,344,111424,1,0,0:0:0:0:
172,328,111595,1,0,0:0:0:0:
172,328,111767,2,0,L|176:180,1,144,2|0,0:0|0:0,0:0:0:0:
272,68,112281,2,0,L|276:156,1,72,8|0,0:0|0:0,0:0:0:0:
336,276,112624,2,0,L|328:360,1,72,2|0,0:0|0:0,0:0:0:0:
424,176,112967,6,0,L|416:100,2,72,2|0|0,0:0|0:0|0:0,0:0:0:0:
352,252,113481,1,0,0:0:0:0:
264,196,113652,2,0,P|240:192|184:192,1,72,8|0,0:0|0:0,0:0:0:0:
92,296,113995,2,0,P|172:316|232:272,1,144,2|0,0:0|0:0,0:0:0:0:
96,108,114510,2,0,P|84:144|80:188,1,72,2|0,0:0|0:0,0:0:0:0:
184,168,114852,1,0,0:0:0:0:
236,80,115024,2,0,P|244:16|244:-16,1,72,8|0,0:0|0:0,0:0:0:0:
288,168,115367,1,2,0:0:0:0:
236,256,115538,1,8,0:0:0:0:
388,156,115710,6,0,L|380:76,1,72,2|0,0:0|0:0,0:0:0:0:
340,284,116052,2,0,P|372:280|424:284,1,72,0|2,0:0|0:0,0:0:0:0:
264,208,116395,2,0,B|220:216|220:216|104:212,1,144,8|0,0:0|0:0,0:0:0:0:
220,116,116910,2,0,L|304:96,1,72,2|0,0:0|0:0,0:0:0:0:
384,216,117252,2,0,P|372:270|376:364,1,144
480,240,117767,1,8,0:0:0:0:
452,144,117938,1,0,0:0:0:0:
356,120,118110,2,0,P|312:124|264:128,1,72,2|0,0:0|0:0,0:0:0:0:
192,220,118452,5,2,0:0:0:0:
192,220,118624,2,0,P|248:240|332:216,1,144
268,68,119138,2,0,P|260:112|260:152,1,72,8|0,0:0|0:0,0:0:0:0:
404,288,119481,1,2,0:0:0:0:
472,208,119652,2,0,P|476:152|472:112,1,72
368,24,119995,1,2,0:0:0:0:
268,68,120167,2,0,P|232:68|196:64,1,72,8|0,0:0|0:0,0:0:0:0:
368,24,120510,1,0,0:0:0:0:
348,128,120681,1,0,0:0:0:0:
328,232,120852,1,2,0:0:0:0:
328,232,121195,6,0,L|184:248,1,144,4|0,0:0|0:0,0:0:0:0:
100,136,121710,1,0,0:0:0:0:
100,136,121881,2,0,L|180:144,1,72,8|0,0:0|0:0,0:0:0:0:
264,92,122224,2,0,L|344:100,2,72,2|0|0,0:0|0:0|0:0,0:0:0:0:
416,32,122738,2,0,P|436:100|400:180,1,144,2|0,0:0|0:0,0:0:0:0:
312,204,123252,1,8,0:0:0:0:
312,204,123424,1,0,0:0:0:0:
228,144,123595,2,0,P|220:100|220:56,1,72
312,204,123938,6,0,P|312:252|304:296,1,72,2|0,0:0|0:0,0:0:0:0:
168,328,124281,1,0,0:0:0:0:
212,232,124452,1,2,0:0:0:0:
116,108,124624,2,0,P|116:152|124:184,1,72,8|0,0:0|0:0,0:0:0:0:
192,40,124967,1,0,0:0:0:0:
100,80,125138,2,0,L|16:84,1,72
216,140,125481,2,0,P|280:112|352:120,1,144,2|0,0:0|0:0,0:0:0:0:
360,292,125995,1,8,0:0:0:0:
296,208,126167,1,0,0:0:0:0:
448,152,126338,1,2,0:0:0:0:
456,252,126510,1,0,0:0:0:0:
352,120,126681,6,0,P|356:80|368:40,1,72,2|0,0:0|0:0,0:0:0:0:
296,208,127024,1,0,0:0:0:0:
216,140,127195,1,0,0:0:0:0:
124,192,127367,2,0,P|84:192|44:184,1,72,8|0,0:0|0:0,0:0:0:0:
148,64,127710,2,0,P|204:44|288:68,1,144,2|0,0:0|0:0,0:0:0:0:
292,240,128224,2,0,B|252:236|252:236|220:200|216:140,1,144
152,272,128738,2,0,L|148:352,1,72,8|0,0:0|0:0,0:0:0:0:
40,208,129081,2,0,L|52:296,1,72,2|0,0:0|0:0,0:0:0:0:
120,140,129424,5,2,0:0:0:0:
120,140,129595,1,0,0:0:0:0:
216,188,129767,2,0,P|254:186|292:180,1,72
148,40,130110,2,0,P|112:40|68:48,1,72,8|0,0:0|0:0,0:0:0:0:
244,84,130452,1,2,0:0:0:0:
348,88,130624,2,0,P|388:76|420:64,1,72,8|0,0:0|0:0,0:0:0:0:
240,188,130967,2,0,P|232:248|232:344,1,144,2|0,0:0|0:0,0:0:0:0:
344,188,131481,1,8,0:0:0:0:
244,84,131652,2,0,L|200:92,1,36,2|0,0:0|0:0,0:0:0:0:
152,144,131824,2,0,L|60:148,1,72,2|0,0:0|0:0,0:0:0:0:
256,288,132167,5,4,0:0:0:0:
72,136,137652,6,0,L|232:152,1,135.000005149842,4|0,0:0|0:0,0:0:0:0:
148,40,138167,1,2,2:0:0:0:
68,216,138338,2,0,L|0:210,1,67.5000025749208,8|0,0:0|0:0,0:0:0:0:
148,40,138681,1,0,0:0:0:0:
176,216,138852,2,0,B|200:296|160:276|184:352,1,135.000005149842
216,136,139367,2,0,P|256:176|264:192,1,67.5000025749208,2|0,0:0|0:0,0:0:0:0:
80,224,139710,2,0,P|96:176|120:144,1,67.5000025749208,8|0,0:0|0:0,0:0:0:0:
108,332,140052,1,0,0:0:0:0:
108,332,140395,5,4,0:0:0:0:
224,352,140567,1,8,0:0:0:0:
296,246,140738,2,0,L|379:207,1,67.5000025749208
112,232,141081,2,0,P|94:296|120:357,1,135.000005149842,12|0,0:0|0:0,0:0:0:0:
328,344,141595,2,0,B|281:329|281:329|246:306|246:306|191:292,1,135.000005149842,8|8,0:0|0:0,0:0:0:0:
216,384,142110,1,0,0:0:0:0:
216,384,142281,1,0,0:0:0:0:
296,246,142452,5,8,0:0:0:0:
72,188,142681,5,8,0:0:0:0:
284,152,142910,5,8,0:0:0:0:
68,284,143138,6,0,L|-12:300,1,67.5000025749208,2|0,0:0|0:0,0:0:0:0:
232,256,143481,5,6,0:0:0:0:
136,104,143652,1,2,0:0:0:0:
152,316,143823,1,0,0:0:0:0:
280,173,143995,2,0,L|376:133,1,90,0|8,0:0|0:0,0:0:0:0:
212,24,144338,6,0,P|148:92|176:208,1,180,4|0,0:0|0:0,0:0:0:0:
296,92,144852,2,0,L|304:-12,1,90,10|0,0:0|0:0,0:0:0:0:
244,206,145195,1,2,0:0:0:0:
244,206,145281,1,0,0:0:0:0:
244,206,145367,1,0,0:0:0:0:
376,244,145538,1,8,0:0:0:0:
344,112,145710,1,0,0:0:0:0:
244,206,145881,6,0,L|155:188,1,90,4|0,0:0|0:0,0:0:0:0:
380,152,146224,1,10,0:0:0:0:
156,280,146395,2,0,L|67:262,1,90,2|0,0:0|0:0,0:0:0:0:
312,248,146738,1,0,0:0:0:0:
220,352,146910,1,10,0:0:0:0:
156,200,147081,2,0,P|124:108|164:44,1,180,4|0,0:0|0:0,0:0:0:0:
372,188,147595,1,8,0:0:0:0:
372,188,147681,1,0,0:0:0:0:
372,188,147767,2,0,L|260:172,1,90
296,336,148110,1,0,0:0:0:0:
436,252,148281,2,0,P|460:188|452:132,1,90,10|2,0:0|0:0,0:0:0:0:
184,32,148624,6,0,P|144:104|176:216,1,180,4|8,0:0|0:0,0:0:0:0:
304,132,149138,2,0,L|400:116,1,90
264,48,149481,1,0,0:0:0:0:
260,240,149652,1,8,0:0:0:0:
440,196,149824,6,0,P|477:143|444:35,1,180,4|0,0:0|0:0,0:0:0:0:
172,200,150338,2,0,L|68:184,1,90,10|0,0:0|0:0,0:0:0:0:
280,112,150681,1,2,0:0:0:0:
280,112,150767,1,0,0:0:0:0:
280,112,150852,2,0,L|392:128,1,90,2|8,0:0|0:0,0:0:0:0:
472,136,151195,1,0,0:0:0:0:
256,24,151367,6,0,P|248:120|240:224,1,180,4|8,0:0|0:0,0:0:0:0:
412,284,151881,2,0,P|417:228|420:164,1,90,2|0,0:0|0:0,0:0:0:0:
144,192,152224,1,0,0:0:0:0:
320,228,152395,1,8,0:0:0:0:
144,192,152567,6,0,P|148:84|184:28,1,135,4|0,0:0|0:0,0:0:0:0:
158,61,152910,1,0,0:0:0:0:
320,232,153081,2,0,L|312:328,1,90,8|0,0:0|0:0,0:0:0:0:
312,321,153338,1,0,0:0:0:0:
312,321,153424,1,0,0:0:0:0:
232,152,153595,1,0,0:0:0:0:
416,88,153767,1,0,0:0:0:0:
412,124,153852,1,0,0:0:0:0:
408,160,153938,1,0,0:0:0:0:
404,196,154024,1,0,0:0:0:0:
400,232,154110,6,0,P|356:246|310:240,1,90,4|0,1:0|2:0,0:0:0:0:
70,156,154452,2,0,B|162:146|162:146|201:172,1,135,8|0,0:0|1:0,0:0:0:0:
205,190,154795,2,0,L|210:287,1,90
43,257,155138,1,8,0:0:0:0:
99,54,155310,6,2,L|198:42,1,90,0|0,2:0|2:0,1:0:0:0:
413,119,155652,1,0,0:0:0:0:
398,136,155738,1,0,0:0:0:0:
383,153,155824,2,0,L|284:141,1,90,8|0,0:0|0:0,0:0:0:0:
445,29,156167,1,0,0:0:0:0:
457,229,156338,1,0,0:0:0:0:
219,129,156510,1,8,0:0:0:0:
350,102,156681,1,0,0:0:0:0:
377,278,156852,6,2,P|373:322|364:374,1,90,2|0,2:1|2:0,1:0:0:0:
159,239,157195,2,0,P|163:283|172:335,1,90,8|0,0:0|0:0,0:0:0:0:
324,172,157538,1,2,0:1:0:0:
267,348,157710,1,0,0:0:0:0:
187,143,157881,1,8,0:0:0:0:
350,256,158052,6,2,B|320:251|298:261|298:261|267:242|267:242|227:276|166:264,1,180,2|0,2:1|2:0,1:0:0:0:
0,156,158567,2,0,L|94:162,1,90,8|0,0:0|0:0,0:0:0:0:
324,172,158910,1,0,0:0:0:0:
173,36,159081,1,0,0:0:0:0:
173,36,159167,1,0,0:0:0:0:
173,36,159252,2,2,L|179:153,1,90,10|0,2:1|2:0,1:0:0:0:
267,346,159595,5,2,0:0:0:0:
267,346,159938,2,0,P|246:305|121:293,1,180,12|0,0:0|0:0,0:0:0:0:
354,309,160452,1,2,0:1:0:0:
420,140,160624,1,8,0:0:0:0:
245,100,160795,6,2,L|142:104,1,90,2|0,2:1|2:0,1:0:0:0:
56,250,161138,1,0,0:0:0:0:
302,212,161310,2,0,P|257:196|204:191,1,90,8|0,0:0|0:0,0:0:0:0:
38,120,161652,2,0,L|24:179,2,45,0|0|2,0:0|0:0|0:1,0:0:0:0:
199,26,161995,1,8,0:0:0:0:
238,276,162167,1,2,0:1:0:0:
477,121,162338,6,0,P|414:123|368:133,1,90,4|0,0:0|0:0,0:0:0:0:
444,260,162681,1,8,0:0:0:0:
450,34,162852,1,2,0:1:0:0:
315,212,163024,1,2,0:1:0:0:
171,114,163195,1,0,0:0:0:0:
293,96,163367,1,8,0:0:0:0:
143,300,163538,6,2,P|82:286|39:184,1,180,4|0,0:0|2:0,1:0:0:0:
272,174,164052,1,8,0:0:0:0:
228,307,164224,1,8,0:3:0:0:
134,203,164395,1,4,0:3:0:0:
329,265,164567,1,0,0:0:0:0:
350,270,164652,1,0,0:0:0:0:
371,276,164738,2,0,L|467:254,1,90,12|0,0:0|0:0,0:0:0:0:
395,18,165081,6,0,P|379:60|373:119,1,90,4|0,1:0|0:0,0:0:0:0:
298,357,165424,2,0,L|286:156,1,180,8|0,0:0|0:0,0:0:0:0:
440,192,165938,1,0,0:0:0:0:
220,303,166110,1,8,0:0:0:0:
114,190,166281,6,2,L|109:99,1,90,0|0,2:0|2:0,1:0:0:0:
242,41,166624,1,0,0:0:0:0:
318,188,166795,2,0,P|264:186|209:172,1,90,8|0,0:0|0:0,0:0:0:0:
406,115,167138,1,0,0:0:0:0:
416,297,167310,1,0,0:0:0:0:
400,312,167395,1,0,0:0:0:0:
384,327,167481,2,0,L|271:312,1,90,8|0,0:0|0:0,0:0:0:0:
69,233,167824,5,2,0:1:0:0:
242,214,167995,1,0,0:0:0:0:
15,312,168167,1,8,0:0:0:0:
188,331,168338,1,0,0:0:0:0:
119,151,168510,1,2,0:1:0:0:
104,133,168595,1,0,0:0:0:0:
89,115,168681,2,0,L|-9:122,1,90,0|8,0:0|0:0,0:0:0:0:
260,298,169024,6,2,B|306:321|344:330|344:330|391:316|423:289,1,180,2|0,2:1|2:0,1:0:0:0:
391,69,169538,2,0,L|388:164,1,90,8|0,0:0|0:0,0:0:0:0:
196,203,169881,1,0,0:0:0:0:
295,106,170052,1,0,0:0:0:0:
260,298,170224,1,10,0:1:0:0:
210,61,170395,1,0,0:0:0:0:
384,265,170567,6,2,P|377:313|353:367,1,90,4|0,2:0|2:0,1:0:0:0:
117,256,170910,2,0,P|88:224|101:128,1,135,8|0,0:0|1:0,0:0:0:0:
114,129,171252,2,0,L|218:133,1,90,0|2,0:0|0:1,0:0:0:0:
213,347,171595,1,8,0:0:0:0:
7,234,171767,6,0,L|0:126,1,90,2|0,2:1|2:0,1:0:0:0:
83,340,172110,1,0,0:0:0:0:
256,270,172281,2,0,P|301:271|363:277,1,90,8|0,0:0|0:0,0:0:0:0:
487,158,172624,1,0,0:0:0:0:
487,158,172710,1,0,0:0:0:0:
487,158,172795,2,2,P|416:166|372:178,1,90,2|8,2:1|2:0,1:0:0:0:
460,280,173138,2,0,L|472:226,1,45,2|0,0:1|0:0,0:0:0:0:
428,85,173310,6,0,P|357:81|323:85,1,90
162,193,173652,1,8,0:0:0:0:
302,266,173824,1,2,0:1:0:0:
260,64,173995,2,0,L|264:10,1,45,2|0,0:1|0:0,0:0:0:0:
237,154,174167,1,4,0:0:0:0:
382,111,174338,1,8,0:0:0:0:
150,57,174510,6,2,P|67:86|41:177,1,180,6|0,0:0|2:0,1:0:0:0:
133,286,175024,6,0,L|139:360,2,60,8|8|8,0:0|0:0|0:0,0:0:0:0:
262,258,175367,6,0,L|255:229,2,30,8|0|0,0:3|0:0|0:0,0:0:0:0:
319,193,175595,1,0,0:0:0:0:
308,121,175710,6,0,L|314:47,2,60,4|4|4,0:3|0:3|0:3,0:0:0:0:
412,212,176052,6,0,L|406:279,2,67.5000025749208,4|0|2,0:0|0:0|0:0,0:0:0:0:
353,340,176567,1,0,0:0:0:0:
293,285,176738,2,0,P|237:250|172:265,1,135.000005149842,8|0,0:0|0:0,0:0:0:0:
88,331,177252,6,0,L|79:263,1,67.5000025749208,0|2,0:0|0:0,0:0:0:0:
64,157,177595,1,0,0:0:0:0:
148,212,177767,1,0,0:0:0:0:
4,232,177938,1,0,0:0:0:0:
146,118,178110,2,0,P|150:84|153:50,1,67.5000025749208,8|0,0:0|0:0,0:0:0:0:
258,220,178452,2,0,P|260:253|265:287,1,67.5000025749208
448,289,178795,6,0,L|378:277,2,67.5000025749208,2|0|0,0:0|0:0|0:0,0:0:0:0:
317,333,179310,1,0,0:0:0:0:
256,279,179481,2,0,L|243:143,1,135.000005149842,8|0,0:0|0:0,0:0:0:0:
291,78,179995,1,0,0:0:0:0:
367,104,180167,6,0,L|443:93,1,67.5000025749208,2|0,0:0|0:0,0:0:0:0:
475,242,180510,2,0,L|399:231,1,67.5000025749208
271,213,180852,2,0,P|260:244|256:277,1,67.5000025749208,8|0,0:0|0:0,0:0:0:0:
140,346,181195,2,0,P|136:312|124:280,1,67.5000025749208,14|0,0:0|0:0,0:0:0:0:
40,139,181538,6,0,L|111:146,1,67.5000025749208,2|0,0:0|0:0,0:0:0:0:
257,21,181880,2,0,L|227:81,1,67.5000025749208
158,213,182224,2,0,B|222:186|225:233|292:211,1,135.000005149842,8|0,0:0|0:0,0:0:0:0:
357,152,182737,1,0,0:0:0:0:
418,270,182909,6,0,P|424:306|429:345,1,67.5000025749208,2|0,0:0|0:0,0:0:0:0:
474,188,183251,1,0,0:0:0:0:
474,188,183423,1,0,0:0:0:0:
324,294,183595,2,0,P|258:298|208:255,1,135.000005149842,8|0,0:0|0:0,0:0:0:0:
227,143,184109,1,8,0:0:0:0:
131,206,184280,6,0,L|112:270,1,67.5000025749208,2|0,0:0|0:0,0:0:0:0:
326,195,184623,2,0,L|307:131,1,67.5000025749208
454,113,184967,2,0,L|434:249,1,135.000005149842,8|0,0:0|0:0,0:0:0:0:
356,332,185480,1,0,0:0:0:0:
287,289,185652,5,2,0:0:0:0:
205,290,185824,1,0,0:0:0:0:
145,344,185995,2,0,L|110:271,1,67.5000025749208
161,215,186338,1,8,0:0:0:0:
189,138,186510,1,2,0:0:0:0:
143,70,186681,1,0,0:0:0:0:
466,85,187024,6,0,L|457:175,1,90,4|0,0:0|0:0,0:0:0:0:
380,228,187366,1,8,0:0:0:0:
302,80,187537,5,2,0:0:0:0:
380,127,187709,1,0,0:0:0:0:
300,178,187880,1,0,0:0:0:0:
385,29,188051,5,8,0:0:0:0:
462,184,188223,1,2,0:0:0:0:
262,99,188395,1,0,0:0:0:0:
380,127,188567,5,0,0:0:0:0:
239,225,188738,1,8,0:0:0:0:
189,52,188910,2,0,P|264:11|339:55,1,180,2|0,0:0|0:0,0:0:0:0:
356,255,189424,1,8,0:0:0:0:
262,99,189595,1,2,0:0:0:0:
380,127,189766,6,0,L|472:119,1,90
238,225,190109,2,0,L|146:217,1,90,8|2,0:0|0:0,0:0:0:0:
23,172,190451,1,0,0:0:0:0:
65,366,190624,1,0,0:0:0:0:
141,303,190795,1,8,0:0:0:0:
23,172,190967,6,0,L|12:82,2,90,2|0|0,0:0|0:0|0:0,0:0:0:0:
80,235,191481,1,8,0:0:0:0:
137,167,191652,2,0,P|208:116|290:143,1,180,2|0,0:0|0:0,0:0:0:0:
370,238,192167,2,0,L|380:327,1,90,8|2,0:0|0:0,0:0:0:0:
448,128,192510,6,0,L|458:39,1,90
239,207,192852,1,8,0:0:0:0:
342,155,193024,1,2,0:0:0:0:
185,61,193195,1,0,0:0:0:0:
239,207,193367,2,0,P|250:250|259:294,1,90,0|8,0:0|0:0,0:0:0:0:
153,328,193710,1,2,0:0:0:0:
68,235,193881,6,0,P|77:190|88:147,1,90
185,61,194224,2,0,L|276:51,1,90,8|2,0:0|0:0,0:0:0:0:
92,47,194567,1,0,0:0:0:0:
349,114,194738,1,0,0:0:0:0:
212,179,194910,2,0,L|222:268,1,90,8|2,0:0|0:0,0:0:0:0:
434,216,195252,5,4,0:0:0:0:
316,206,195424,1,0,0:0:0:0:
311,322,195595,1,8,0:0:0:0:
428,330,195767,1,2,0:0:0:0:
203,196,195938,5,0,0:0:0:0:
123,285,196110,1,0,0:0:0:0:
212,358,196281,1,8,0:0:0:0:
289,271,196452,1,2,0:0:0:0:
289,271,196538,1,0,0:0:0:0:
289,271,196624,1,2,0:0:0:0:
270,121,196795,1,0,0:0:0:0:
178,300,196967,5,8,0:0:0:0:
195,297,197052,1,0,0:0:0:0:
212,295,197138,1,0,0:0:0:0:
19,345,197310,1,8,0:3:0:0:
48,325,197395,1,0,0:0:0:0:
62,292,197480,1,0,0:0:0:0:
64,255,197566,1,0,0:0:0:0:
49,221,197652,2,0,B|23:185|23:185|13:145|29:95,1,135,12|0,0:0|0:0,0:0:0:0:
47,75,197995,6,2,B|73:73|88:64|88:64|115:83|115:83|150:66|150:66|175:72|175:72|219:67,1,180,4|10,0:0|0:1,0:0:0:0:
258,55,198424,1,0,0:0:0:0:
301,67,198510,1,2,0:2:0:0:
325,103,198595,1,2,0:2:0:0:
321,148,198681,2,0,L|316:199,1,45,2|0,1:0|0:0,0:0:0:0:
394,250,198852,2,0,L|400:317,1,45,2|2,1:2|0:0,0:0:0:0:
412,161,199024,6,0,L|417:110,1,45,10|0,0:1|0:0,0:0:0:0:
301,287,199195,2,0,L|296:331,1,45,2|2,1:2|0:2,0:0:0:0:
239,225,199367,5,2,0:1:0:0:
218,220,199452,1,0,0:0:0:0:
195,216,199538,2,0,L|252:204,1,45,2|2,1:2|0:2,0:0:0:0:
466,223,199710,1,10,0:1:0:0:
487,218,199795,1,0,0:0:0:0:
509,213,199881,2,0,L|444:204,1,45,2|2,0:2|0:2,0:0:0:0:
218,340,200052,1,2,1:1:0:0:
197,345,200137,1,0,0:0:0:0:
175,351,200224,2,0,L|236:357,1,45,2|2,1:2|0:2,0:0:0:0:
374,347,200395,6,0,L|380:303,1,45,10|0,0:1|0:0,0:0:0:0:
318,173,200567,2,0,L|324:217,1,45,2|2,0:2|0:2,0:0:0:0:
260,277,200738,6,2,L|160:288,1,90,0|2,1:0|1:0,1:0:0:0:
11,307,201081,1,8,0:0:0:0:
89,138,201252,6,2,B|127:139|157:116|157:116|214:146|214:146|252:113|310:123,1,233.999989288331,0|0,2:0|1:0,0:0:0:0:
462,150,201767,1,8,0:0:0:0:
282,226,201938,2,2,B|263:361|263:361|310:310,1,180,2|2,1:0|1:0,0:0:0:0:
437,232,202452,2,0,P|458:274|446:332,1,90,10|0,0:1|0:0,0:0:0:0:
371,293,202710,1,0,0:0:0:0:
371,293,202795,5,4,1:2:0:0:
486,157,202967,1,2,1:2:0:0:
340,99,203138,1,10,0:2:0:0:
511,163,203310,1,2,0:2:0:0:
267,296,203481,6,0,L|257:154,1,135.000005149842,6|0,1:1|0:0,0:0:0:0:
103,172,203824,1,8,0:0:0:0:
90,215,203910,1,0,0:0:0:0:
108,255,203995,2,0,P|135:268|161:273,1,45
376,178,204167,6,2,B|343:181|311:164|311:164|273:207|273:207|233:177|233:177|199:197|177:198,1,233.999989288331,2|10,0:0|0:1,0:0:0:0:
110,58,204681,1,2,1:2:0:0:
110,58,204767,1,2,0:2:0:0:
110,58,204852,1,2,0:1:0:0:
274,200,205024,1,2,1:1:0:0:
102,211,205195,5,10,0:2:0:0:
203,103,205367,1,2,0:2:0:0:
261,355,205538,1,2,1:1:0:0:
219,270,205710,2,2,B|321:242|295:317|402:283,1,180,0|0,1:0|2:0,0:0:0:0:
452,109,206224,5,2,1:1:0:0:
358,203,206395,1,2,0:2:0:0:
358,203,206481,1,2,0:2:0:0:
358,203,206567,2,0,L|355:130,1,45,10|0,0:1|0:0,0:0:0:0:
484,293,206738,1,2,0:2:0:0:
484,293,206824,1,2,0:2:0:0:
484,293,206910,2,0,L|481:366,1,45,2|0,1:1|0:0,0:0:0:0:
366,335,207081,1,2,1:2:0:0:
502,177,207252,1,10,0:1:0:0:
318,62,207424,6,2,B|286:92|263:130|263:130|269:171|284:225,1,180,4|2,1:0|1:1,0:0:0:0:
118,363,207938,2,0,P|130:308|133:264,1,90,8|0,0:0|0:0,0:0:0:0:
78,149,208281,1,2,1:1:0:0:
233,283,208452,1,8,2:3:0:0:
266,305,208538,1,0,2:0:0:0:
306,301,208624,1,4,2:3:0:0:
340,280,208710,1,0,2:0:0:0:
356,243,208795,1,4,2:3:0:0:
199,361,208967,5,4,1:0:0:0:
160,171,209138,2,0,L|153:79,1,90,2|8,0:1|0:0,0:0:0:0:
94,231,209481,1,0,0:0:0:0:
289,125,209652,2,0,L|282:217,1,90,2|0,1:1|1:0,0:0:0:0:
233,283,209910,1,0,0:0:0:0:
233,283,209995,2,0,P|181:287|141:292,1,90,10|0,0:1|1:0,0:0:0:0:
423,188,210338,5,0,0:0:0:0:
323,326,210510,1,2,1:1:0:0:
282,214,210681,1,8,0:0:0:0:
424,319,210852,2,2,P|466:327|524:335,1,90,2|0,2:1|1:2,0:0:0:0:
321,345,211195,2,0,L|316:379,3,30,2|2|2|8,1:2|0:2|0:2|0:0,0:0:0:0:
205,188,211538,1,2,0:2:0:0:
355,74,211710,6,2,L|366:194,1,107.999996704102,2|0,1:2|2:0,1:0:0:0:
16,339,212052,2,2,L|27:219,1,107.999996704102,10|2,1:2|2:2,1:0:0:0:
32,161,212310,1,2,0:2:0:0:
34,143,212395,1,2,1:1:0:0:
147,240,212567,1,2,1:2:0:0:
236,68,212738,1,8,0:0:0:0:
321,281,212910,6,2,P|389:288|464:199,1,180,2|2,1:2|1:2,1:0:0:0:
178,160,213424,1,10,0:1:0:0:
208,323,213595,5,2,0:2:0:0:
208,323,213681,1,2,0:2:0:0:
208,323,213767,2,0,L|221:256,1,45,0|2,1:1|2:0,1:0:0:0:
267,118,213938,2,0,L|280:185,1,45,2|0,1:2|2:0,1:0:0:0:
351,231,214110,1,10,2:0:0:0:
373,230,214195,1,0,2:0:0:0:
395,229,214281,1,2,2:0:0:0:
417,228,214367,1,0,2:0:0:0:
439,227,214452,6,0,L|435:273,1,45,6|0,1:1|0:0,0:0:0:0:
281,357,214624,5,2,0:2:0:0:
281,338,214710,1,2,0:2:0:0:
283,320,214795,2,0,L|288:271,1,45,10|0,0:1|0:0,0:0:0:0:
162,342,214967,5,2,0:2:0:0:
166,315,215052,1,2,0:2:0:0:
168,288,215138,2,0,L|173:239,1,45,2|0,1:1|0:0,0:0:0:0:
47,332,215310,5,2,1:2:0:0:
51,296,215395,1,2,0:2:0:0:
55,260,215481,2,0,L|60:211,1,45,10|0,0:1|0:0,0:0:0:0:
125,164,215652,2,0,L|120:115,1,45,2|2,1:2|0:2,0:0:0:0:
66,44,215824,5,2,0:1:0:0:
66,44,215910,1,0,0:0:0:0:
66,44,215995,2,0,L|120:41,1,45,2|2,1:2|0:2,0:0:0:0:
254,97,216167,1,10,0:1:0:0:
254,97,216253,1,0,0:0:0:0:
254,97,216338,2,0,L|200:100,1,45,2|0,0:2|0:0,0:0:0:0:
43,213,216510,6,0,L|37:154,1,45,2|0,1:1|0:0,0:0:0:0:
217,207,216681,2,0,L|205:265,1,45,2|2,0:2|0:2,0:0:0:0:
129,373,216852,2,0,B|105:334|105:334|125:239,1,135.000005149842,14|2,0:1|0:2,0:0:0:0:
508,330,217195,6,0,B|479:325|457:308|457:308|424:338|424:338|381:322|381:322|352:336|352:336|314:335,1,202.500007724762,4|0,1:0|1:0,0:0:0:0:
257,286,217538,1,8,0:0:0:0:
101,170,217710,2,0,B|132:167|153:154|153:154|188:178|202:211|202:211|243:182|306:206,1,202.500007724762,4|0,1:0|1:0,0:0:0:0:
349,247,218052,1,8,0:0:0:0:
495,93,218224,6,2,B|441:78|411:28|411:28|400:51|371:66,1,161.999995056153,4|2,1:2|2:1,1:0:0:0:
267,102,218567,6,0,L|263:53,1,45,0|8,0:0|0:0,0:0:0:0:
424,145,218738,2,0,L|420:194,1,45,0|8,0:0|0:0,0:0:0:0:
336,195,218910,2,0,L|343:120,2,60,8|8|8,0:0|0:0|0:0,0:0:0:0:
387,279,219252,6,0,L|399:347,1,60,8|0,0:3|0:0,0:0:0:0:
223,324,219481,2,0,L|282:315,1,60,4|0,0:3|0:0,0:0:0:0:
185,187,219710,2,0,L|118:172,1,60,4|0,0:3|0:0,0:0:0:0:
80,72,219938,6,2,P|148:20|257:61,1,180,6|8,0:0|0:0,0:0:0:0:
211,274,220452,1,2,0:0:0:0:
115,248,220624,2,0,L|105:150,1,90
299,200,220967,2,2,P|315:289|252:362,1,180,8|0,0:0|0:0,0:0:0:0:
118,218,221481,5,0,0:0:0:0:
232,114,221652,2,0,P|228:69|223:24,1,90,8|0,0:0|0:0,0:0:0:0:
209,275,221995,2,0,P|212:319|217:364,1,90,0|2,0:0|0:0,0:0:0:0:
413,88,222338,2,2,L|304:79,1,90,8|2,0:0|0:0,0:0:0:0:
244,32,222595,1,2,0:0:0:0:
244,32,222681,6,2,B|207:77|203:119|203:119|217:163|263:195,1,180,6|8,0:0|0:0,0:0:0:0:
64,292,223195,2,2,P|94:223|104:178,1,90,2|0,0:0|0:0,0:0:0:0:
108,72,223538,1,0,0:0:0:0:
224,260,223710,2,2,B|263:293|303:296|303:296|337:344|315:400,1,180,10|0,0:0|0:0,0:0:0:0:
288,184,224224,6,2,L|304:64,1,90,2|8,0:0|0:0,0:0:0:0:
156,312,224567,1,0,0:0:0:0:
344,328,224738,1,0,0:0:0:0:
168,178,224910,2,2,L|80:164,1,90,2|8,0:0|0:0,0:0:0:0:
264,124,225252,1,2,0:0:0:0:
264,124,225338,1,2,0:0:0:0:
264,124,225424,6,2,P|201:183|210:289,1,180,6|8,0:0|0:0,0:0:0:0:
408,148,225938,2,0,P|440:89|436:50,1,90,2|0,0:0|0:0,0:0:0:0:
252,176,226281,1,0,0:0:0:0:
136,258,226452,2,2,P|69:235|37:120,1,180,10|0,0:0|0:0,0:0:0:0:
269,255,226967,6,0,L|251:375,1,90,0|8,0:0|0:0,0:0:0:0:
195,102,227310,2,0,L|209:4,1,90
238,193,227652,2,0,P|166:132|62:164,1,180,2|2,0:0|0:0,0:0:0:0:
328,279,228167,6,2,P|362:186|316:87,1,180,6|10,0:0|0:0,0:0:0:0:
125,207,228681,1,0,0:0:0:0:
125,207,228767,1,0,0:0:0:0:
125,207,228852,2,0,L|11:220,1,90
240,380,229195,1,8,0:0:0:0:
358,207,229367,6,2,P|412:281|377:398,1,180,6|2,0:0|0:0,0:0:0:0:
244,143,229881,2,0,P|190:217|225:334,1,180,14|0,0:0|0:0,0:0:0:0:
218,331,230310,1,0,0:0:0:0:
241,357,230395,1,0,0:0:0:0:
329,175,230567,2,0,L|341:119,2,45,8|0|0,0:0|0:0|0:0,0:0:0:0:
137,237,230910,6,2,P|72:179|77:76,1,180,6|10,0:0|0:0,0:0:0:0:
336,256,231424,2,0,L|458:267,1,90,2|0,0:0|0:0,0:0:0:0:
300,344,231767,1,0,0:0:0:0:
232,160,231938,6,2,P|134:128|46:184,1,180,10|2,0:0|0:0,0:0:0:0:
324,228,232452,2,0,L|340:332,1,90,2|8,0:0|0:0,0:0:0:0:
196,104,232795,1,0,0:0:0:0:
196,104,232881,1,0,0:0:0:0:
196,104,232967,2,0,L|209:5,1,90,0|2,0:0|0:0,0:0:0:0:
152,256,233310,1,8,0:0:0:0:
92,100,233481,1,2,0:0:0:0:
92,100,233567,1,2,0:0:0:0:
92,100,233652,6,2,B|80:164|80:164|44:197|32:231|47:284,1,180,2|10,0:0|0:0,0:0:0:0:
296,220,234167,2,2,P|361:277|359:364,1,180,2|0,0:0|0:0,0:0:0:0:
168,184,234681,2,2,P|155:106|238:12,1,180,10|2,0:0|0:0,0:0:0:0:
372,124,235195,6,2,L|251:103,1,90,2|8,0:0|0:0,0:0:0:0:
64,168,235538,1,0,0:0:0:0:
37,174,235624,1,0,0:0:0:0:
10,178,235710,1,0,0:0:0:0:
213,33,235881,1,2,0:0:0:0:
140,180,236052,1,10,0:0:0:0:
288,272,236224,1,0,0:0:0:0:
288,272,236310,1,0,0:0:0:0:
288,272,236395,6,2,P|327:190|301:108,1,180,6|8,0:0|0:0,0:0:0:0:
182,292,236910,2,0,P|177:247|168:176,1,90,2|0,0:0|0:0,0:0:0:0:
156,96,237252,1,0,0:0:0:0:
98,338,237424,2,2,P|90:268|77:139,1,180,10|2,0:0|0:0,0:0:0:0:
258,39,237938,5,2,0:0:0:0:
384,216,238110,2,0,P|440:242|496:265,1,90,8|0,0:0|0:0,0:0:0:0:
144,292,238452,2,0,P|87:313|41:328,1,90,0|2,0:0|0:0,0:0:0:0:
324,140,238795,2,0,P|328:96|336:24,1,90,14|2,0:0|0:0,0:0:0:0:
240,136,239052,1,0,3:0:0:0:
236,164,239138,6,0,P|232:208|224:280,1,90,14|2,0:0|0:0,0:0:0:0:
448,84,239481,2,0,L|504:80,2,45
440,256,239824,2,0,L|425:298,1,45,4|0,0:0|0:0,0:0:0:0:
336,316,239995,2,0,L|318:387,1,45,4|0,0:0|0:0,0:0:0:0:
258,252,240167,1,0,0:0:0:0:
258,252,240252,1,0,0:0:0:0:
258,252,240338,2,0,B|158:194|140:316|40:220,1,210,4|0,0:0|0:0,0:0:0:0:
120,160,240852,6,0,L|144:64,2,60
212,148,241195,2,0,B|241:140|241:140|280:152,1,60
336,280,241424,2,0,B|365:285|365:285|400:276,1,60
380,152,241652,2,0,B|388:123|388:123|380:88,1,60
258,252,241881,5,4,0:0:0:0:
256,192,251138,12,8,252167,0:0:0:0:
197,114,252338,6,0,P|144:111|93:97,1,90,4|0,0:0|0:0,0:0:0:0:
266,66,252595,2,0,P|309:56|354:54,1,90,4|0,0:0|0:0,0:0:0:0:
272,152,252852,6,0,P|280:243|253:341,1,180,6|10,0:0|0:0,0:0:0:0:
41,226,253367,1,2,0:0:0:0:
192,297,253538,2,0,L|94:305,1,90
182,114,253881,1,10,0:0:0:0:
355,201,254052,6,0,P|413:185|449:70,1,180,2|0,0:0|0:0,0:0:0:0:
315,51,254567,1,8,0:0:0:0:
273,236,254738,2,0,B|265:285|265:285|273:340,1,90,2|0,0:0|0:0,0:0:0:0:
369,114,255081,1,0,0:0:0:0:
142,131,255252,1,10,0:0:0:0:
180,358,255424,5,0,0:0:0:0:
180,358,255510,1,0,0:0:0:0:
180,358,255595,2,2,L|277:350,1,90,2|0,2:1|2:0,1:0:0:0:
489,211,255938,2,0,L|392:203,1,90,10|0,2:1|0:0,1:0:0:0:
205,70,256281,1,2,0:1:0:0:
217,282,256452,1,2,0:0:0:0:
309,144,256624,1,8,0:0:0:0:
65,166,256795,6,2,P|48:251|107:315,1,180,2|0,2:1|2:0,1:0:0:0:
326,291,257310,2,2,L|416:298,1,90,8|0,2:1|2:0,1:0:0:0:
190,141,257652,1,0,0:0:0:0:
221,371,257824,1,10,0:0:0:0:
221,371,258167,6,0,B|245:328|245:328|208:279|208:233|208:233|238:213,1,180,6|0,0:0|0:0,0:0:0:0:
467,225,258681,2,0,P|417:235|352:236,1,90,10|0,0:0|0:0,0:0:0:0:
279,84,259024,1,0,0:0:0:0:
463,176,259195,1,2,0:0:0:0:
290,289,259367,1,8,0:0:0:0:
190,202,259538,6,0,L|369:187,1,180,2|0,0:0|0:0,0:0:0:0:
131,112,260052,2,0,P|77:119|32:118,1,90,10|0,0:0|0:0,0:0:0:0:
204,35,260395,1,0,0:0:0:0:
279,240,260567,2,0,L|271:336,1,90,2|8,0:0|0:0,0:0:0:0:
29,259,260910,6,0,P|123:227|188:280,1,180,6|0,0:0|0:0,0:0:0:0:
34,347,261424,1,10,0:0:0:0:
55,148,261595,1,0,0:0:0:0:
53,130,261681,1,0,0:0:0:0:
51,112,261767,1,2,0:0:0:0:
236,216,261938,1,2,0:0:0:0:
103,310,262110,1,8,0:0:0:0:
163,116,262281,6,0,B|219:97|219:97|367:104,1,180,6|0,0:0|0:0,0:0:0:0:
486,291,262795,2,0,L|389:287,1,90,8|0,0:0|0:0,0:0:0:0:
230,173,263138,1,8,0:0:0:0:
462,205,263310,1,8,0:3:0:0:
242,340,263481,1,8,0:3:0:0:
35,183,263652,6,0,P|28:107|129:64,1,180,4|0,1:0|0:0,0:0:0:0:
355,138,264167,2,0,L|242:146,1,90,10|0,0:0|0:0,0:0:0:0:
409,50,264510,1,0,0:0:0:0:
425,304,264681,2,0,P|393:263|373:229,1,90,2|8,0:0|0:0,0:0:0:0:
241,29,265024,6,0,L|223:216,1,180,2|0,0:0|0:0,0:0:0:0:
304,366,265538,2,0,P|304:312|296:263,1,90,10|0,0:0|0:0,0:0:0:0:
82,105,265881,1,0,0:0:0:0:
151,296,266052,1,2,0:0:0:0:
183,154,266224,1,8,0:0:0:0:
6,302,266395,1,0,0:0:0:0:
7,321,266481,1,0,0:0:0:0:
9,340,266567,6,2,P|61:360|104:365,1,90,2|0,2:1|2:0,1:0:0:0:
307,220,266910,2,2,P|262:227|221:244,1,90,10|0,2:1|2:0,1:0:0:0:
404,362,267252,1,2,0:1:0:0:
367,115,267424,1,0,0:0:0:0:
264,320,267595,1,10,0:1:0:0:
21,160,267767,6,2,B|64:140|64:140|133:142|193:169,1,180,6|0,2:0|2:0,1:0:0:0:
495,216,268281,2,2,P|450:234|402:247,1,90,8|0,2:0|2:0,1:0:0:0:
255,100,268624,1,0,0:0:0:0:
202,289,268795,1,2,0:1:0:0:
302,174,268967,1,8,0:0:0:0:
146,355,269138,6,2,B|102:375|102:375|53:324|89:238,1,180,6|2,2:0|2:1,1:0:0:0:
337,281,269652,2,2,L|433:267,1,90,10|0,2:0|2:0,1:0:0:0:
214,203,269995,1,0,0:0:0:0:
324,358,270167,2,2,L|420:344,1,90,2|8,2:1|2:0,1:0:0:0:
506,132,270510,6,2,P|428:93|345:122,1,180,2|2,2:1|2:1,1:0:0:0:
254,255,271024,2,2,L|258:358,1,90,10|0,2:0|2:0,1:0:0:0:
421,188,271367,1,0,0:0:0:0:
176,177,271538,1,2,0:1:0:0:
292,96,271710,1,8,0:0:0:0:
177,337,271881,6,2,B|149:345|130:330|130:330|93:358|93:358|54:341,1,135,6|0,2:0|1:0,1:0:0:0:
44,329,272224,2,0,L|35:227,1,90,0|2,1:0|1:0,0:0:0:0:
158,52,272567,1,0,1:0:0:0:
173,84,272652,1,0,1:0:0:0:
174,120,272738,1,2,1:0:0:0:
40,117,272910,2,0,L|93:107,1,45,0|0,1:0|0:0,0:0:0:0:
256,49,273081,2,0,L|254:104,1,45,2|0,1:0|1:0,0:0:0:0:
340,279,273252,6,2,B|297:296|297:296|260:240|288:159,1,180,6|0,1:0|1:0,1:0:0:0:
422,241,273767,2,0,L|475:234,2,45,0|0|0,0:0|1:0|0:0,0:0:0:0:
432,360,274024,1,0,1:0:0:0:
432,360,274110,2,0,L|380:352,1,45
281,371,274281,1,0,1:0:0:0:
246,359,274367,1,0,1:0:0:0:
219,334,274452,1,0,1:0:0:0:
297,178,274624,6,0,B|266:198|219:177|219:177|180:198|180:198|143:169|94:188,1,215.999993408203,4|0,0:0|0:0,0:0:0:0:
161,301,275138,2,0,P|214:295|257:264,1,107.999996704102,10|2,0:0|0:0,0:0:0:0:
454,351,275481,1,0,0:0:0:0:
389,138,275652,2,0,L|375:245,1,107.999996704102,2|8,0:0|0:0,0:0:0:0:
202,167,275995,6,0,B|118:174|102:67|9:93,1,215.999993408203,2|0,0:0|0:0,0:0:0:0:
196,56,276511,2,0,L|306:46,1,107.999996704102,8|2,0:0|0:0,0:0:0:0:
452,117,276853,1,0,0:0:0:0:
410,257,277025,1,2,0:0:0:0:
295,136,277196,1,8,0:0:0:0:
490,206,277368,1,0,0:0:0:0:
375,346,277539,6,2,P|316:262|369:174,1,215.999993408203,2|10,0:1|0:1,0:1:0:0:
193,302,278053,1,0,0:0:0:0:
193,302,278139,1,0,0:0:0:0:
193,302,278225,2,0,L|81:290,1,107.999996704102,2|2,0:1|0:0,0:0:0:0:
56,178,278568,1,8,0:0:0:0:
141,55,278739,1,2,0:1:0:0:
238,156,278911,6,0,P|290:169|344:173,1,107.999996704102
479,58,279253,2,0,P|425:61|372:75,1,107.999996704102,10|0,2:1|0:0,0:0:0:0:
193,302,279596,1,8,0:0:0:0:
141,55,279768,1,4,0:0:0:0:
141,55,280111,6,0,L|157:271,1,215.999993408203,4|0,0:0|0:0,0:0:0:0:
357,262,280625,1,8,0:0:0:0:
206,336,280796,1,2,0:0:0:0:
254,156,280968,1,0,0:0:0:0:
427,213,281139,2,0,P|440:265|423:316,1,107.999996704102,2|8,0:0|0:0,0:0:0:0:
254,156,281482,1,0,0:0:0:0:
343,85,281653,5,0,0:0:0:0:
357,262,281825,1,0,0:0:0:0:
238,304,281996,2,0,B|162:299|162:299|117:253|117:253|41:246,1,215.999993408203,8|2,0:0|0:0,0:0:0:0:
36,48,282511,1,2,0:0:0:0:
96,162,282682,1,8,0:0:0:0:
203,78,282853,6,0,L|418:61,1,215.999993408203,4|0,0:0|0:0,0:0:0:0:
507,144,283368,1,8,0:0:0:0:
375,275,283539,1,0,0:0:0:0:
333,172,283711,1,8,0:0:0:0:
493,180,283882,5,8,0:0:0:0:
289,248,284053,1,8,0:0:0:0:
264,72,284225,1,4,0:0:0:0:
479,219,284396,5,0,0:0:0:0:
499,256,284482,1,0,0:0:0:0:
490,298,284568,1,0,0:0:0:0:
460,328,284652,1,0,0:0:0:0:
416,333,284739,2,0,L|297:325,1,107.999996704102
47,309,285082,1,8,0:0:0:0:
141,181,285253,1,8,0:0:0:0:
29,192,285425,1,8,0:0:0:0:
154,298,285596,6,0,P|261:287|369:280,1,215.999993408203,4|0,0:0|0:0,0:0:0:0:
469,206,286111,2,0,P|484:257|489:311,1,107.999996704102,8|2,0:0|0:0,0:0:0:0:
272,188,286453,1,0,0:0:0:0:
400,104,286625,1,2,0:0:0:0:
266,36,286796,1,8,0:0:0:0:
423,212,286967,1,2,0:0:0:0:
459,63,287138,5,0,0:0:0:0:
314,104,287311,1,0,0:0:0:0:
417,315,287481,2,0,P|433:264|422:211,1,107.999996704102,10|2,0:0|0:0,0:0:0:0:
272,188,287825,2,0,L|165:181,1,107.999996704102,0|2,0:0|0:0,0:0:0:0:
231,287,288168,1,8,0:0:0:0:
314,104,288339,1,0,0:0:0:0:
381,239,288511,6,2,P|396:290|405:343,1,107.999996704102,2|0,0:1|0:1,0:1:0:0:
231,287,288853,2,0,P|221:233|206:182,1,107.999996704102,10|0,0:1|0:0,0:0:0:0:
460,47,289196,2,2,P|444:98|435:151,1,107.999996704102,2|2,2:1|2:1,2:1:0:0:
299,329,289539,1,10,0:1:0:0:
229,77,289711,6,0,P|313:21|398:77,1,215.999993408203,4|0,0:0|0:0,0:0:0:0:
132,157,290225,2,2,L|119:49,1,107.999996704102,10|2,0:1|0:0,0:0:0:0:
453,186,290568,1,2,0:1:0:0:
284,233,290739,1,2,0:1:0:0:
314,116,290911,1,8,0:0:0:0:
420,334,291082,6,2,P|313:325|197:319,1,215.999993408203,4|0,0:0|0:0,0:1:0:0:
94,251,291596,2,0,P|72:300|77:353,1,107.999996704102,8|0,0:0|0:0,0:0:0:0:
205,189,291939,1,0,0:0:0:0:
8,203,292111,1,2,0:1:0:0:
232,215,292282,1,8,0:0:0:0:
112,42,292452,6,0,L|102:150,1,107.999996704102,2|0,0:0|0:0,0:0:0:0:
353,347,292796,2,0,L|342:239,1,107.999996704102,0|10,0:0|0:1,0:0:0:0:
253,93,293139,1,0,0:0:0:0:
232,215,293310,1,2,0:0:0:0:
469,182,293481,2,0,L|353:169,1,107.999996704102,0|8,0:0|0:0,0:0:0:0:
80,268,293824,1,0,0:0:0:0:
123,289,293910,1,0,0:0:0:0:
171,286,293996,1,0,0:0:0:0:
211,259,294081,1,0,0:0:0:0:
232,215,294167,1,0,0:0:0:0:
291,4,294338,5,0,0:0:0:0:
340,7,294424,1,0,0:0:0:0:
372,44,294510,1,0,0:0:0:0:
375,93,294595,1,0,0:0:0:0:
348,134,294681,1,0,0:0:0:0:
301,146,294767,1,0,0:0:0:0:
257,129,294852,1,0,0:0:0:0:
209,129,294938,1,0,0:0:0:0:
170,157,295024,1,0,0:0:0:0:
380,295,295195,6,2,B|398:242|369:200|369:200|389:166|389:166|365:128|376:86,1,215.999993408203,4|0,0:0|0:0,0:1:0:0:
69,204,295710,1,0,0:0:0:0:
232,215,295881,1,0,0:0:0:0:
96,374,296052,5,0,0:0:0:0:
117,330,296138,1,0,0:0:0:0:
156,302,296224,1,0,0:0:0:0:
204,302,296310,1,0,0:0:0:0:
248,319,296395,2,0,B|287:349|287:349|336:309|325:247,1,161.999995056153,4|0,0:0|0:0,0:0:0:0:
316,216,296738,6,2,P|300:136|352:52,1,180,4|10,1:0|1:0,1:0:0:0:
196,200,297252,1,0,0:0:0:0:
404,152,297424,2,0,L|508:160,1,90,2|0,0:0|0:0,0:0:0:0:
280,316,297767,1,8,1:0:0:0:
100,252,297938,6,2,P|76:176|80:60,1,180,2|0,1:2|0:0,1:0:0:0:
312,164,298452,2,0,P|312:220|304:260,1,90,8|0,1:0|0:0,0:0:0:0:
220,80,298795,1,0,0:0:0:0:
388,92,298967,1,2,0:0:0:0:
196,200,299138,1,8,1:0:0:0:
124,8,299310,1,2,0:0:0:0:
312,68,299481,6,2,L|120:92,1,180,2|10,1:2|1:0,1:0:0:0:
344,184,299995,1,0,0:0:0:0:
248,256,300167,2,0,P|188:256|144:248,1,90
312,68,300510,1,8,1:0:0:0:
456,176,300681,6,2,P|456:296|428:352,1,180,2|0,1:2|0:0,1:0:0:0:
236,360,301195,1,8,1:0:0:0:
352,248,301367,1,0,0:0:0:0:
152,192,301538,1,0,0:0:0:0:
264,344,301710,1,2,0:0:0:0:
320,152,301881,2,2,P|328:96|328:56,1,90,8|0,1:0|0:0,1:0:0:0:
60,120,302224,6,2,P|40:184|88:292,1,180,4|10,1:2|1:0,1:0:0:0:
288,320,302738,1,0,0:0:0:0:
384,232,302910,2,0,P|400:172|404:124,1,90,2|0,0:0|0:0,0:0:0:0:
432,336,303252,1,8,1:0:0:0:
260,224,303424,6,2,B|228:196|228:196|216:120|260:56,1,180,2|0,1:2|0:0,1:0:0:0:
452,132,303938,2,0,P|392:148|356:152,1,90,8|0,1:0|0:0,0:0:0:0:
48,228,304281,2,2,P|104:228|156:216,1,90,2|2,0:0|0:1,1:0:0:0:
432,336,304624,2,2,P|376:324|336:308,1,90,10|0,1:0|0:0,1:0:0:0:
248,72,304967,6,2,B|256:132|256:132|240:184|240:184|248:248,1,180,2|10,1:2|1:0,1:0:0:0:
352,200,305481,1,0,0:0:0:0:
144,124,305652,2,0,L|36:116,1,90,2|0,0:0|0:0,0:0:0:0:
252,268,305995,1,8,1:0:0:0:
336,72,306167,6,2,P|404:80|476:168,1,180,4|0,1:2|0:0,1:0:0:0:
376,372,306681,1,8,1:0:0:0:
352,200,306852,1,0,0:0:0:0:
480,340,307024,1,8,0:3:0:0:
244,240,307195,1,2,0:0:0:0:
464,100,307367,2,2,L|452:204,1,90,12|0,1:2|0:0,1:0:0:0:
264,348,307710,6,2,B|220:332|176:344|176:344|128:356|84:340,1,180,4|10,1:0|1:0,1:0:0:0:
348,280,308224,1,0,0:0:0:0:
144,184,308395,2,2,P|72:180|32:184,1,90,2|0,0:0|0:0,1:0:0:0:
244,240,308738,1,8,1:0:0:0:
340,128,308910,6,2,P|328:40|236:28,1,180,2|0,1:2|0:0,1:0:0:0:
132,212,309424,2,0,P|140:268|136:308,1,90,8|0,1:0|0:0,0:0:0:0:
16,124,309767,2,0,P|16:68|32:24,1,90,0|2,0:0|0:0,0:0:0:0:
236,188,310110,1,8,1:0:0:0:
40,264,310281,1,2,0:0:0:0:
128,92,310452,6,2,L|320:80,1,180,2|10,1:2|1:0,1:0:0:0:
400,148,310967,1,0,0:0:0:0:
328,304,311138,2,2,P|312:248|312:196,1,90,2|0,0:0|0:0,1:0:0:0:
468,52,311481,1,8,1:0:0:0:
468,52,311652,6,2,P|508:136|488:232,1,180,2|0,1:2|0:0,1:0:0:0:
268,160,312167,2,0,L|360:152,1,90,8|0,1:0|0:0,0:0:0:0:
208,64,312510,1,0,0:0:0:0:
200,248,312681,1,2,0:0:0:0:
44,144,312852,2,2,L|140:152,1,90,8|0,1:0|0:0,1:0:0:0:
364,332,313195,6,2,L|260:340,1,90,4|0,1:2|0:0,1:0:0:0:
40,292,313538,2,2,P|92:268|180:272,1,135,10|0,1:0|0:0,1:0:0:0:
132,232,313881,2,0,P|120:183|128:132,1,90,2|0,0:0|0:0,0:0:0:0:
284,16,314224,1,8,1:0:0:0:
376,84,314395,6,2,P|320:124|204:100,1,180,2|0,1:2|0:0,1:0:0:0:
308,316,314910,2,0,P|320:268|320:220,1,90,8|0,1:0|0:0,0:0:0:0:
476,28,315252,2,2,P|488:88|484:136,1,90,0|2,0:0|0:1,1:0:0:0:
424,288,315595,1,10,1:0:0:0:
272,152,315767,1,2,0:0:0:0:
252,132,315852,1,0,0:0:0:0:
232,112,315938,6,2,L|324:104,1,90,2|0,1:2|0:0,1:0:0:0:
192,224,316281,2,2,P|144:200|56:204,1,135,10|0,1:0|0:0,1:0:0:0:
16,224,316624,2,0,L|24:169,1,45,2|0,0:0|0:0,0:0:0:0:
92,72,316795,2,0,L|96:116,1,45,2|0,0:0|0:0,0:0:0:0:
116,292,316967,1,8,1:0:0:0:
328,152,317138,6,2,B|188:140|188:140|224:164,1,180,4|0,1:2|0:0,1:0:0:0:
436,124,317652,2,2,P|435:74|424:32,1,90,10|0,1:0|0:0,1:0:0:0:
404,228,317995,1,0,0:0:0:0:
372,248,318081,1,8,0:0:0:0:
336,256,318167,1,8,0:0:0:0:
300,252,318252,1,8,0:0:0:0:
264,240,318338,1,0,1:0:0:0:
232,220,318424,1,0,1:0:0:0:
196,208,318510,1,8,1:0:0:0:
160,208,318595,1,8,1:0:0:0:
124,220,318681,5,4,1:1:0:0:
176,314,318852,1,0,0:2:0:0:
150,134,319024,1,10,0:2:0:0:
40,251,319195,5,4,0:2:0:0:
290,208,319367,1,0,0:2:0:0:
56,158,319538,1,2,1:2:0:0:
207,201,319710,5,12,0:2:0:0:
272,332,319881,1,0,0:2:0:0:
254,129,320052,1,2,0:2:0:0:
176,314,320224,6,0,L|84:330,1,90,2|8,0:2|0:0,0:0:0:0:
290,208,320567,1,2,0:0:0:0:
290,208,320652,1,2,0:0:0:0:
290,208,320738,1,0,0:2:0:0:
368,333,320910,1,2,0:2:0:0:
403,154,321081,1,10,0:1:0:0:
418,151,321424,6,0,L|506:135,1,90,4|0,0:3|0:2,0:0:0:0:
302,49,321767,1,10,0:2:0:0:
212,163,321938,2,0,P|201:211|209:252,1,90,4|0,0:2|0:2,0:0:0:0:
368,227,322281,1,2,0:2:0:0:
184,351,322452,6,0,P|135:364|33:288,1,180,12|2,0:2|0:2,0:0:0:0:
277,313,322967,2,0,L|373:306,1,90,2|8,0:2|0:2,0:0:0:0:
481,257,323310,1,2,0:2:0:0:
481,257,323395,1,2,0:2:0:0:
481,257,323481,1,0,0:0:0:0:
294,197,323652,1,2,0:2:0:0:
455,140,323824,1,8,0:2:0:0:
366,306,323995,1,2,0:2:0:0:
215,241,324167,5,2,0:2:0:0:
389,203,324338,1,0,0:2:0:0:
210,153,324510,1,10,0:2:0:0:
455,140,324681,5,4,0:2:0:0:
366,306,324852,1,0,0:2:0:0:
345,119,325024,1,2,0:2:0:0:
453,352,325195,5,12,0:2:0:0:
271,319,325367,1,0,0:2:0:0:
447,264,325538,1,2,0:2:0:0:
345,119,325710,6,0,P|346:170|367:217,1,90,2|8,0:2|0:0,0:0:0:0:
455,140,326052,1,2,0:2:0:0:
455,140,326138,1,2,0:2:0:0:
455,140,326224,1,0,0:0:0:0:
366,306,326395,1,2,0:2:0:0:
196,208,326567,1,10,0:1:0:0:
194,194,326910,6,0,L|186:97,1,90,4|0,0:3|0:2,0:0:0:0:
290,163,327252,1,10,0:2:0:0:
140,337,327424,1,4,0:2:0:0:
74,161,327595,1,0,0:2:0:0:
235,294,327767,1,2,0:2:0:0:
235,294,327852,1,0,0:2:0:0:
235,294,327938,2,0,P|280:296|332:272,1,90,12|0,0:2|0:2,0:0:0:0:
248,89,328281,5,2,0:2:0:0:
439,274,328452,2,0,L|452:383,1,90,2|8,0:2|0:2,0:0:0:0:
332,80,328795,1,2,0:2:0:0:
448,61,328967,2,0,L|443:129,1,45,8|8,0:0|0:0,0:0:0:0:
371,217,329138,2,0,L|376:149,1,45,2|2,0:2|0:2,0:0:0:0:
512,231,329310,1,10,0:1:0:0:
154,178,329652,5,4,1:0:0:0:
353,157,329824,1,0,0:0:0:0:
227,242,329995,1,10,0:2:0:0:
188,80,330167,5,4,0:2:0:0:
231,257,330338,1,0,0:0:0:0:
265,43,330510,1,2,0:2:0:0:
149,258,330681,5,12,0:2:0:0:
33,163,330852,1,0,0:0:0:0:
235,163,331024,1,2,0:2:0:0:
277,328,331195,5,2,0:2:0:0:
234,149,331367,1,8,0:0:0:0:
197,349,331538,1,2,0:2:0:0:
304,253,331710,6,0,P|353:245|406:253,1,90,0|10,0:0|0:2,0:0:0:0:
414,254,331967,1,2,0:2:0:0:
435,260,332052,2,0,P|427:211|435:158,1,90,8|2,0:0|0:2,0:0:0:0:
148,91,332395,6,0,P|136:137|145:200,1,90,4|0,0:3|0:2,0:0:0:0:
234,149,332738,1,10,0:2:0:0:
193,278,332910,2,0,B|103:253|123:332|8:304,1,180,4|2,0:2|0:2,0:0:0:0:
52,215,333424,1,12,0:2:0:0:
276,336,333595,2,0,P|288:290|279:227,1,90,0|2,0:2|0:2,0:0:0:0:
234,149,333938,6,0,L|350:137,1,90,2|8,0:2|0:2,0:0:0:0:
435,124,334281,1,2,0:2:0:0:
435,124,334367,1,2,0:2:0:0:
435,124,334452,1,0,0:0:0:0:
285,248,334624,1,10,0:2:0:0:
432,297,334795,1,12,0:2:0:0:
323,139,334967,1,10,0:2:0:0:
201,276,335138,6,0,P|156:290|96:299,1,90,4|0,1:0|0:0,0:0:0:0:
285,248,335481,2,0,P|318:278|347:312,1,90,10|4,0:2|0:2,0:0:0:0:
221,186,335824,2,0,P|230:143|246:100,1,90,8|2,0:0|0:2,0:0:0:0:
497,109,336167,6,0,P|431:167|343:164,1,180,12|10,0:2|0:2,0:0:0:0:
397,342,336681,2,0,P|403:287|395:234,1,90,2|8,0:2|0:0,0:0:0:0:
258,125,337024,1,2,0:2:0:0:
250,164,337110,1,2,0:2:0:0:
260,202,337195,1,8,0:0:0:0:
398,74,337367,1,2,0:2:0:0:
311,292,337538,2,0,L|196:281,1,90,12|0,0:2|0:0,0:0:0:0:
120,203,337881,5,4,1:0:0:0:
343,164,338052,1,2,0:2:0:0:
204,280,338224,1,10,0:2:0:0:
274,366,338395,5,4,0:2:0:0:
249,164,338567,1,10,0:2:0:0:
184,279,338738,1,2,0:2:0:0:
392,252,338910,5,12,0:2:0:0:
233,155,339081,1,2,0:2:0:0:
339,28,339252,1,10,0:2:0:0:
302,253,339424,2,0,L|294:348,1,90,4|8,0:2|0:0,0:0:0:0:
430,353,339767,5,2,0:2:0:0:
430,353,339852,1,2,0:2:0:0:
430,353,339938,1,10,0:1:0:0:
305,231,340110,1,10,0:1:0:0:
150,340,340281,2,0,P|104:344|61:325,1,90,10|0,0:1|0:0,0:0:0:0:
40,103,340624,5,4,1:0:0:0:
256,192,340710,12,2,343367,0:0:0:0:
256,192,343452,12,2,346110,0:0:0:0:
256,192,346195,12,2,348852,0:0:0:0:
256,192,348938,12,2,351252,0:0:0:0:
