osu file format v9

[General]
AudioFilename: Demetori -Wind God Girl.mp3
AudioLeadIn: 1985
PreviewTime: 116885
Countdown: 0
SampleSet: Normal
StackLeniency: 0.7
Mode: 0
LetterboxInBreaks: 1

[Editor]
Bookmarks: 11022,44799
DistanceSpacing: 0.8
BeatDivisor: 8
GridSize: 8

[Metadata]
Title:Wind God Girl
Artist:Demetori
Creator:lkp
Version:Extra
Source:Touhou
Tags:koko6162006 ignorethis aesopl19193 zun ui-70

[Difficulty]
HPDrainRate:8
CircleSize:4
OverallDifficulty:9
ApproachRate:9
SliderMultiplier:1.8
SliderTickRate:0.5

[Events]
//Background and Video events
0,0,"BG1.jpg"
//Break Periods
2,385,1835
2,2785,4385
2,5185,6635
2,7585,7985
2,81985,97985
2,156385,165185
2,185185,186785
2,187585,189035
2,189985,191285
2,192385,193685
//Storyboard Layer 0 (Background)
//Storyboard Layer 1 (Fail)
//Storyboard Layer 2 (Pass)
//Storyboard Layer 3 (Foreground)
//Storyboard Sound Samples
//Background Colour Transformations
3,100,0,0,0

[TimingPoints]
185,300,4,1,1,100,1,0
48185,-200,4,1,1,100,0,0
49535,-100,4,1,1,100,0,0
52985,-200,4,1,1,100,0,0
54335,-100,4,1,1,100,0,0
57785,-100,4,1,1,100,0,1
81785,-100,4,1,1,100,0,0
117785,-100,4,1,1,100,0,1
136685,-100,4,1,1,100,0,0
146585,-100,4,1,1,100,0,1
156185,-100,4,1,1,100,0,0
206585,-100,4,1,1,100,0,1
225635,-100,4,1,1,100,0,0
225785,-100,4,1,1,100,0,1
244685,-100,4,1,1,100,0,0
254585,-100,4,1,1,100,0,0
264185,-100,4,1,1,100,0,1
283235,-100,4,1,1,100,0,0
283385,-100,4,1,1,100,0,1
302585,-100,4,1,1,100,0,0

[Colours]
Combo1 : 211,199,199
Combo2 : 255,133,11

[HitObjects]
256,192,185,1,0
256,192,2435,5,0
256,192,2585,1,4
256,192,4985,5,0
256,192,7235,5,0
256,192,7385,1,4
48,64,8585,5,0
48,80,8660,1,0
48,96,8735,1,0
48,112,8810,1,0
48,128,8885,1,0
48,144,8960,1,0
48,160,9035,1,0
48,176,9110,1,0
48,192,9185,5,0
56,208,9260,1,0
64,224,9335,1,0
72,240,9410,1,0
80,256,9485,1,0
88,272,9560,1,0
96,288,9635,1,0
104,304,9710,1,0
112,320,9785,6,0,B|160:320|160:320|208:272,1,90,4|0
112,160,10085,2,0,L|64:160|24:200,1,90,0|0
112,240,10385,1,0
128,240,10460,1,0
144,240,10535,1,0
160,240,10610,1,0
176,240,10685,2,0,L|240:176,1,90
248,80,10985,6,0,B|296:80|296:80|328:48,1,90,4|0
424,152,11285,2,0,B|376:152|376:152|344:184,1,90
304,296,11585,1,4
288,304,11660,1,0
272,312,11735,1,0
256,320,11810,1,0
240,328,11885,2,0,L|144:328,1,90,4|0
80,224,12185,6,0,B|32:224|32:224|0:192,1,90,4|0
136,120,12485,2,0,B|184:120|184:120|232:168,1,90
56,144,12785,1,0
56,128,12860,1,0
56,112,12935,1,0
56,96,13010,1,0
56,80,13085,2,0,L|56:32|96:0,1,90
160,88,13385,6,0,B|208:88|208:88|240:128,1,90,4|0
376,64,13685,2,0,B|328:64|328:64|296:16,1,90
304,168,13985,1,4
312,184,14060,1,0
320,200,14135,1,0
328,216,14210,1,0
336,232,14285,2,0,L|360:280|360:328,1,90,4|0
168,312,14585,6,0,B|264:312,1,90,4|0
176,224,14885,2,0,B|64:224,1,90
176,144,15185,1,0
192,144,15260,1,0
208,144,15335,1,0
224,144,15410,1,0
240,144,15485,2,0,L|288:144|320:184,1,90
368,272,15785,6,0,B|368:320|368:320|304:352,1,90,4|0
304,144,16085,2,0,B|304:96|304:96|256:64,1,90
248,272,16385,1,4
232,272,16460,1,0
216,272,16535,1,0
200,272,16610,1,0
184,272,16685,2,0,L|104:208,1,90,4|0
88,120,16985,5,4
96,104,17060,1,0
104,88,17135,1,0
192,168,17285,1,4
184,184,17360,1,0
176,200,17435,1,0
304,144,17585,1,0
320,144,17660,1,0
336,144,17735,1,0
352,144,17810,1,0
368,144,17885,2,0,B|408:144|408:144|440:96,1,90,4|0
304,40,18185,5,4
296,56,18260,1,0
288,72,18335,1,0
392,120,18485,1,4
384,136,18560,1,0
376,152,18635,1,0
432,232,18785,1,0
424,248,18860,1,0
416,264,18935,1,0
408,280,19010,1,0
400,296,19085,2,0,B|368:320|368:320|304:320,1,90,4|0
192,288,19385,6,0,B|144:288|144:288|112:240,1,90,4|0
240,200,19685,2,0,L|288:200|336:256,1,90
192,112,19985,1,0
176,112,20060,1,0
160,112,20135,1,0
144,112,20210,1,0
128,112,20285,2,0,L|80:112|56:72,1,90
216,24,20585,6,0,B|232:-8|296:-8|296:56,1,90,4|0
424,112,20885,2,0,B|408:144|344:144|344:80,1,90
368,24,21185,1,4
384,24,21260,1,0
400,24,21335,1,0
416,24,21410,1,0
432,24,21485,2,0,B|464:72|416:120,1,90,4|0
352,160,21785,6,0,B|304:184|256:152,1,90,4|0
144,272,22085,2,0,B|192:248|232:272,1,90
328,272,22385,1,0
344,272,22460,1,0
360,272,22535,1,0
376,272,22610,1,0
392,272,22685,2,0,B|440:272|472:224,1,90
328,184,22985,6,0,B|328:128|264:128,1,90,4|0
216,272,23285,2,0,B|216:336|280:336,1,90
368,240,23585,1,4
368,224,23660,1,0
368,208,23735,1,0
368,192,23810,1,0
368,176,23885,2,0,B|368:120|304:120,1,90,4|0
192,96,24185,6,0,B|168:48|200:8,1,90,4|0
128,184,24485,2,0,B|160:232|120:280,1,90
36,124,24785,1,0
28,108,24860,1,0
24,92,24935,1,0
28,76,25010,1,0
36,60,25085,2,0,B|56:8|120:16,1,90
304,32,25385,6,0,L|304:80|256:112,1,90,4|0
328,208,25685,2,0,L|328:160|368:128,1,90
456,208,25985,1,4
464,192,26060,1,0
472,176,26135,1,0
480,160,26210,1,0
488,144,26285,2,0,L|488:96|456:64,1,90,4|0
344,56,26585,5,4
336,72,26660,1,0
328,88,26735,1,0
224,56,26885,1,4
216,72,26960,1,0
208,88,27035,1,0
280,160,27185,1,0
272,176,27260,1,0
264,192,27335,1,4
160,160,27485,1,4
152,176,27560,1,0
144,192,27635,1,0
208,264,27785,5,4
200,280,27860,1,0
192,296,27935,1,0
184,312,28010,1,0
168,304,28085,1,0
152,296,28160,1,0
136,288,28235,1,0
120,280,28310,1,0
104,272,28385,6,0,B|80:304,7,22.5
88,264,28685,6,0,B|48:272,7,22.5
88,264,28985,6,0,B|88:216|88:216|120:184,1,90,4|0
256,48,29285,2,0,B|256:96|256:96|208:128,1,90,0|0
352,264,29585,2,0,B|352:152|352:152|424:112,2,180
480,256,30335,6,0,B|480:352,2,90
480,128,30785,2,0,B|480:32,2,90
400,192,31235,2,0,B|272:192,2,90
304,112,31685,2,0,B|272:80|272:80|208:80,1,90
304,272,31985,2,0,B|272:304|272:304|224:304,1,90
224,192,32285,2,0,B|16:192,1,180
48,112,32735,5,0
48,96,32810,1,0
48,80,32885,1,12
88,184,33035,1,0
88,200,33110,1,0
88,216,33185,1,12
144,120,33335,1,0
160,120,33410,1,0
176,120,33485,1,12
192,120,33560,1,0
208,120,33635,1,0
224,120,33710,1,0
240,120,33785,6,0,B|288:120|304:56,1,90,4|0
496,192,34085,2,0,B|448:192|432:256,1,90
432,352,34385,2,0,B|328:352|328:352|272:296,2,180
432,176,35135,6,0,B|432:272,2,90
432,96,35585,2,0,B|432:-16,2,90
352,96,36035,2,0,B|240:96,2,90
240,224,36485,2,0,L|240:176|200:144,1,90
336,224,36785,2,0,L|336:272|392:304,1,90
256,336,37085,2,0,B|176:384|64:336,1,180
80,256,37535,5,0
80,240,37610,1,0
80,224,37685,1,12
128,128,37835,1,0
128,144,37910,1,0
128,160,37985,1,12
176,256,38135,1,0
176,240,38210,1,0
176,224,38285,1,12
232,128,38435,5,0
232,144,38510,1,0
232,160,38585,2,0,B|232:264|232:264|304:304,2,180,4|0|0
320,112,39335,2,0,L|344:72|400:72,1,90
464,112,39635,2,0,B|464:208,1,90
464,288,39935,6,0,L|416:288|384:240,2,90
192,288,40385,2,0,L|240:288|272:336,2,90
32,288,40835,2,0,B|32:192,1,90
32,128,41135,1,0
64,64,41285,1,0
128,32,41435,1,0
192,64,41585,2,0,B|224:16|320:16|368:80,2,180
224,128,42335,6,0,L|224:176|200:216,1,90,0|12
304,304,42635,2,0,L|304:256|336:208,1,90,0|12
304,152,42935,1,0
304,136,43010,1,0
304,120,43085,1,12
320,120,43160,1,0
336,120,43235,1,0
352,120,43310,1,0
368,120,43385,6,0,B|368:216|368:216|272:248,2,180,4|0|0
368,32,44135,2,0,L|456:0,1,90
464,104,44435,2,0,B|512:216,1,90
464,352,44735,6,0,B|512:240,2,90
368,64,45185,2,0,B|320:160,2,90
272,352,45635,2,0,B|272:240,1,90
272,192,45935,1,0
240,128,46085,1,0
176,96,46235,1,0
112,128,46385,2,0,B|48:160|48:160|48:272,2,180
128,224,47135,6,0,B|128:272|128:272|176:320,1,90,0|12
240,304,47435,2,0,B|336:304,1,90,0|12
336,224,47735,1,0
336,208,47810,1,0
336,192,47885,1,12
336,176,47960,1,0
336,160,48035,1,0
336,144,48110,1,0
336,128,48185,6,0,B|272:96|192:128,1,135,4|0
160,48,48785,2,0,B|256:16|344:40,1,180
416,160,49535,6,0,B|416:48,2,90
416,256,49985,1,0
416,272,50060,1,0
416,288,50135,1,0
416,304,50210,1,0
416,320,50285,2,0,B|416:368|416:368|368:384,1,90
240,376,50585,5,0
208,320,50735,1,0
176,376,50885,1,0
144,320,51035,1,0
112,376,51185,2,0,L|16:376,1,90
272,320,51485,2,0,L|360:320,1,90
464,248,51785,5,4
472,232,51860,1,0
480,216,51935,1,0
488,200,52010,1,0
496,184,52085,1,8
504,168,52160,1,0
512,152,52235,1,0
512,136,52310,1,0
504,120,52385,5,0
496,104,52460,1,0
488,88,52535,1,0
480,72,52610,1,0
472,56,52685,1,8
464,40,52760,1,0
456,24,52835,1,0
448,8,52910,1,0
432,0,52985,6,0,B|400:48|400:80|424:128,1,135,4|0
304,256,53585,2,0,B|352:224|352:128|304:80,1,180
192,88,54335,6,0,B|80:88,1,90
0,48,54635,2,0,B|-21:70|-21:129|26:156,2,90
104,288,55235,2,0,B|104:384,1,90,0|4
400,96,55835,2,0,B|400:0,1,90,0|4
256,192,56135,12,0,57485
48,144,57785,6,0,B|48:48,2,90,4|0|8
128,128,58235,2,0,B|128:240,1,90,0|0
48,224,58535,2,0,B|48:304|48:304|144:352,1,180,8|0
144,272,58985,2,0,B|240:272,2,90,4|0|8
144,192,59435,2,0,B|144:112|144:112|48:64,1,180,0|8
48,192,59885,2,0,B|48:288,2,90,0|0|4
48,104,60335,6,0,B|48:8,2,90,0|8|0
128,112,60785,1,0
208,112,60935,2,0,B|288:144|288:144|400:112,1,180,8|0
219,197,61385,2,0,B|139:165|139:165|27:197,1,180,4|12
48,288,61835,2,0,L|48:376,1,90
120,288,62135,5,8
136,288,62210,1,0
152,288,62285,1,0
168,288,62360,1,0
184,288,62435,1,0
200,288,62510,1,0
216,288,62585,2,0,L|272:288|304:320,1,90
504,368,62885,5,8
488,368,62960,1,0
472,368,63035,2,0,L|416:368|392:344,1,90
392,192,63335,6,0,B|392:128|392:128|440:96|440:96|440:32,1,180,8|0
312,192,63785,2,0,B|216:192,2,90,4|0|8
472,192,64235,2,0,B|472:256|472:256|424:288|424:288|424:352,1,180,0|8
344,352,64685,2,0,B|238:352,1,90
152,352,64985,1,4
256,192,65135,12,0,67085
144,64,67385,6,0,B|48:64,2,90,4|0|8
144,144,67835,2,0,B|80:144|48:192,1,90,4|0
144,224,68135,2,0,B|144:304|272:352,1,180,12|8
368,352,68585,2,0,B|464:352,2,90,4|0|8
368,272,69035,2,0,B|432:272|464:224,1,90,4|0
368,192,69335,2,0,B|368:112|240:64,1,180,12|8
160,64,69785,5,4
80,112,69935,1,0
32,192,70085,1,12
80,272,70235,2,0,B|144:224|208:304|256:256,2,180,0|8|8
160,336,70985,1,4
250,260,71135,6,0,B|186:212|186:212|186:84,1,180,0|8
272,16,71585,2,0,B|336:64|336:64|336:192,1,180,4|12
336,264,72035,2,0,L|384:264|424:224,1,90
416,112,72335,1,0
416,96,72410,1,0
416,80,72485,1,8
336,176,72635,5,0
336,192,72710,1,0
336,208,72785,1,0
336,224,72860,1,0
336,240,72935,2,0,B|336:336|176:336,1,180,8|8
248,240,73385,2,0,B|248:128|120:128,1,180,4|8
128,240,73835,5,0
128,256,73910,1,0
128,272,73985,1,0
128,288,74060,1,0
128,304,74135,2,0,L|208:352|312:296,1,180,8|8
368,168,74585,2,0,L|288:120|208:160,1,180
128,72,75035,5,0
136,88,75110,1,0
144,104,75185,1,0
240,32,75335,1,0
240,48,75410,1,0
240,64,75485,1,0
288,144,75635,1,0
280,160,75710,1,0
272,176,75785,1,0
368,64,75935,5,0
368,80,76010,1,0
368,96,76085,1,0
464,136,76235,1,0
472,152,76310,1,0
480,168,76385,1,0
408,240,76535,1,0
408,240,76610,1,0
408,240,76685,1,0
408,240,76760,1,0
408,240,76835,1,0
408,240,76910,1,0
408,240,76985,6,0,B|456:240|456:240|480:200,1,90,4|0
352,176,77285,2,0,B|296:176|296:176|272:128,1,90
408,120,77585,2,0,B|408:16,1,90,4|0
280,144,77885,2,0,B|280:240,2,90,0|0|4
288,24,78335,5,0
272,24,78410,1,0
256,24,78485,1,0
224,120,78635,1,0
208,120,78710,1,0
192,120,78785,1,0
160,216,78935,1,0
144,216,79010,1,0
128,216,79085,1,0
112,216,79160,1,0
96,216,79235,2,0,B|48:216|48:216|16:168,1,90
256,192,79535,12,4,81785
64,48,98585,6,0,C|104:72|152:40,1,90,4|0
224,160,98885,2,0,C|184:136|144:152,1,90
80,224,99185,2,0,C|120:248|168:232,2,90
0,224,99635,6,0,B|32:304|32:304|128:304,1,180
224,304,100085,2,0,B|336:304,1,90
416,304,100385,1,0
416,288,100460,1,0
416,272,100535,1,0
416,256,100610,1,0
416,240,100685,2,0,B|416:192|416:192|448:160,1,90
352,48,100985,6,0,B|352:96|352:96|320:128,1,90,4|0
224,128,101285,2,0,L|176:128|144:88,1,90
64,208,101585,2,0,L|112:208|144:256,2,90
64,288,102035,1,0
64,368,102185,2,0,B|176:368|176:368|224:320,1,180,4|8
304,240,102635,2,0,B|192:240|192:240|144:288,1,180,4|12
64,288,103085,1,0
64,272,103160,1,0
64,256,103235,1,0
64,240,103310,1,0
64,224,103385,6,0,B|64:128,2,90
152,200,103835,1,0
240,184,103985,1,0
328,168,104135,1,0
416,144,104285,2,0,B|416:240,2,90
192,128,104735,6,0,B|144:32,1,90
304,192,105035,2,0,B|352:112,1,90
224,272,105335,2,0,B|128:208,1,90
288,352,105635,1,0
304,352,105710,1,0
320,352,105785,6,0,B|368:352|368:352|416:304,1,90,4|0
496,256,106085,2,0,B|448:256|448:256|400:208,1,90
320,160,106385,2,0,B|368:160|368:160|416:112,1,90
480,64,106685,2,0,B|432:64|432:64|384:16,1,90
320,32,106985,2,0,B|192:32|192:160,1,180,4|8
288,144,107435,2,0,B|288:256|144:256,1,180,4|8
80,256,107885,5,0
80,240,107960,1,0
80,224,108035,1,0
80,208,108110,1,0
80,192,108185,6,0,B|80:144|80:144|112:112,1,90,4|0
144,256,108485,2,0,B|144:304|144:304|176:336,1,90
208,192,108785,2,0,B|400:192,1,180,4|0
464,112,109235,2,0,B|272:112,1,180,4|0
208,112,109685,2,0,B|208:16,1,90
304,32,109985,1,0
328,32,110060,1,0
352,32,110135,2,0,B|400:32|400:32|448:80,2,90
352,112,110585,6,0,B|352:224,2,90,4|0|0
480,112,111035,2,0,B|480:16,2,90,0|4|0
480,192,111485,2,0,B|480:256|400:256,1,90
312,256,111785,5,4
304,272,111860,1,0
296,288,111935,1,0
176,296,112085,1,12
168,312,112160,1,0
160,328,112235,1,0
48,288,112385,5,0
56,272,112460,1,0
64,256,112535,1,0
72,240,112610,1,0
80,224,112685,1,12
88,208,112760,1,0
96,192,112835,1,0
104,176,112910,1,0
112,160,112985,6,0,B|176:160|176:96,1,90,4|0
48,96,113285,2,0,B|48:0,1,90
48,96,113585,2,0,B|32:160|32:160|161:198,1,180,4|0
144,96,114035,2,0,B|336:96,1,180
324,96,114485,5,0
192,176,114635,2,0,B|288:176,1,90
400,256,114935,2,0,B|288:256,2,90
192,336,115385,2,0,B|304:336,2,90,4|0|0
96,336,115835,1,0
32,272,115985,1,0
256,192,116135,12,0,117485
64,256,117785,6,0,B|64:320|144:320,2,90,4|0|8
160,256,118235,1,4
168,240,118310,1,0
176,224,118385,1,0
256,256,118535,2,0,B|256:352|384:352,1,180,12|0
210,182,118985,2,0,B|210:86|82:86,1,180,4|8
80,176,119435,6,0,B|80:288,1,90
80,80,119735,6,0,B|160:32|160:32|256:112,1,180,12|0
432,80,120185,2,0,B|352:32|352:32|256:112,1,180,4|8
432,176,120635,6,0,B|432:288,1,90
432,368,120935,6,0,B|320:368|320:368|272:304,1,180,12|0
208,224,121385,2,0,B|320:224|320:224|368:288,1,180,4|8
432,280,121835,2,0,L|432:240|432:192,1,90,0|4
432,96,122135,5,8
432,80,122210,1,4
424,64,122285,1,0
416,48,122360,1,0
400,40,122435,1,8
384,32,122510,1,0
368,32,122585,6,0,B|304:32|288:96,2,90,4|0|8
368,112,123035,2,0,B|416:112|432:176,1,90
368,192,123335,2,0,B|368:320|368:320|304:352,1,180,12|0
256,192,123785,2,0,B|256:64|256:64|192:32,1,180,4|8
152,192,124235,2,0,L|104:192|72:232,2,90,0|0|12
512,352,124835,5,0
336,352,124985,1,0
256,192,125135,12,0,127235
368,64,127385,6,0,B|480:64,1,90,4|0
384,144,127685,2,0,B|272:144,1,90,8|0
288,64,127985,1,4
208,64,128135,2,0,B|96:64|96:176,1,180,8|8
208,144,128585,2,0,B|208:336,1,180,4|8
280,368,129035,1,0
368,368,129185,1,4
440,320,129335,2,0,B|440:128,1,180,8|8
336,64,129785,6,0,B|336:256,1,180,4|8
336,320,130235,2,0,B|288:336|240:320,1,90,0|4
176,288,130535,1,8
112,240,130685,1,0
64,176,130835,1,8
88,144,130910,1,0
112,112,130985,1,4
144,88,131060,1,0
176,64,131135,6,0,B|208:16|304:16|352:80,1,180,0|0
176,176,131585,2,0,B|208:128|304:128|352:192,1,180,0|12
336,256,132035,2,0,L|336:304|384:336,2,90,0|8|0
176,128,132485,6,8,L|176:80|144:56,2,90,0|8|0
112,144,132935,2,0,B|112:192|176:224|240:192|240:144,1,180,8|8
368,272,133385,2,0,B|368:224|304:192|240:224|240:272,1,180,4|8
304,285,133835,2,0,L|304:336|352:360,2,90,0|0|8
0,128,134435,5,0
176,128,134585,1,0
256,192,134735,12,0,136685
96,112,136985,5,4
96,112,137060,1,0
96,112,137135,1,0
152,200,137285,1,4
152,200,137360,1,0
152,200,137435,1,0
208,112,137585,5,0
224,112,137660,1,0
240,112,137735,1,0
256,112,137810,1,0
272,112,137885,2,0,B|328:112|328:112|360:80,1,90,4|0
368,216,138185,5,4
368,216,138260,1,0
368,216,138335,1,0
448,288,138485,1,4
448,288,138560,1,0
448,288,138635,1,0
368,360,138785,5,0
352,352,138860,1,0
336,344,138935,1,0
320,336,139010,1,0
304,328,139085,2,0,B|208:280,1,90,4|0
64,128,139385,5,4
64,128,139460,1,0
64,128,139535,1,0
136,200,139685,1,4
136,200,139760,1,0
136,200,139835,1,0
208,128,139985,5,0
224,136,140060,1,0
240,144,140135,1,0
256,152,140210,1,0
272,160,140285,2,0,B|296:264,1,90,4|0
216,336,140585,5,4
216,336,140660,1,0
216,336,140735,1,0
296,264,140885,1,4
296,264,140960,1,0
296,264,141035,1,0
216,192,141185,5,0
200,192,141260,1,0
184,192,141335,1,0
168,192,141410,1,0
152,192,141485,2,0,B|104:192|104:192|80:144,1,90,4|0
216,8,141785,6,0,B|192:64|216:112,1,90,4|0
312,88,142085,2,0,B|336:144|304:192,1,90,8|0
168,168,142385,2,0,B|144:224|168:264,1,90,4|0
384,224,142685,2,0,B|408:280|384:320,1,90,8|0
216,376,142985,6,0,B|192:320|216:272,1,90,4|0
312,296,143285,2,0,B|336:240|304:192,1,90,8|0
168,216,143585,2,0,B|144:160|168:120,1,90,4|0
384,160,143885,2,0,B|408:104|384:64,1,90,8|0
256,96,144185,5,0
256,112,144260,1,0
256,128,144335,1,0
256,144,144410,1,0
256,160,144485,1,0
256,176,144560,1,0
256,192,144635,1,0
256,208,144710,1,0
264,224,144785,5,0
272,240,144860,1,0
280,256,144935,1,0
288,272,145010,1,0
296,288,145085,1,0
304,304,145160,1,0
312,320,145235,1,0
320,336,145310,1,0
328,352,145385,5,0
336,336,145460,1,0
344,320,145535,1,0
352,304,145610,1,0
360,288,145685,1,0
368,272,145760,1,0
376,256,145835,1,0
384,240,145910,1,0
392,224,145985,5,0
392,208,146060,1,0
392,192,146135,1,0
392,176,146210,1,0
392,160,146285,1,0
392,144,146360,1,0
392,128,146435,1,0
392,112,146510,1,0
392,96,146585,6,0,L|304:136,1,90,4|0
120,104,146885,2,0,L|208:56,1,90,12|0
256,176,147185,1,0
256,192,147260,1,0
256,208,147335,1,0
256,224,147410,1,0
256,240,147485,2,0,L|256:328,1,90,12|0
120,256,147785,6,0,L|208:216,1,90,4|0
392,280,148085,2,0,L|304:328,1,90,12|0
256,208,148385,1,0
256,192,148460,1,0
256,176,148535,1,0
256,160,148610,1,0
256,144,148685,2,0,L|256:56,1,90,12|0
184,144,148985,5,4
176,160,149060,1,0
168,176,149135,1,0
328,144,149285,1,12
336,128,149360,1,0
344,112,149435,1,0
220,272,149585,5,0
292,272,149735,1,0
152,272,149885,1,8
360,272,150035,1,0
328,152,150185,5,4
336,136,150260,1,0
344,120,150335,1,0
184,152,150485,1,12
176,168,150560,1,0
168,184,150635,1,0
292,24,150785,5,0
220,24,150935,1,0
360,24,151085,1,8
152,24,151235,1,0
176,128,151385,5,4
184,112,151460,1,0
192,96,151535,1,0
256,224,151685,1,12
264,208,151760,1,0
272,192,151835,1,0
336,136,151985,5,4
344,120,152060,1,0
352,104,152135,1,0
416,224,152285,1,12
424,208,152360,1,0
432,192,152435,1,0
336,312,152585,5,4
328,328,152660,1,0
320,344,152735,1,0
224,344,152885,1,12
216,360,152960,1,0
208,376,153035,1,0
144,256,153185,5,4
136,272,153260,1,0
128,288,153335,1,0
200,152,153485,1,12
192,168,153560,1,0
184,184,153635,1,0
344,104,153785,5,0
168,176,153935,1,0
344,248,154085,1,8
168,320,154235,1,0
256,248,154385,5,0
256,232,154460,1,0
256,216,154535,1,0
256,200,154610,1,0
256,184,154685,2,0,L|256:96,1,90,12|0
168,216,154985,5,0
344,144,155135,1,0
168,72,155285,1,8
344,0,155435,1,0
256,96,155585,5,0
256,112,155660,1,0
256,128,155735,1,0
256,144,155810,1,0
256,160,155885,2,0,L|256:248,1,90,8|0
256,264,156110,1,0
256,280,156185,1,4
112,64,165785,5,0
112,64,165860,1,0
112,64,165935,1,0
112,64,166085,1,4
168,128,166235,1,0
112,192,166385,5,0
112,192,166460,1,0
112,192,166535,1,0
112,192,166685,1,4
48,256,166835,1,0
112,320,166985,2,0,B|224:320|256:192,1,180,4|0
176,192,167435,2,0,B|224:112|336:144,1,180,4|0
336,224,167885,2,0,B|336:320,1,90
416,224,168185,6,0,B|464:224|464:224|496:192,2,90,4|0|0
368,144,168635,1,0
288,112,168785,2,0,B|256:80|256:80|208:80,2,90
224,176,169235,1,0
144,112,169385,6,0,B|96:160|96:160|96:288,1,180,4|0
48,352,169835,2,0,B|0:304|0:304|0:176,1,180,4|0
0,112,170285,2,0,B|0:64|64:64,1,90
184,72,170585,5,4
184,72,170660,1,0
184,72,170735,1,0
264,152,170885,1,0
264,152,170960,1,0
264,152,171035,1,0
160,208,171185,5,0
160,208,171260,1,0
160,208,171335,1,0
248,280,171485,1,0
248,280,171560,1,0
248,280,171635,1,0
352,272,171785,5,4
80,80,172085,1,0
384,16,172385,1,4
128,224,172685,1,0
432,80,172985,5,4
448,160,173135,1,0
432,240,173285,1,0
384,304,173435,1,0
320,352,173585,2,0,B|240:304,1,90
320,176,173885,2,0,B|320:272,1,90
160,208,174185,2,0,B|272:176,1,90,4|0
160,368,174485,2,0,B|160:272,1,90
48,272,174785,5,0
48,240,174860,1,0
48,208,174935,1,0
48,176,175010,1,0
48,144,175085,2,0,B|48:80|112:80,1,90
176,80,175385,6,0,B|224:80|240:160,1,90,4|0
352,288,175685,2,0,B|304:288|288:224,1,90
336,32,175985,2,0,B|384:32|400:112,1,90
512,240,176285,2,0,B|464:240|448:176,1,90
308,110,176585,6,0,B|308:66|308:66|343:27,1,90,4|0
240,224,176885,2,0,B|240:272|240:272|192:304,1,90
160,112,177185,2,0,B|160:64|160:64|208:32,1,90
112,256,177485,2,0,B|112:304|112:304|64:336,1,90
16,224,177785,5,4
16,224,177860,1,0
16,224,177935,1,0
72,120,178085,1,0
72,120,178160,1,0
72,120,178235,1,0
184,80,178385,5,0
192,64,178460,1,0
200,48,178535,1,0
208,32,178610,1,0
216,16,178685,2,0,L|304:16,1,90,4|0
272,160,178985,5,4
272,160,179060,1,0
272,160,179135,1,0
336,256,179285,1,0
336,256,179360,1,0
336,256,179435,1,0
440,208,179585,5,0
448,192,179660,1,0
456,176,179735,1,0
464,160,179810,1,0
472,144,179885,2,0,L|504:112|504:48,1,90,4|0
400,32,180185,6,0,B|368:0|304:16,2,90,4|0|0
320,96,180635,1,0
240,144,180785,2,0,B|192:176|144:144,2,90,4|0|0
320,192,181235,1,0
320,272,181385,2,0,B|368:304|416:272,1,90,4|0
240,192,181685,2,0,B|192:144|128:176,1,90
240,272,181985,2,0,B|240:368,1,90,4|0
320,192,182285,2,0,B|320:80,1,90
272,32,182585,5,4
192,0,182735,1,0
112,0,182885,1,0
32,32,183035,1,0
32,112,183185,2,0,B|32:224,1,90
272,202,183485,2,0,B|272:112,1,90
80,304,183785,5,4
96,304,183860,1,0
112,304,183935,1,0
128,304,184010,1,0
144,304,184085,1,0
160,304,184160,1,0
176,304,184235,1,0
192,304,184310,1,0
208,304,184385,6,0,B|208:272,7,22.5
224,304,184685,6,0,B|248:304,8,22.5,0|0|0|0|0|0|0|0|4
256,192,187385,5,0
256,192,189635,5,0
256,192,189785,1,4
256,192,191885,5,0
256,192,192185,1,4
48,40,194285,5,0
48,40,194360,1,0
48,40,194435,1,0
48,40,194510,1,0
48,40,194585,2,0,L|88:80|88:216,2,180
208,344,195485,1,0
208,344,195635,2,0,L|168:312|168:168,1,180
304,40,196085,2,0,L|344:72|344:208,1,180
344,200,196535,1,0
256,56,196985,5,0
272,56,197060,1,0
288,56,197135,1,0
304,56,197210,1,0
320,56,197285,2,0,L|368:56|424:56,1,90
296,144,197585,2,0,L|248:144|208:104,1,90,4|0
320,224,197885,2,0,L|368:224|400:264,1,90
296,304,198185,5,0
280,304,198260,1,0
264,304,198335,1,0
248,304,198410,1,0
232,304,198485,2,0,L|144:304,1,90
256,216,198785,2,0,L|304:216|344:256,1,90,4|0
232,136,199085,2,0,L|184:136|152:96,1,90,4|0
256,48,199385,5,0
272,48,199460,1,0
288,56,199535,1,0
304,64,199610,1,0
320,80,199685,2,0,B|336:128|312:168,1,90
192,232,199985,2,0,B|176:184|200:136,1,90,4|0
264,296,200285,2,0,B|280:344|256:384,1,90
144,352,200585,5,0
128,352,200660,1,0
112,344,200735,1,0
96,336,200810,1,0
80,320,200885,2,0,B|64:272|88:232,1,90
208,152,201185,2,0,B|224:200|200:248,1,90,4|0
136,88,201485,2,0,B|120:40|144:0,1,90,4|0
296,8,201785,5,0
304,24,201860,1,0
312,40,201935,1,0
304,56,202010,1,0
296,72,202085,2,0,L|272:112|304:160,1,90
408,192,202385,2,0,L|432:232|400:272,1,90,4|0
296,296,202685,2,0,L|272:336|296:376,1,90
144,376,202985,5,0
136,360,203060,1,0
128,344,203135,1,0
136,328,203210,1,0
144,312,203285,2,0,L|168:272|136:224,1,90
32,192,203585,2,0,L|8:152|40:112,1,90,4|0
144,88,203885,2,0,L|168:48|144:8,1,90,4|0
304,32,204185,5,0
312,48,204260,1,0
320,64,204335,1,0
328,80,204410,1,0
336,96,204485,2,0,B|376:176,1,90
504,176,204785,2,0,B|456:88,1,90,4|0
448,240,205085,2,0,B|496:328,1,90
336,352,205385,5,0
328,336,205460,1,0
320,320,205535,1,0
312,304,205610,1,0
304,288,205685,2,0,B|264:208,1,90
136,208,205985,2,0,B|184:296,1,90,4|0
192,144,206285,2,0,B|144:56,1,90,4|0
256,48,206585,6,0,B|296:24|344:48,1,90
208,184,206885,2,0,B|160:200|112:176,1,90,8|0
320,152,207185,1,4
336,152,207260,1,0
352,160,207335,1,0
360,176,207410,1,0
368,192,207485,2,0,B|384:240|352:280,1,90,8|0
208,304,207785,6,0,B|168:328|120:304,1,90
256,168,208085,2,0,B|304:152|352:176,1,90,8|0
144,200,208385,1,4
128,200,208460,1,0
112,192,208535,1,0
104,176,208610,1,0
96,160,208685,2,0,B|80:112|112:72,1,90,8|0
240,48,208985,6,0,B|288:40|328:72,1,90
352,184,209285,2,0,B|368:232|312:272,1,90,8|0
200,336,209585,1,4
184,328,209660,1,0
168,320,209735,1,0
152,312,209810,1,0
136,304,209885,2,0,B|88:264|88:216,1,90,8|0
48,112,210185,6,0,B|32:64|64:16,2,90,0|0|8
128,80,210635,1,0
208,48,210785,2,0,B|224:112|192:160,2,90,4|0|8
288,16,211235,1,0
368,48,211385,6,0,L|416:48|456:96,1,90,4|0
336,160,211685,2,0,L|288:160|256:120,1,90,8|0
448,120,211985,1,4
440,136,212060,1,0
432,152,212135,1,0
424,168,212210,1,0
416,184,212285,2,0,L|392:224|344:224,1,90,8|0
192,216,212585,6,0,L|240:216|272:264,1,90,4|0
128,304,212885,2,0,L|80:304|48:248,1,90,8|0
112,184,213185,1,4
112,168,213260,1,0
112,152,213335,1,0
112,136,213410,1,0
112,120,213485,2,0,L|112:72|152:40,1,90,8|0
288,56,213785,5,4
432,120,213935,1,0
288,184,214085,1,8
432,248,214235,1,0
288,304,214385,1,4
280,320,214460,1,0
272,336,214535,1,0
264,352,214610,1,0
256,368,214685,2,0,L|160:368,1,90,8|0
216,240,214985,6,0,B|168:144,1,90
352,160,215285,2,0,B|400:64,1,90,8|0
264,160,215585,2,0,B|152:160,1,90,4|0
416,336,215885,2,0,B|512:336,1,90,8|0
512,240,216185,6,0,L|416:192,1,90,4|0
416,192,216410,1,0
400,184,216485,1,4
384,176,216560,1,0
368,168,216635,1,0
352,160,216710,1,0
336,152,216785,1,4
320,144,216860,1,0
304,136,216935,1,0
288,128,217010,1,0
272,120,217085,2,0,L|184:72,1,90,4|0
0,96,217385,6,0,L|96:144,1,90,4|0
96,144,217610,1,0
112,152,217685,1,4
128,160,217760,1,0
144,168,217835,1,0
160,176,217910,1,0
176,184,217985,1,4
192,192,218060,1,0
208,200,218135,1,0
224,208,218210,1,0
240,216,218285,2,0,L|328:264,1,90,4|0
320,376,218585,6,0,L|224:328,1,90,4|0
224,328,218810,1,0
208,320,218885,1,4
192,312,218960,1,0
176,304,219035,1,0
160,296,219110,1,0
144,288,219185,1,4
128,280,219260,1,0
112,272,219335,1,0
96,264,219410,1,0
80,256,219485,2,0,L|-8:208,1,90,4|0
0,80,219785,5,0
0,80,219935,1,0
88,152,220085,1,0
88,152,220235,1,0
120,48,220385,1,0
120,48,220535,1,0
208,112,220685,1,0
208,112,220835,1,0
256,8,220985,5,4
272,8,221060,1,0
288,8,221135,1,0
304,8,221210,1,0
320,8,221285,2,0,L|384:96,1,90,4|0
304,176,221585,1,4
304,176,221660,1,0
304,176,221735,1,0
336,280,221885,2,0,L|376:360,1,90,4|0
216,360,222185,5,4
200,360,222260,1,0
184,360,222335,1,0
168,360,222410,1,0
152,360,222485,2,0,L|88:272,1,90,4|0
176,200,222785,1,4
176,200,222860,1,0
176,200,222935,1,0
136,88,223085,2,0,L|96:8,1,90,4|0
256,88,223385,5,4
256,104,223460,1,0
256,120,223535,1,0
256,136,223610,1,0
256,152,223685,1,0
256,168,223760,1,0
256,184,223835,1,0
256,200,223910,1,0
256,216,223985,5,4
256,232,224060,1,0
256,248,224135,1,0
256,264,224210,1,0
256,280,224285,1,0
256,296,224360,1,0
256,312,224435,1,0
256,328,224510,1,0
256,344,224585,1,0
256,192,224660,12,4,225635
336,336,225785,6,0,B|352:288|352:288|336:240,1,90
176,256,226085,2,0,B|160:208|160:208|176:160,1,90
336,176,226385,2,0,B|352:128|352:128|336:80,1,90
176,96,226685,2,0,B|160:48|160:48|176:0,1,90
336,0,226985,2,0,B|432:0|432:0|496:80,2,180
176,96,227735,5,0
336,176,227885,1,0
176,256,228035,1,0
336,336,228185,1,0
496,256,228335,5,4
144,176,228635,1,0
496,96,228935,1,4
144,16,229235,1,0
208,80,229385,5,0
240,168,229535,1,4
152,200,229685,1,0
64,168,229835,1,0
48,80,229985,5,0
64,72,230060,1,0
80,64,230135,1,0
96,56,230210,1,0
112,48,230285,1,4
128,48,230360,1,0
144,48,230435,1,0
160,48,230510,1,0
176,48,230585,6,0,B|160:96|160:96|176:144,1,90
336,128,230885,2,0,B|352:176|352:176|336:224,1,90
176,208,231185,2,0,B|160:256|160:256|176:304,1,90
336,288,231485,2,0,B|352:336|352:336|336:384,1,90
176,384,231785,2,0,B|80:384|80:384|16:304,2,180
336,288,232535,5,0
176,208,232685,1,0
336,128,232835,1,0
176,48,232985,1,0
16,128,233135,6,0,B|0:224|0:224|32:304,1,180,4|0
96,384,233585,2,0,B|112:288|112:288|80:207,1,180,4|0
112,128,234035,2,0,B|160:112|160:112|208:128,1,90,0|4
272,128,234335,2,0,B|320:160|320:256|272:288,1,180
208,368,234785,2,0,B|160:336|160:240|208:208,1,180,4|0
272,288,235235,2,0,B|384:288,1,90
448,288,235535,6,0,B|448:176|448:176|400:128,1,180,4|0
64,96,236135,2,0,B|64:208|64:208|112:256,1,180,0|0
192,144,236735,6,0,B|224:112|224:112|224:64,1,90
256,256,237035,2,0,B|256:304|256:304|288:336,1,90
320,144,237335,2,0,B|416:144|416:144|480:48,1,180
368,48,237785,2,0,B|272:48|272:48|208:144,1,180,4|0
224,208,238235,2,0,B|224:320,1,90
304,304,238535,6,0,B|368:304|368:304|416:256|416:256|480:256,1,180
336,224,238985,2,0,B|272:224|272:224|224:272|224:272|160:272,1,180,4|0
304,144,239435,2,0,B|400:144,1,90
480,144,239735,6,0,B|432:64|432:64|336:64,1,180,4|0
384,144,240185,2,0,B|288:144|288:144|240:64,1,180,4|0
384,224,240635,2,0,B|384:320,1,90
304,320,240935,2,0,B|192:320|192:192,1,180,4|0
304,208,241385,2,0,B|304:96|176:96,1,180,4|0
192,208,241835,2,0,B|192:304,1,90,0|4
80,208,242135,2,0,B|32:112|96:32,1,180
192,40,242585,1,0
192,40,242660,1,0
192,40,242735,1,0
256,192,242885,12,0,244685
80,80,244985,6,0,B|80:176,1,90,4|0
160,336,245435,1,0
160,336,245585,2,0,B|160:224,1,90
256,80,246035,2,0,B|256:176,1,90
336,288,246335,2,0,B|336:192,2,90
432,80,246785,2,0,B|432:176,2,90
512,288,247235,2,0,B|512:192,1,90,0|4
512,80,247535,6,0,B|464:32|464:32|352:32,1,180,0|0
432,112,247985,1,0
352,144,248135,2,0,B|352:264|352:264|288:304,1,180
272,176,248585,2,0,B|272:240|336:240,1,90
192,208,248885,2,0,B|192:144|128:144,1,90
112,240,249185,2,0,B|112:304|192:304,1,90
32,272,249485,2,0,B|32:176,1,90
32,96,249785,5,4
32,16,249935,2,0,B|224:16,1,180
288,16,250385,1,0
288,96,250535,2,0,B|96:96,1,180
32,176,250985,2,0,B|128:176,1,90
176,256,251285,2,0,B|64:256,1,90
122,176,251585,2,0,B|240:176,1,90
272,256,251885,1,0
336,176,252035,1,0
400,256,252185,6,0,B|480:192|480:96|400:16,1,270,4|0
272,16,252785,1,0
256,192,252935,12,0,254285
104,0,254585,6,0,B|192:176,1,180,4|0
192,176,254960,1,0
200,192,255035,1,0
208,208,255110,1,0
216,224,255185,1,0
224,240,255260,1,0
232,256,255335,2,0,L|328:256|384:184,1,180,4|0
216,120,255785,6,0,L|120:120|64:192,1,180,4|0
72,200,256160,1,0
80,216,256235,1,0
88,232,256310,1,0
96,248,256385,1,0
104,264,256460,1,0
112,280,256535,2,0,L|184:280|216:248|288:248,1,180,4|0
416,304,256985,6,0,L|344:304|312:336|240:336,1,180,4|0
240,320,257360,1,0
232,304,257435,1,0
224,288,257510,1,0
216,272,257585,1,0
208,256,257660,1,0
200,240,257735,2,0,L|120:80,1,180,4|0
240,88,258185,5,4
248,104,258260,1,0
256,120,258335,1,0
264,136,258410,1,0
272,152,258485,1,0
280,168,258560,1,0
288,184,258635,1,0
296,200,258710,1,0
304,216,258785,5,4
312,232,258860,1,0
320,248,258935,1,0
328,264,259010,1,0
336,280,259085,1,0
344,296,259160,1,0
352,312,259235,1,0
360,328,259310,1,0
368,344,259385,6,0,L|464:344|512:272,1,180,4|0
504,256,259760,1,0
496,240,259835,1,0
488,224,259910,1,0
480,208,259985,1,0
472,192,260060,1,0
464,176,260135,2,0,L|424:112|320:112,1,180,4|0
200,200,260585,6,0,L|240:264|344:264,1,180,4|0
336,248,260960,1,0
328,232,261035,1,0
320,216,261110,1,0
312,200,261185,1,0
304,184,261260,1,0
296,168,261335,2,0,L|256:104|152:104,1,180,4|0
32,104,261785,5,4
40,120,261860,1,0
48,136,261935,1,0
56,152,262010,1,0
64,168,262085,1,0
72,184,262160,1,0
80,200,262235,1,0
88,216,262310,1,0
80,232,262385,5,4
72,248,262460,1,0
64,264,262535,1,0
56,280,262610,1,0
48,296,262685,1,0
40,312,262760,1,0
32,328,262835,1,0
24,344,262910,1,0
40,344,262985,5,4
56,344,263060,1,0
72,344,263135,1,0
88,344,263210,1,0
104,344,263285,1,0
120,344,263360,1,0
136,344,263435,1,0
152,344,263510,1,0
168,344,263585,1,0
184,344,263660,5,0
200,344,263735,1,0
216,336,263810,1,0
224,320,263885,1,0
224,304,263960,1,0
224,288,264035,1,0
224,272,264110,1,0
224,256,264185,5,4
288,224,264335,1,0
224,192,264485,1,8
288,160,264635,1,0
224,128,264785,1,0
288,96,264935,2,0,B|288:-16|432:16,1,180,12|4
352,176,265385,2,0,B|352:288|208:256,1,180,4|8
176,192,265835,2,0,B|144:144|192:96,1,90
256,64,266135,6,0,B|336:-16|432:80,1,180,12|4
320,128,266585,2,0,B|352:240|208:256,1,180,4|8
144,256,267035,2,0,B|96:240|80:192,1,90
80,112,267335,6,0,B|96:0|256:32,1,180,12|4
176,128,267785,2,0,B|320:144|208:288,1,180,4|8
144,256,268235,6,0,B|96:272|64:224,1,90
64,112,268535,2,0,B|112:48|112:48|224:48,1,180,12|0
144,112,268985,2,0,B|256:112|256:112|320:176,1,180,4|12
208,176,269435,2,0,B|112:176,1,90
16,176,269735,2,0,B|16:288|16:288|96:320,1,180,12|0
112,208,270185,2,0,B|112:96|112:96|32:64,1,180,4|12
164,317,270635,6,0,B|212:317|212:317|260:269,1,90,4|0
240,160,270935,2,0,B|240:96|384:96|384:176,1,180,8|0
320,208,271385,1,4
384,240,271535,1,0
448,208,271685,1,8
384,176,271835,1,0
448,144,271985,1,4
384,112,272135,2,0,B|384:16,1,90,0|8
448,272,272435,2,0,B|448:400,1,90,0|4
256,192,272735,12,0,273635
288,128,273785,5,4
224,160,273935,1,0
288,192,274085,1,8
224,224,274235,1,0
288,256,274385,1,0
224,288,274535,2,0,B|224:400|80:368,1,180,12|12
160,208,274985,2,0,B|160:96|304:128,1,180,4|8
336,192,275435,2,0,B|368:240|320:288,1,90,0|4
256,320,275735,6,0,B|176:400|80:304,1,180,12|12
192,256,276185,2,0,B|160:144|304:128,1,180,4|8
368,128,276635,2,0,B|416:144|432:192,1,90,0|4
432,272,276935,6,0,B|416:384|256:352,1,180,8|8
208,336,277385,2,0,B|144:336|144:272,1,90,4|0
368,128,277835,6,0,B|416:112|448:160,1,90,0|4
448,272,278135,1,0
448,272,278285,2,0,B|400:336|400:336|288:336,1,180,8|4
280,128,279035,6,0,B|376:128,1,90,8|0
496,208,279335,2,0,B|496:96|496:96|416:64,1,180,8|8
400,176,279785,2,0,B|400:288|400:288|480:320,1,180,4|0
348,67,280235,6,0,B|300:67|300:67|252:115,1,90,8|0
272,224,280535,2,0,B|272:288|128:288|128:208,1,180,8|8
192,176,280985,1,4
128,143,281135,1,0
64,176,281285,1,8
128,208,281435,1,0
64,240,281585,1,0
128,272,281735,2,0,B|128:368,1,90,0|12
64,112,282035,2,0,B|64:-16,1,90,0|4
256,192,282335,12,0,283235
208,72,283385,5,4
192,72,283460,1,0
176,72,283535,1,8
88,160,283685,1,4
104,160,283760,1,0
120,160,283835,1,8
136,160,283910,1,0
152,160,283985,2,0,B|200:160|200:160|232:208,1,90,4|8
296,320,284285,2,0,B|248:320|248:320|224:280,1,90,4|8
320,160,284585,6,0,B|368:160|368:160|392:208,1,90,4|8
456,320,284885,2,0,B|408:320|408:320|392:280,1,90,4|8
456,240,285185,1,4
456,160,285335,2,0,B|456:48|456:48|376:16,1,180,8|8
216,80,285785,5,4
384,152,285935,1,8
216,224,286085,1,0
384,296,286235,1,8
216,368,286385,1,0
48,296,286535,2,0,B|48:192|160:160,1,180,8|8
152,256,286985,2,0,B|152:352|40:384,1,180,4|0
48,296,287435,2,0,B|48:248|88:200,1,90,8|4
208,64,287735,6,0,B|208:120|160:168,1,90,8|0
264,296,288035,2,0,B|264:240|304:192,1,90,8|4
416,72,288335,2,0,B|416:128|384:176,1,90,8|0
448,304,288635,5,8
448,272,288710,1,0
448,240,288785,1,0
448,208,288860,1,0
448,176,288935,2,0,B|448:72|320:72,1,180,8|8
368,168,289385,2,0,B|368:272|496:272,1,180,4|0
496,168,289835,2,0,B|496:112|440:112,1,90,8|4
368,56,290135,6,0,B|184:56,1,180,8|8
112,56,290585,2,0,B|112:152,1,90,4|8
112,176,290810,5,0
112,208,290885,1,0
176,280,291035,1,8
176,248,291110,1,0
176,216,291185,1,4
232,152,291335,1,8
232,184,291410,1,0
232,216,291485,1,4
288,280,291635,1,8
352,216,291785,5,4
352,200,291860,1,0
352,184,291935,1,8
352,168,292010,1,0
352,152,292085,1,0
352,136,292160,1,0
352,120,292235,1,8
352,104,292310,1,0
336,104,292385,5,0
320,104,292460,1,0
304,104,292535,1,8
288,104,292610,1,0
272,104,292685,1,0
256,104,292760,1,0
240,104,292835,1,8
224,104,292910,1,0
208,104,292985,6,0,B|184:56|216:16,2,90,4|8|0
136,104,293435,1,8
120,136,293510,1,0
112,176,293585,1,0
120,208,293660,1,0
136,240,293735,2,0,B|248:240|248:88,1,180,12|8
328,232,294185,2,0,B|216:232|216:384,1,180,4|0
328,312,294635,5,8
360,304,294710,1,0
392,280,294785,1,0
400,248,294860,1,0
392,216,294935,2,0,B|392:112|264:112,1,180,12|8
312,192,295385,2,0,B|312:296|192:296,1,180,4|0
192,224,295835,2,0,B|248:224|248:152,1,90,8|4
248,88,296135,6,0,B|168:88|168:88|128:16,2,135,8|0|0
328,88,296735,2,0,B|328:160|328:160|368:200|368:200|368:272,1,180,8|8
304,384,297185,2,0,B|304:312|304:312|264:272|264:272|264:200,1,180,4|4
184,224,297635,2,0,B|120:224,2,45,8|0|0
0,120,298085,5,0
184,48,298235,5,8
216,48,298310,1,0
248,48,298385,1,0
280,48,298460,1,0
312,48,298535,2,0,B|408:48|408:48|472:128,1,180,12|8
368,128,298985,2,0,B|368:224|368:224|296:288,1,180
216,280,299435,5,8
184,280,299510,1,0
152,280,299585,1,0
120,280,299660,1,0
88,280,299735,2,0,B|32:240|32:240|32:112,1,180,12|8
56,24,300185,2,0,B|120:72|120:72|120:184,1,180
216,280,300635,6,0,B|184:240|184:240|184:192,1,90,8|4
272,24,300935,2,0,B|304:64|304:64|304:128,1,90,8|4
384,280,301235,2,0,B|352:240|352:240|352:176,1,90,8|4
432,24,301535,1,8
432,24,301610,1,0
272,112,301835,1,8
272,112,301910,1,0
432,200,302135,1,8
432,200,302210,1,0
272,288,302435,1,8
272,288,302510,1,0
272,288,302585,6,0,L|232:312|184:312,1,90,4|0
296,184,302885,2,0,L|336:160|392:160,1,90
464,288,303185,1,4
448,296,303260,1,0
432,304,303335,1,0
416,312,303410,1,0
400,320,303485,2,0,L|360:344|304:344,1,90,4|0
192,344,303785,6,0,L|192:296|224:256,1,90,4|0
144,144,304085,2,0,L|144:200|112:240,1,90
0,160,304385,1,4
0,144,304460,1,0
0,128,304535,1,0
0,112,304610,1,0
0,96,304685,2,0,L|0:40|32:16,1,90,4|0
184,80,304985,6,0,B|224:104|272:80,1,90,4|0
376,176,305285,2,0,B|336:152|288:176,1,90
192,272,305585,1,4
192,288,305660,1,0
200,304,305735,1,0
216,312,305810,1,0
232,320,305885,2,0,B|280:344|336:312,1,90,4|0
424,256,306185,6,0,B|448:216|416:152,1,90,4|0
272,136,306485,2,0,B|248:184|272:224,1,90
424,96,306785,1,4
424,80,306860,1,0
416,64,306935,1,0
408,48,307010,1,0
392,40,307085,2,0,B|352:8|304:24,1,90,4|0
192,136,307385,6,0,B|192:184|136:208,1,90,4|0
24,88,307685,2,0,B|24:32|88:16,1,90
256,24,307985,1,4
272,24,308060,1,0
288,32,308135,1,0
296,48,308210,1,0
296,64,308285,2,0,B|296:120|240:136,1,90,4|0
128,208,308585,6,0,B|80:208|64:152,1,90,4|0
216,88,308885,2,0,B|264:88|296:160,1,90
400,296,309185,1,4
384,296,309260,1,0
368,296,309335,1,0
352,296,309410,1,0
336,296,309485,2,0,B|288:296|264:240,1,90,4|0
136,128,309785,5,4
144,112,309860,1,0
152,96,309935,1,0
224,224,310085,1,4
216,240,310160,1,0
208,256,310235,1,0
312,128,310385,1,4
328,128,310460,1,0
344,128,310535,1,0
360,128,310610,1,0
376,128,310685,2,0,B|424:128|480:128,1,90
320,272,310985,5,4
308,284,311060,1,0
304,300,311135,1,0
448,256,311285,1,4
460,244,311360,1,0
464,228,311435,1,0
288,152,311585,1,4
272,156,311660,1,0
256,164,311735,1,4
244,176,311810,1,0
232,192,311885,2,4,B|208:240|236:292,1,90
408,160,312185,6,0,B|408:112|352:88,1,90,4|0
192,32,312485,2,0,B|192:80|240:104,1,90
336,272,312785,1,4
336,256,312860,1,0
336,240,312935,1,0
336,224,313010,1,0
336,208,313085,2,0,B|336:160|280:144,1,90,4|0
80,144,313385,6,0,B|80:192|144:224,1,90,4|0
256,128,313685,2,0,B|256:80|192:48,1,90
176,240,313985,1,4
176,256,314060,1,0
176,272,314135,1,0
176,288,314210,1,0
176,304,314285,2,0,B|176:352|240:368,1,90,4|0
400,368,314585,6,0,L|448:368|488:328,1,90,4|0
352,256,314885,2,0,L|304:256|272:288,1,90
480,248,315185,1,4
480,232,315260,1,0
480,216,315335,1,0
480,200,315410,1,0
480,184,315485,2,0,L|480:136|440:104,1,90,4|0
280,112,315785,6,0,L|232:112|184:72,1,90,4|0
328,192,316085,2,0,L|376:192|416:232,1,90
272,312,316385,1,4
256,312,316460,1,0
240,312,316535,1,0
224,312,316610,1,0
208,312,316685,2,0,L|160:312|120:272,1,90,4|0
128,144,316985,6,0,L|128:88|152:48,1,90,4|0
240,200,317285,2,0,L|240:256|216:288,1,90
56,192,317585,1,4
56,176,317660,1,0
56,160,317735,1,0
56,144,317810,1,0
56,128,317885,2,0,L|56:72|80:32,1,90,4|0
224,48,318185,6,0,L|312:24,1,90,4|0
416,112,318485,2,0,L|320:144,1,90
208,200,318785,1,4
224,208,318860,1,0
240,216,318935,1,0
256,224,319010,1,0
272,232,319085,2,0,L|352:272,1,90,4|0
472,280,319385,5,4
480,296,319460,1,0
488,312,319535,1,0
376,208,319685,1,4
384,224,319760,1,0
392,240,319835,1,0
288,136,319985,5,4
296,152,320060,1,0
304,168,320135,1,0
192,72,320285,1,4
200,88,320360,1,0
208,104,320435,1,0
96,8,320585,5,4
456,192,321035,1,0
88,368,321485,1,0
320,368,321785,5,4
320,368,321860,1,0
320,368,321935,1,0
208,288,322085,1,4
208,288,322160,1,0
208,288,322235,1,0
328,216,322385,5,4
328,216,322460,1,0
328,216,322535,1,0
328,216,322610,1,0
328,216,322685,1,0
328,216,322835,1,4
208,152,322985,5,4
208,152,323060,1,0
208,152,323135,1,0
328,88,323285,1,4
328,88,323360,1,0
328,88,323435,1,0
208,24,323585,5,4
208,24,323660,1,0
208,24,323735,1,0
208,24,323810,1,0
208,24,323885,1,0
208,24,324035,1,4
88,88,324185,5,6
