osu file format v14

[General]
AudioFilename: Demetori Wind God Girl.mp3
AudioLeadIn: 0
PreviewTime: 56624
Countdown: 0
SampleSet: Normal
StackLeniency: 0.7
Mode: 3
LetterboxInBreaks: 1
SpecialStyle: 0
WidescreenStoryboard: 1

[Editor]
DistanceSpacing: 1
BeatDivisor: 4
GridSize: 8
TimelineZoom: 3.599998

[Metadata]
Title:Wind God Girl
TitleUnicode:Wind God Girl
Artist:Demetori
ArtistUnicode:Demetori
Creator:TBSM
Version:BMS 21
Source:Touhou
Tags:風神少女
BeatmapID:766085
BeatmapSetID:347113

[Difficulty]
HPDrainRate:8
CircleSize:7
OverallDifficulty:7
ApproachRate:5
SliderMultiplier:1.4
SliderTickRate:1

[Events]
//Background and Video events
0,0,"213123213232112341.jpg",0,0
//Break Periods
2,115549,123749
//Storyboard Layer 0 (Background)
//Storyboard Layer 1 (Fail)
//Storyboard Layer 2 (Pass)
//Storyboard Layer 3 (Foreground)
//Storyboard Sound Samples

[TimingPoints]
224,300,4,1,0,0,1,0
86549,300,4,1,0,0,1,0

[HitObjects]
109,192,224,5,0,0:0:0:0:
182,192,224,1,0,0:0:0:0:
329,192,224,1,0,0:0:0:0:
402,192,224,1,0,0:0:0:0:
182,192,2474,1,0,0:0:0:0:
329,192,2474,1,0,0:0:0:0:
109,192,2624,1,0,0:0:0:0:
182,192,2624,1,0,0:0:0:0:
329,192,2624,1,0,0:0:0:0:
402,192,2624,1,0,0:0:0:0:
256,192,2624,1,0,0:0:0:0:
36,192,5024,1,0,0:0:0:0:
329,192,5024,1,0,0:0:0:0:
475,192,5024,1,0,0:0:0:0:
256,192,5024,1,0,0:0:0:0:
182,192,5024,1,0,0:0:0:0:
182,192,7274,1,0,0:0:0:0:
329,192,7274,1,0,0:0:0:0:
182,192,7424,1,0,0:0:0:0:
36,192,7424,1,0,0:0:0:0:
329,192,7424,1,0,0:0:0:0:
475,192,7424,1,0,0:0:0:0:
256,192,7424,1,0,0:0:0:0:
182,192,8624,1,0,0:0:0:0:
329,192,8624,1,0,0:0:0:0:
402,192,8624,1,0,0:0:0:0:
475,192,8624,1,0,0:0:0:0:
109,192,8699,1,0,0:0:0:0:
182,192,8774,1,0,0:0:0:0:
256,192,8849,1,0,0:0:0:0:
329,192,8924,1,0,0:0:0:0:
256,192,8999,1,0,0:0:0:0:
402,192,9074,1,0,0:0:0:0:
36,192,9074,1,0,0:0:0:0:
182,192,9074,1,0,0:0:0:0:
475,192,9074,1,0,0:0:0:0:
109,192,9149,1,0,0:0:0:0:
182,192,9224,1,0,0:0:0:0:
256,192,9299,1,0,0:0:0:0:
402,192,9374,1,0,0:0:0:0:
329,192,9449,1,0,0:0:0:0:
256,192,9524,1,0,0:0:0:0:
402,192,9524,1,0,0:0:0:0:
36,192,9524,1,0,0:0:0:0:
475,192,9524,1,0,0:0:0:0:
109,192,9599,1,0,0:0:0:0:
182,192,9674,1,0,0:0:0:0:
256,192,9749,1,0,0:0:0:0:
402,192,9824,1,0,0:0:0:0:
36,192,9824,1,0,0:0:0:0:
109,192,9824,1,0,0:0:0:0:
329,192,9899,1,0,0:0:0:0:
182,192,9899,1,0,0:0:0:0:
256,192,9974,1,0,0:0:0:0:
475,192,9974,1,0,0:0:0:0:
402,192,10049,1,0,0:0:0:0:
36,192,10049,1,0,0:0:0:0:
109,192,10124,1,0,0:0:0:0:
329,192,10124,1,0,0:0:0:0:
256,192,10199,1,0,0:0:0:0:
475,192,10274,1,0,0:0:0:0:
109,192,10274,1,0,0:0:0:0:
182,192,10274,1,0,0:0:0:0:
329,192,10349,1,0,0:0:0:0:
36,192,10349,1,0,0:0:0:0:
256,192,10424,1,0,0:0:0:0:
402,192,10424,1,0,0:0:0:0:
109,192,10499,1,0,0:0:0:0:
329,192,10499,1,0,0:0:0:0:
475,192,10574,1,0,0:0:0:0:
182,192,10574,1,0,0:0:0:0:
256,192,10649,1,0,0:0:0:0:
182,192,10724,1,0,0:0:0:0:
36,192,10724,1,0,0:0:0:0:
402,192,10724,1,0,0:0:0:0:
109,192,10799,1,0,0:0:0:0:
329,192,10799,1,0,0:0:0:0:
182,192,10874,1,0,0:0:0:0:
475,192,10874,1,0,0:0:0:0:
402,192,10949,1,0,0:0:0:0:
36,192,11024,1,0,0:0:0:0:
256,192,11024,1,0,0:0:0:0:
329,192,11024,1,0,0:0:0:0:
109,192,11099,1,0,0:0:0:0:
475,192,11099,1,0,0:0:0:0:
182,192,11174,1,0,0:0:0:0:
402,192,11174,1,0,0:0:0:0:
109,192,11249,1,0,0:0:0:0:
182,192,11324,1,0,0:0:0:0:
256,192,11324,1,0,0:0:0:0:
402,192,11399,1,0,0:0:0:0:
36,192,11474,1,0,0:0:0:0:
256,192,11474,1,0,0:0:0:0:
329,192,11474,1,0,0:0:0:0:
109,192,11549,1,0,0:0:0:0:
475,192,11549,1,0,0:0:0:0:
402,192,11624,1,0,0:0:0:0:
256,192,11624,1,0,0:0:0:0:
36,192,11699,1,0,0:0:0:0:
329,192,11699,1,0,0:0:0:0:
182,192,11774,1,0,0:0:0:0:
475,192,11774,1,0,0:0:0:0:
109,192,11849,1,0,0:0:0:0:
256,192,11849,1,0,0:0:0:0:
402,192,11924,1,0,0:0:0:0:
329,192,11924,1,0,0:0:0:0:
182,192,11924,1,0,0:0:0:0:
36,192,11999,1,0,0:0:0:0:
475,192,11999,1,0,0:0:0:0:
109,192,12074,1,0,0:0:0:0:
256,192,12074,1,0,0:0:0:0:
402,192,12149,1,0,0:0:0:0:
36,192,12224,1,0,0:0:0:0:
182,192,12224,1,0,0:0:0:0:
256,192,12224,1,0,0:0:0:0:
329,192,12299,1,0,0:0:0:0:
109,192,12299,1,0,0:0:0:0:
182,192,12374,1,0,0:0:0:0:
475,192,12374,1,0,0:0:0:0:
36,192,12449,1,0,0:0:0:0:
256,192,12449,1,0,0:0:0:0:
182,192,12524,1,0,0:0:0:0:
402,192,12524,1,0,0:0:0:0:
256,192,12599,1,0,0:0:0:0:
36,192,12674,1,0,0:0:0:0:
109,192,12674,1,0,0:0:0:0:
329,192,12674,1,0,0:0:0:0:
182,192,12749,1,0,0:0:0:0:
475,192,12749,1,0,0:0:0:0:
109,192,12824,1,0,0:0:0:0:
256,192,12824,1,0,0:0:0:0:
402,192,12899,1,0,0:0:0:0:
182,192,12899,1,0,0:0:0:0:
36,192,12974,1,0,0:0:0:0:
329,192,12974,1,0,0:0:0:0:
109,192,13049,1,0,0:0:0:0:
256,192,13124,1,0,0:0:0:0:
329,192,13124,1,0,0:0:0:0:
402,192,13124,1,0,0:0:0:0:
182,192,13199,1,0,0:0:0:0:
475,192,13199,1,0,0:0:0:0:
256,192,13274,1,0,0:0:0:0:
36,192,13274,1,0,0:0:0:0:
402,192,13349,1,0,0:0:0:0:
109,192,13424,1,0,0:0:0:0:
182,192,13424,1,0,0:0:0:0:
329,192,13424,1,0,0:0:0:0:
256,192,13499,1,0,0:0:0:0:
36,192,13499,1,0,0:0:0:0:
475,192,13574,1,0,0:0:0:0:
182,192,13574,1,0,0:0:0:0:
109,192,13649,1,0,0:0:0:0:
329,192,13649,1,0,0:0:0:0:
256,192,13724,1,0,0:0:0:0:
402,192,13724,1,0,0:0:0:0:
182,192,13799,1,0,0:0:0:0:
329,192,13874,1,0,0:0:0:0:
256,192,13874,1,0,0:0:0:0:
36,192,13874,1,0,0:0:0:0:
109,192,13949,1,0,0:0:0:0:
402,192,13949,1,0,0:0:0:0:
256,192,14024,1,0,0:0:0:0:
475,192,14024,1,0,0:0:0:0:
36,192,14099,1,0,0:0:0:0:
329,192,14099,1,0,0:0:0:0:
182,192,14174,1,0,0:0:0:0:
402,192,14174,1,0,0:0:0:0:
256,192,14249,1,0,0:0:0:0:
402,192,14324,1,0,0:0:0:0:
329,192,14324,1,0,0:0:0:0:
109,192,14324,1,0,0:0:0:0:
182,192,14399,1,0,0:0:0:0:
475,192,14399,1,0,0:0:0:0:
36,192,14474,1,0,0:0:0:0:
256,192,14474,1,0,0:0:0:0:
182,192,14549,1,0,0:0:0:0:
402,192,14549,1,0,0:0:0:0:
109,192,14624,1,0,0:0:0:0:
329,192,14624,1,0,0:0:0:0:
475,192,14624,1,0,0:0:0:0:
36,192,14624,1,0,0:0:0:0:
182,192,14699,1,0,0:0:0:0:
256,192,14774,1,0,0:0:0:0:
329,192,14849,1,0,0:0:0:0:
402,192,14924,1,0,0:0:0:0:
329,192,14999,1,0,0:0:0:0:
109,192,15074,1,0,0:0:0:0:
256,192,15074,1,0,0:0:0:0:
402,192,15074,1,0,0:0:0:0:
475,192,15074,1,0,0:0:0:0:
182,192,15149,1,0,0:0:0:0:
256,192,15224,1,0,0:0:0:0:
329,192,15299,1,0,0:0:0:0:
402,192,15374,1,0,0:0:0:0:
475,192,15449,1,0,0:0:0:0:
109,192,15524,1,0,0:0:0:0:
402,192,15524,1,0,0:0:0:0:
329,192,15524,1,0,0:0:0:0:
36,192,15524,1,0,0:0:0:0:
182,192,15599,1,0,0:0:0:0:
256,192,15674,1,0,0:0:0:0:
329,192,15749,1,0,0:0:0:0:
109,192,15824,1,0,0:0:0:0:
182,192,15824,1,0,0:0:0:0:
402,192,15824,1,0,0:0:0:0:
475,192,15824,1,0,0:0:0:0:
256,192,15899,1,0,0:0:0:0:
329,192,15974,1,0,0:0:0:0:
402,192,16049,1,0,0:0:0:0:
329,192,16124,1,0,0:0:0:0:
256,192,16199,1,0,0:0:0:0:
36,192,16274,1,0,0:0:0:0:
182,192,16274,1,0,0:0:0:0:
329,192,16274,1,0,0:0:0:0:
402,192,16274,1,0,0:0:0:0:
109,192,16349,1,0,0:0:0:0:
182,192,16424,1,0,0:0:0:0:
256,192,16499,1,0,0:0:0:0:
329,192,16574,1,0,0:0:0:0:
256,192,16649,1,0,0:0:0:0:
36,192,16724,1,0,0:0:0:0:
182,192,16724,1,0,0:0:0:0:
329,192,16724,1,0,0:0:0:0:
402,192,16724,1,0,0:0:0:0:
109,192,16799,1,0,0:0:0:0:
182,192,16874,1,0,0:0:0:0:
256,192,16949,1,0,0:0:0:0:
109,192,17024,1,0,0:0:0:0:
329,192,17024,1,0,0:0:0:0:
402,192,17024,1,0,0:0:0:0:
475,192,17024,1,0,0:0:0:0:
182,192,17099,1,0,0:0:0:0:
256,192,17099,1,0,0:0:0:0:
36,192,17174,1,0,0:0:0:0:
402,192,17174,1,0,0:0:0:0:
109,192,17249,1,0,0:0:0:0:
329,192,17249,1,0,0:0:0:0:
402,192,17324,1,0,0:0:0:0:
256,192,17324,1,0,0:0:0:0:
475,192,17399,1,0,0:0:0:0:
182,192,17399,1,0,0:0:0:0:
329,192,17474,1,0,0:0:0:0:
36,192,17474,1,0,0:0:0:0:
109,192,17474,1,0,0:0:0:0:
256,192,17474,1,0,0:0:0:0:
182,192,17549,1,0,0:0:0:0:
475,192,17549,1,0,0:0:0:0:
402,192,17624,1,0,0:0:0:0:
109,192,17624,1,0,0:0:0:0:
182,192,17699,1,0,0:0:0:0:
329,192,17699,1,0,0:0:0:0:
402,192,17774,1,0,0:0:0:0:
109,192,17774,1,0,0:0:0:0:
36,192,17849,1,0,0:0:0:0:
182,192,17849,1,0,0:0:0:0:
329,192,17924,1,0,0:0:0:0:
256,192,17924,1,0,0:0:0:0:
109,192,17924,1,0,0:0:0:0:
475,192,17924,1,0,0:0:0:0:
402,192,17999,1,0,0:0:0:0:
182,192,17999,1,0,0:0:0:0:
256,192,18074,1,0,0:0:0:0:
329,192,18149,1,0,0:0:0:0:
36,192,18224,1,0,0:0:0:0:
109,192,18224,1,0,0:0:0:0:
182,192,18224,1,0,0:0:0:0:
475,192,18224,1,0,0:0:0:0:
256,192,18299,1,0,0:0:0:0:
402,192,18299,1,0,0:0:0:0:
475,192,18374,1,0,0:0:0:0:
109,192,18374,1,0,0:0:0:0:
182,192,18449,1,0,0:0:0:0:
329,192,18449,1,0,0:0:0:0:
36,192,18524,1,0,0:0:0:0:
402,192,18524,1,0,0:0:0:0:
475,192,18599,1,0,0:0:0:0:
182,192,18599,1,0,0:0:0:0:
329,192,18674,1,0,0:0:0:0:
402,192,18674,1,0,0:0:0:0:
109,192,18674,1,0,0:0:0:0:
256,192,18674,1,0,0:0:0:0:
182,192,18749,1,0,0:0:0:0:
36,192,18749,1,0,0:0:0:0:
256,192,18824,1,0,0:0:0:0:
475,192,18824,1,0,0:0:0:0:
109,192,18899,1,0,0:0:0:0:
329,192,18899,1,0,0:0:0:0:
402,192,18974,1,0,0:0:0:0:
182,192,18974,1,0,0:0:0:0:
36,192,19049,1,0,0:0:0:0:
329,192,19049,1,0,0:0:0:0:
402,192,19124,1,0,0:0:0:0:
109,192,19124,1,0,0:0:0:0:
182,192,19124,1,0,0:0:0:0:
256,192,19124,1,0,0:0:0:0:
329,192,19199,1,0,0:0:0:0:
36,192,19274,1,0,0:0:0:0:
109,192,19274,1,0,0:0:0:0:
182,192,19274,1,0,0:0:0:0:
329,192,19349,1,0,0:0:0:0:
402,192,19424,1,0,0:0:0:0:
36,192,19424,1,0,0:0:0:0:
109,192,19424,1,0,0:0:0:0:
329,192,19499,1,0,0:0:0:0:
182,192,19499,1,0,0:0:0:0:
256,192,19574,1,0,0:0:0:0:
475,192,19574,1,0,0:0:0:0:
402,192,19649,1,0,0:0:0:0:
36,192,19649,1,0,0:0:0:0:
329,192,19724,1,0,0:0:0:0:
109,192,19724,1,0,0:0:0:0:
256,192,19799,1,0,0:0:0:0:
109,192,19874,1,0,0:0:0:0:
182,192,19874,1,0,0:0:0:0:
475,192,19874,1,0,0:0:0:0:
36,192,19949,1,0,0:0:0:0:
329,192,19949,1,0,0:0:0:0:
256,192,20024,1,0,0:0:0:0:
402,192,20024,1,0,0:0:0:0:
109,192,20099,1,0,0:0:0:0:
329,192,20099,1,0,0:0:0:0:
182,192,20174,1,0,0:0:0:0:
475,192,20174,1,0,0:0:0:0:
256,192,20249,1,0,0:0:0:0:
36,192,20324,1,0,0:0:0:0:
182,192,20324,1,0,0:0:0:0:
402,192,20324,1,0,0:0:0:0:
329,192,20399,1,0,0:0:0:0:
109,192,20399,1,0,0:0:0:0:
475,192,20474,1,0,0:0:0:0:
182,192,20474,1,0,0:0:0:0:
402,192,20549,1,0,0:0:0:0:
256,192,20624,1,0,0:0:0:0:
36,192,20624,1,0,0:0:0:0:
329,192,20624,1,0,0:0:0:0:
109,192,20699,1,0,0:0:0:0:
475,192,20699,1,0,0:0:0:0:
402,192,20774,1,0,0:0:0:0:
182,192,20774,1,0,0:0:0:0:
109,192,20849,1,0,0:0:0:0:
256,192,20924,1,0,0:0:0:0:
182,192,20924,1,0,0:0:0:0:
402,192,20999,1,0,0:0:0:0:
256,192,21074,1,0,0:0:0:0:
36,192,21074,1,0,0:0:0:0:
329,192,21074,1,0,0:0:0:0:
109,192,21149,1,0,0:0:0:0:
475,192,21149,1,0,0:0:0:0:
402,192,21224,1,0,0:0:0:0:
256,192,21224,1,0,0:0:0:0:
329,192,21299,1,0,0:0:0:0:
36,192,21299,1,0,0:0:0:0:
475,192,21374,1,0,0:0:0:0:
182,192,21374,1,0,0:0:0:0:
256,192,21449,1,0,0:0:0:0:
109,192,21449,1,0,0:0:0:0:
329,192,21524,1,0,0:0:0:0:
402,192,21524,1,0,0:0:0:0:
182,192,21524,1,0,0:0:0:0:
475,192,21599,1,0,0:0:0:0:
36,192,21599,1,0,0:0:0:0:
256,192,21674,1,0,0:0:0:0:
109,192,21674,1,0,0:0:0:0:
402,192,21749,1,0,0:0:0:0:
256,192,21824,1,0,0:0:0:0:
182,192,21824,1,0,0:0:0:0:
36,192,21824,1,0,0:0:0:0:
329,192,21899,1,0,0:0:0:0:
109,192,21899,1,0,0:0:0:0:
475,192,21974,1,0,0:0:0:0:
182,192,21974,1,0,0:0:0:0:
36,192,22049,1,0,0:0:0:0:
256,192,22049,1,0,0:0:0:0:
402,192,22124,1,0,0:0:0:0:
182,192,22124,1,0,0:0:0:0:
256,192,22199,1,0,0:0:0:0:
36,192,22274,1,0,0:0:0:0:
109,192,22274,1,0,0:0:0:0:
329,192,22274,1,0,0:0:0:0:
475,192,22349,1,0,0:0:0:0:
182,192,22349,1,0,0:0:0:0:
256,192,22424,1,0,0:0:0:0:
109,192,22424,1,0,0:0:0:0:
402,192,22499,1,0,0:0:0:0:
182,192,22499,1,0,0:0:0:0:
329,192,22574,1,0,0:0:0:0:
36,192,22574,1,0,0:0:0:0:
109,192,22649,1,0,0:0:0:0:
402,192,22724,1,0,0:0:0:0:
256,192,22724,1,0,0:0:0:0:
329,192,22724,1,0,0:0:0:0:
475,192,22799,1,0,0:0:0:0:
182,192,22799,1,0,0:0:0:0:
36,192,22874,1,0,0:0:0:0:
256,192,22874,1,0,0:0:0:0:
402,192,22949,1,0,0:0:0:0:
182,192,23024,1,0,0:0:0:0:
109,192,23024,1,0,0:0:0:0:
329,192,23024,1,0,0:0:0:0:
256,192,23099,1,0,0:0:0:0:
36,192,23099,1,0,0:0:0:0:
475,192,23174,1,0,0:0:0:0:
182,192,23174,1,0,0:0:0:0:
329,192,23249,1,0,0:0:0:0:
402,192,23249,1,0,0:0:0:0:
109,192,23324,1,0,0:0:0:0:
256,192,23324,1,0,0:0:0:0:
182,192,23399,1,0,0:0:0:0:
109,192,23474,1,0,0:0:0:0:
475,192,23474,1,0,0:0:0:0:
329,192,23474,1,0,0:0:0:0:
36,192,23549,1,0,0:0:0:0:
402,192,23549,1,0,0:0:0:0:
182,192,23624,1,0,0:0:0:0:
256,192,23624,1,0,0:0:0:0:
109,192,23699,1,0,0:0:0:0:
475,192,23699,1,0,0:0:0:0:
402,192,23774,1,0,0:0:0:0:
182,192,23774,1,0,0:0:0:0:
256,192,23849,1,0,0:0:0:0:
182,192,23924,1,0,0:0:0:0:
36,192,23924,1,0,0:0:0:0:
475,192,23924,1,0,0:0:0:0:
109,192,23999,1,0,0:0:0:0:
329,192,23999,1,0,0:0:0:0:
256,192,24074,1,0,0:0:0:0:
402,192,24074,1,0,0:0:0:0:
182,192,24149,1,0,0:0:0:0:
36,192,24224,1,0,0:0:0:0:
329,192,24224,1,0,0:0:0:0:
256,192,24224,1,0,0:0:0:0:
109,192,24224,1,0,0:0:0:0:
182,192,24299,1,0,0:0:0:0:
256,192,24374,1,0,0:0:0:0:
329,192,24449,1,0,0:0:0:0:
402,192,24524,1,0,0:0:0:0:
329,192,24599,1,0,0:0:0:0:
36,192,24674,1,0,0:0:0:0:
256,192,24674,1,0,0:0:0:0:
182,192,24674,1,0,0:0:0:0:
475,192,24674,1,0,0:0:0:0:
402,192,24749,1,0,0:0:0:0:
329,192,24824,1,0,0:0:0:0:
256,192,24899,1,0,0:0:0:0:
329,192,24974,1,0,0:0:0:0:
402,192,25049,1,0,0:0:0:0:
329,192,25124,1,0,0:0:0:0:
256,192,25124,1,0,0:0:0:0:
109,192,25124,1,0,0:0:0:0:
475,192,25124,1,0,0:0:0:0:
182,192,25199,1,0,0:0:0:0:
109,192,25274,1,0,0:0:0:0:
36,192,25349,1,0,0:0:0:0:
109,192,25424,1,0,0:0:0:0:
256,192,25424,1,0,0:0:0:0:
329,192,25424,1,0,0:0:0:0:
402,192,25424,1,0,0:0:0:0:
182,192,25499,1,0,0:0:0:0:
256,192,25574,1,0,0:0:0:0:
329,192,25649,1,0,0:0:0:0:
402,192,25724,1,0,0:0:0:0:
329,192,25799,1,0,0:0:0:0:
109,192,25874,1,0,0:0:0:0:
182,192,25874,1,0,0:0:0:0:
402,192,25874,1,0,0:0:0:0:
475,192,25874,1,0,0:0:0:0:
256,192,25949,1,0,0:0:0:0:
329,192,26024,1,0,0:0:0:0:
402,192,26099,1,0,0:0:0:0:
475,192,26174,1,0,0:0:0:0:
402,192,26249,1,0,0:0:0:0:
182,192,26324,1,0,0:0:0:0:
256,192,26324,1,0,0:0:0:0:
329,192,26324,1,0,0:0:0:0:
36,192,26324,1,0,0:0:0:0:
109,192,26399,1,0,0:0:0:0:
182,192,26474,1,0,0:0:0:0:
256,192,26549,1,0,0:0:0:0:
402,192,26624,1,0,0:0:0:0:
475,192,26624,1,0,0:0:0:0:
182,192,26624,1,0,0:0:0:0:
109,192,26624,1,0,0:0:0:0:
329,192,26699,1,0,0:0:0:0:
36,192,26699,1,0,0:0:0:0:
256,192,26774,1,0,0:0:0:0:
109,192,26774,1,0,0:0:0:0:
329,192,26849,1,0,0:0:0:0:
36,192,26849,1,0,0:0:0:0:
256,192,26924,1,0,0:0:0:0:
109,192,26924,1,0,0:0:0:0:
402,192,26924,1,0,0:0:0:0:
182,192,26999,1,0,0:0:0:0:
475,192,26999,1,0,0:0:0:0:
402,192,27074,1,0,0:0:0:0:
109,192,27074,1,0,0:0:0:0:
36,192,27074,1,0,0:0:0:0:
329,192,27074,1,0,0:0:0:0:
475,192,27149,1,0,0:0:0:0:
182,192,27149,1,0,0:0:0:0:
256,192,27224,1,0,0:0:0:0:
402,192,27224,1,0,0:0:0:0:
182,192,27299,1,0,0:0:0:0:
475,192,27299,1,0,0:0:0:0:
402,192,27374,1,0,0:0:0:0:
256,192,27374,1,0,0:0:0:0:
109,192,27374,1,0,0:0:0:0:
329,192,27449,1,0,0:0:0:0:
36,192,27449,1,0,0:0:0:0:
109,192,27524,1,0,0:0:0:0:
182,192,27524,1,0,0:0:0:0:
402,192,27524,1,0,0:0:0:0:
475,192,27599,1,0,0:0:0:0:
36,192,27599,1,0,0:0:0:0:
402,192,27674,1,0,0:0:0:0:
182,192,27674,1,0,0:0:0:0:
329,192,27749,1,0,0:0:0:0:
109,192,27749,1,0,0:0:0:0:
256,192,27824,1,0,0:0:0:0:
36,192,27824,1,0,0:0:0:0:
475,192,27824,1,0,0:0:0:0:
329,192,27899,1,0,0:0:0:0:
182,192,27899,1,0,0:0:0:0:
402,192,27974,1,0,0:0:0:0:
109,192,27974,1,0,0:0:0:0:
256,192,27974,1,0,0:0:0:0:
182,192,28049,1,0,0:0:0:0:
475,192,28049,1,0,0:0:0:0:
402,192,28124,1,0,0:0:0:0:
256,192,28124,1,0,0:0:0:0:
36,192,28124,1,0,0:0:0:0:
475,192,28199,1,0,0:0:0:0:
182,192,28199,1,0,0:0:0:0:
402,192,28274,1,0,0:0:0:0:
36,192,28274,1,0,0:0:0:0:
256,192,28274,1,0,0:0:0:0:
109,192,28349,1,0,0:0:0:0:
329,192,28349,1,0,0:0:0:0:
256,192,28424,1,0,0:0:0:0:
475,192,28424,1,0,0:0:0:0:
329,192,28499,1,0,0:0:0:0:
182,192,28499,1,0,0:0:0:0:
402,192,28574,1,0,0:0:0:0:
36,192,28574,1,0,0:0:0:0:
256,192,28574,1,0,0:0:0:0:
329,192,28649,1,0,0:0:0:0:
182,192,28649,1,0,0:0:0:0:
402,192,28724,1,0,0:0:0:0:
109,192,28724,1,0,0:0:0:0:
36,192,28724,1,0,0:0:0:0:
475,192,28799,1,0,0:0:0:0:
256,192,28799,1,0,0:0:0:0:
182,192,28874,1,0,0:0:0:0:
329,192,28874,1,0,0:0:0:0:
36,192,28874,1,0,0:0:0:0:
109,192,28949,1,0,0:0:0:0:
402,192,28949,1,0,0:0:0:0:
256,192,29024,1,0,0:0:0:0:
182,192,29174,1,0,0:0:0:0:
256,192,29174,1,0,0:0:0:0:
329,192,29174,1,0,0:0:0:0:
402,192,29174,1,0,0:0:0:0:
182,192,29324,1,0,0:0:0:0:
109,192,29474,1,0,0:0:0:0:
182,192,29474,1,0,0:0:0:0:
402,192,29474,1,0,0:0:0:0:
475,192,29474,1,0,0:0:0:0:
402,192,29624,1,0,0:0:0:0:
329,192,29774,1,0,0:0:0:0:
402,192,29774,1,0,0:0:0:0:
109,192,29774,1,0,0:0:0:0:
36,192,29774,1,0,0:0:0:0:
109,192,29924,1,0,0:0:0:0:
109,192,30074,1,0,0:0:0:0:
182,192,30074,1,0,0:0:0:0:
256,192,30074,1,0,0:0:0:0:
475,192,30074,1,0,0:0:0:0:
256,192,30224,1,0,0:0:0:0:
182,192,30374,1,0,0:0:0:0:
256,192,30374,1,0,0:0:0:0:
402,192,30374,1,0,0:0:0:0:
475,192,30374,1,0,0:0:0:0:
182,192,30524,1,0,0:0:0:0:
182,192,30674,1,0,0:0:0:0:
36,192,30674,1,0,0:0:0:0:
256,192,30674,1,0,0:0:0:0:
402,192,30674,1,0,0:0:0:0:
402,192,30824,1,0,0:0:0:0:
402,192,30974,1,0,0:0:0:0:
329,192,30974,1,0,0:0:0:0:
109,192,30974,1,0,0:0:0:0:
256,192,30974,1,0,0:0:0:0:
329,192,31124,1,0,0:0:0:0:
256,192,31274,1,0,0:0:0:0:
329,192,31274,1,0,0:0:0:0:
475,192,31274,1,0,0:0:0:0:
36,192,31274,1,0,0:0:0:0:
36,192,31424,1,0,0:0:0:0:
36,192,31574,1,0,0:0:0:0:
182,192,31574,1,0,0:0:0:0:
109,192,31574,1,0,0:0:0:0:
402,192,31574,1,0,0:0:0:0:
182,192,31724,1,0,0:0:0:0:
182,192,31874,1,0,0:0:0:0:
256,192,31874,1,0,0:0:0:0:
329,192,31874,1,0,0:0:0:0:
36,192,31874,1,0,0:0:0:0:
329,192,32024,1,0,0:0:0:0:
329,192,32174,1,0,0:0:0:0:
256,192,32174,1,0,0:0:0:0:
109,192,32174,1,0,0:0:0:0:
402,192,32174,1,0,0:0:0:0:
402,192,32324,1,0,0:0:0:0:
402,192,32474,1,0,0:0:0:0:
329,192,32474,1,0,0:0:0:0:
36,192,32474,1,0,0:0:0:0:
109,192,32474,1,0,0:0:0:0:
109,192,32624,1,0,0:0:0:0:
109,192,32774,1,0,0:0:0:0:
182,192,32774,1,0,0:0:0:0:
329,192,32774,1,0,0:0:0:0:
475,192,32774,1,0,0:0:0:0:
182,192,32924,1,0,0:0:0:0:
109,192,33074,1,0,0:0:0:0:
182,192,33074,1,0,0:0:0:0:
256,192,33074,1,0,0:0:0:0:
402,192,33074,1,0,0:0:0:0:
329,192,33224,1,0,0:0:0:0:
109,192,33224,1,0,0:0:0:0:
402,192,33299,1,0,0:0:0:0:
182,192,33299,1,0,0:0:0:0:
475,192,33374,1,0,0:0:0:0:
256,192,33374,1,0,0:0:0:0:
402,192,33449,1,0,0:0:0:0:
182,192,33449,1,0,0:0:0:0:
475,192,33524,1,0,0:0:0:0:
109,192,33524,1,0,0:0:0:0:
402,192,33599,1,0,0:0:0:0:
182,192,33599,1,0,0:0:0:0:
329,192,33674,1,0,0:0:0:0:
36,192,33674,1,0,0:0:0:0:
109,192,33749,1,0,0:0:0:0:
402,192,33749,1,0,0:0:0:0:
182,192,33824,1,0,0:0:0:0:
109,192,33974,1,0,0:0:0:0:
182,192,33974,1,0,0:0:0:0:
256,192,33974,1,0,0:0:0:0:
475,192,33974,1,0,0:0:0:0:
256,192,34124,1,0,0:0:0:0:
256,192,34274,1,0,0:0:0:0:
182,192,34274,1,0,0:0:0:0:
402,192,34274,1,0,0:0:0:0:
36,192,34274,1,0,0:0:0:0:
402,192,34424,1,0,0:0:0:0:
402,192,34574,1,0,0:0:0:0:
329,192,34574,1,0,0:0:0:0:
109,192,34574,1,0,0:0:0:0:
182,192,34574,1,0,0:0:0:0:
109,192,34724,1,0,0:0:0:0:
109,192,34874,1,0,0:0:0:0:
256,192,34874,1,0,0:0:0:0:
329,192,34874,1,0,0:0:0:0:
475,192,34874,1,0,0:0:0:0:
329,192,35024,1,0,0:0:0:0:
329,192,35174,1,0,0:0:0:0:
256,192,35174,1,0,0:0:0:0:
36,192,35174,1,0,0:0:0:0:
182,192,35174,1,0,0:0:0:0:
182,192,35324,1,0,0:0:0:0:
109,192,35474,1,0,0:0:0:0:
182,192,35474,1,0,0:0:0:0:
329,192,35474,1,0,0:0:0:0:
402,192,35474,1,0,0:0:0:0:
402,192,35624,1,0,0:0:0:0:
402,192,35774,1,0,0:0:0:0:
329,192,35774,1,0,0:0:0:0:
36,192,35774,1,0,0:0:0:0:
256,192,35774,1,0,0:0:0:0:
36,192,35924,1,0,0:0:0:0:
36,192,36074,1,0,0:0:0:0:
182,192,36074,1,0,0:0:0:0:
256,192,36074,1,0,0:0:0:0:
402,192,36074,1,0,0:0:0:0:
182,192,36224,1,0,0:0:0:0:
109,192,36374,1,0,0:0:0:0:
182,192,36374,1,0,0:0:0:0:
329,192,36374,1,0,0:0:0:0:
475,192,36374,1,0,0:0:0:0:
475,192,36524,1,0,0:0:0:0:
475,192,36674,1,0,0:0:0:0:
402,192,36674,1,0,0:0:0:0:
256,192,36674,1,0,0:0:0:0:
182,192,36674,1,0,0:0:0:0:
182,192,36824,1,0,0:0:0:0:
109,192,36974,1,0,0:0:0:0:
182,192,36974,1,0,0:0:0:0:
329,192,36974,1,0,0:0:0:0:
402,192,36974,1,0,0:0:0:0:
402,192,37124,1,0,0:0:0:0:
182,192,37124,1,0,0:0:0:0:
475,192,37199,1,0,0:0:0:0:
109,192,37199,1,0,0:0:0:0:
402,192,37274,1,0,0:0:0:0:
182,192,37274,1,0,0:0:0:0:
475,192,37349,1,0,0:0:0:0:
109,192,37349,1,0,0:0:0:0:
402,192,37424,1,0,0:0:0:0:
36,192,37424,1,0,0:0:0:0:
182,192,37424,1,0,0:0:0:0:
109,192,37499,1,0,0:0:0:0:
329,192,37499,1,0,0:0:0:0:
402,192,37574,1,0,0:0:0:0:
256,192,37574,1,0,0:0:0:0:
475,192,37649,1,0,0:0:0:0:
109,192,37649,1,0,0:0:0:0:
256,192,37724,1,0,0:0:0:0:
329,192,37799,1,0,0:0:0:0:
182,192,37874,1,0,0:0:0:0:
36,192,37874,1,0,0:0:0:0:
402,192,37874,1,0,0:0:0:0:
109,192,37949,1,0,0:0:0:0:
329,192,37949,1,0,0:0:0:0:
182,192,38024,1,0,0:0:0:0:
475,192,38024,1,0,0:0:0:0:
109,192,38099,1,0,0:0:0:0:
402,192,38099,1,0,0:0:0:0:
256,192,38174,1,0,0:0:0:0:
475,192,38174,1,0,0:0:0:0:
36,192,38174,1,0,0:0:0:0:
329,192,38249,1,0,0:0:0:0:
109,192,38324,1,0,0:0:0:0:
182,192,38324,1,0,0:0:0:0:
402,192,38399,1,0,0:0:0:0:
329,192,38399,1,0,0:0:0:0:
109,192,38474,1,0,0:0:0:0:
182,192,38474,1,0,0:0:0:0:
329,192,38549,1,0,0:0:0:0:
402,192,38549,1,0,0:0:0:0:
109,192,38624,1,0,0:0:0:0:
182,192,38624,1,0,0:0:0:0:
182,192,38774,1,0,0:0:0:0:
329,192,38774,1,0,0:0:0:0:
402,192,38774,1,0,0:0:0:0:
256,192,38774,1,0,0:0:0:0:
182,192,38924,1,0,0:0:0:0:
402,192,39074,1,0,0:0:0:0:
182,192,39074,1,0,0:0:0:0:
475,192,39074,1,0,0:0:0:0:
109,192,39074,1,0,0:0:0:0:
402,192,39224,1,0,0:0:0:0:
329,192,39374,1,0,0:0:0:0:
36,192,39374,1,0,0:0:0:0:
402,192,39374,1,0,0:0:0:0:
109,192,39374,1,0,0:0:0:0:
109,192,39524,1,0,0:0:0:0:
256,192,39674,1,0,0:0:0:0:
475,192,39674,1,0,0:0:0:0:
109,192,39674,1,0,0:0:0:0:
182,192,39674,1,0,0:0:0:0:
256,192,39824,1,0,0:0:0:0:
182,192,39974,1,0,0:0:0:0:
402,192,39974,1,0,0:0:0:0:
475,192,39974,1,0,0:0:0:0:
256,192,39974,1,0,0:0:0:0:
182,192,40124,1,0,0:0:0:0:
402,192,40274,1,0,0:0:0:0:
182,192,40274,1,0,0:0:0:0:
36,192,40274,1,0,0:0:0:0:
256,192,40274,1,0,0:0:0:0:
402,192,40424,1,0,0:0:0:0:
256,192,40574,1,0,0:0:0:0:
109,192,40574,1,0,0:0:0:0:
329,192,40574,1,0,0:0:0:0:
402,192,40574,1,0,0:0:0:0:
329,192,40724,1,0,0:0:0:0:
475,192,40874,1,0,0:0:0:0:
329,192,40874,1,0,0:0:0:0:
256,192,40874,1,0,0:0:0:0:
36,192,40874,1,0,0:0:0:0:
36,192,41024,1,0,0:0:0:0:
182,192,41174,1,0,0:0:0:0:
36,192,41174,1,0,0:0:0:0:
402,192,41174,1,0,0:0:0:0:
109,192,41174,1,0,0:0:0:0:
182,192,41324,1,0,0:0:0:0:
36,192,41474,1,0,0:0:0:0:
256,192,41474,1,0,0:0:0:0:
329,192,41474,1,0,0:0:0:0:
182,192,41474,1,0,0:0:0:0:
329,192,41624,1,0,0:0:0:0:
256,192,41774,1,0,0:0:0:0:
329,192,41774,1,0,0:0:0:0:
109,192,41774,1,0,0:0:0:0:
402,192,41774,1,0,0:0:0:0:
402,192,41924,1,0,0:0:0:0:
36,192,42074,1,0,0:0:0:0:
402,192,42074,1,0,0:0:0:0:
109,192,42074,1,0,0:0:0:0:
329,192,42074,1,0,0:0:0:0:
109,192,42224,1,0,0:0:0:0:
475,192,42374,1,0,0:0:0:0:
182,192,42374,1,0,0:0:0:0:
329,192,42374,1,0,0:0:0:0:
109,192,42374,1,0,0:0:0:0:
182,192,42524,1,0,0:0:0:0:
182,192,42674,1,0,0:0:0:0:
256,192,42674,1,0,0:0:0:0:
109,192,42674,1,0,0:0:0:0:
402,192,42674,1,0,0:0:0:0:
109,192,42824,1,0,0:0:0:0:
329,192,42824,1,0,0:0:0:0:
182,192,42899,1,0,0:0:0:0:
402,192,42899,1,0,0:0:0:0:
475,192,42974,1,0,0:0:0:0:
256,192,42974,1,0,0:0:0:0:
402,192,43049,1,0,0:0:0:0:
182,192,43049,1,0,0:0:0:0:
109,192,43124,1,0,0:0:0:0:
475,192,43124,1,0,0:0:0:0:
182,192,43199,1,0,0:0:0:0:
402,192,43199,1,0,0:0:0:0:
36,192,43274,1,0,0:0:0:0:
329,192,43274,1,0,0:0:0:0:
402,192,43349,1,0,0:0:0:0:
109,192,43349,1,0,0:0:0:0:
182,192,43424,1,0,0:0:0:0:
182,192,43574,1,0,0:0:0:0:
109,192,43574,1,0,0:0:0:0:
475,192,43574,1,0,0:0:0:0:
256,192,43574,1,0,0:0:0:0:
256,192,43724,1,0,0:0:0:0:
182,192,43874,1,0,0:0:0:0:
402,192,43874,1,0,0:0:0:0:
256,192,43874,1,0,0:0:0:0:
36,192,43874,1,0,0:0:0:0:
402,192,44024,1,0,0:0:0:0:
329,192,44174,1,0,0:0:0:0:
109,192,44174,1,0,0:0:0:0:
402,192,44174,1,0,0:0:0:0:
182,192,44174,1,0,0:0:0:0:
109,192,44324,1,0,0:0:0:0:
256,192,44474,1,0,0:0:0:0:
475,192,44474,1,0,0:0:0:0:
109,192,44474,1,0,0:0:0:0:
329,192,44474,1,0,0:0:0:0:
329,192,44624,1,0,0:0:0:0:
256,192,44774,1,0,0:0:0:0:
36,192,44774,1,0,0:0:0:0:
182,192,44774,1,0,0:0:0:0:
329,192,44774,1,0,0:0:0:0:
182,192,44924,1,0,0:0:0:0:
109,192,45074,1,0,0:0:0:0:
182,192,45074,1,0,0:0:0:0:
402,192,45074,1,0,0:0:0:0:
329,192,45074,1,0,0:0:0:0:
402,192,45224,1,0,0:0:0:0:
36,192,45374,1,0,0:0:0:0:
402,192,45374,1,0,0:0:0:0:
256,192,45374,1,0,0:0:0:0:
329,192,45374,1,0,0:0:0:0:
36,192,45524,1,0,0:0:0:0:
182,192,45674,1,0,0:0:0:0:
402,192,45674,1,0,0:0:0:0:
256,192,45674,1,0,0:0:0:0:
36,192,45674,1,0,0:0:0:0:
182,192,45824,1,0,0:0:0:0:
182,192,45974,1,0,0:0:0:0:
475,192,45974,1,0,0:0:0:0:
109,192,45974,1,0,0:0:0:0:
329,192,45974,1,0,0:0:0:0:
475,192,46124,1,0,0:0:0:0:
475,192,46274,1,0,0:0:0:0:
402,192,46274,1,0,0:0:0:0:
182,192,46274,1,0,0:0:0:0:
256,192,46274,1,0,0:0:0:0:
182,192,46424,1,0,0:0:0:0:
402,192,46574,1,0,0:0:0:0:
182,192,46574,1,0,0:0:0:0:
109,192,46574,1,0,0:0:0:0:
329,192,46574,1,0,0:0:0:0:
402,192,46724,1,0,0:0:0:0:
402,192,46874,1,0,0:0:0:0:
329,192,46874,1,0,0:0:0:0:
36,192,46874,1,0,0:0:0:0:
256,192,46874,1,0,0:0:0:0:
402,192,47024,1,0,0:0:0:0:
36,192,47024,1,0,0:0:0:0:
182,192,47024,1,0,0:0:0:0:
329,192,47099,1,0,0:0:0:0:
109,192,47099,1,0,0:0:0:0:
402,192,47174,1,0,0:0:0:0:
256,192,47174,1,0,0:0:0:0:
475,192,47249,1,0,0:0:0:0:
109,192,47249,1,0,0:0:0:0:
256,192,47324,1,0,0:0:0:0:
329,192,47399,1,0,0:0:0:0:
36,192,47474,1,0,0:0:0:0:
402,192,47474,1,0,0:0:0:0:
182,192,47474,1,0,0:0:0:0:
109,192,47549,1,0,0:0:0:0:
329,192,47549,1,0,0:0:0:0:
182,192,47624,1,0,0:0:0:0:
475,192,47624,1,0,0:0:0:0:
109,192,47699,1,0,0:0:0:0:
402,192,47699,1,0,0:0:0:0:
36,192,47774,1,0,0:0:0:0:
256,192,47774,1,0,0:0:0:0:
475,192,47774,1,0,0:0:0:0:
329,192,47849,1,0,0:0:0:0:
182,192,47849,1,0,0:0:0:0:
256,192,47924,1,0,0:0:0:0:
402,192,47924,1,0,0:0:0:0:
36,192,47999,1,0,0:0:0:0:
329,192,47999,1,0,0:0:0:0:
182,192,48074,1,0,0:0:0:0:
475,192,48074,1,0,0:0:0:0:
109,192,48149,1,0,0:0:0:0:
256,192,48149,1,0,0:0:0:0:
36,192,48224,1,0,0:0:0:0:
182,192,48224,1,0,0:0:0:0:
329,192,48224,1,0,0:0:0:0:
402,192,48224,1,0,0:0:0:0:
36,192,48374,1,0,0:0:0:0:
182,192,48374,1,0,0:0:0:0:
329,192,48374,1,0,0:0:0:0:
402,192,48374,1,0,0:0:0:0:
36,192,48674,1,0,0:0:0:0:
182,192,48674,1,0,0:0:0:0:
329,192,48674,1,0,0:0:0:0:
402,192,48674,1,0,0:0:0:0:
329,192,48824,1,0,0:0:0:0:
402,192,48824,1,0,0:0:0:0:
36,192,48824,1,0,0:0:0:0:
109,192,48824,1,0,0:0:0:0:
36,192,48974,1,0,0:0:0:0:
109,192,48974,1,0,0:0:0:0:
329,192,48974,1,0,0:0:0:0:
402,192,48974,1,0,0:0:0:0:
36,192,49274,1,0,0:0:0:0:
109,192,49274,1,0,0:0:0:0:
329,192,49274,1,0,0:0:0:0:
402,192,49274,1,0,0:0:0:0:
109,192,49424,1,0,0:0:0:0:
182,192,49424,1,0,0:0:0:0:
329,192,49424,1,0,0:0:0:0:
402,192,49424,1,0,0:0:0:0:
109,192,49574,1,0,0:0:0:0:
182,192,49574,1,0,0:0:0:0:
329,192,49574,1,0,0:0:0:0:
402,192,49574,1,0,0:0:0:0:
109,192,49874,1,0,0:0:0:0:
182,192,49874,1,0,0:0:0:0:
329,192,49874,1,0,0:0:0:0:
402,192,49874,1,0,0:0:0:0:
329,192,50024,1,0,0:0:0:0:
475,192,50024,1,0,0:0:0:0:
182,192,50024,1,0,0:0:0:0:
109,192,50024,1,0,0:0:0:0:
36,192,50024,1,0,0:0:0:0:
475,192,50174,1,0,0:0:0:0:
402,192,50174,1,0,0:0:0:0:
182,192,50174,1,0,0:0:0:0:
109,192,50174,1,0,0:0:0:0:
256,192,50174,1,0,0:0:0:0:
109,192,50324,1,0,0:0:0:0:
402,192,50324,1,0,0:0:0:0:
475,192,50324,1,0,0:0:0:0:
182,192,50324,1,0,0:0:0:0:
36,192,50324,1,0,0:0:0:0:
329,192,50474,1,0,0:0:0:0:
402,192,50474,1,0,0:0:0:0:
36,192,50474,1,0,0:0:0:0:
182,192,50474,1,0,0:0:0:0:
256,192,50474,1,0,0:0:0:0:
475,192,50624,1,0,0:0:0:0:
402,192,50624,1,0,0:0:0:0:
36,192,50624,1,0,0:0:0:0:
182,192,50624,1,0,0:0:0:0:
36,192,50774,1,0,0:0:0:0:
182,192,50774,1,0,0:0:0:0:
402,192,50774,1,0,0:0:0:0:
475,192,50774,1,0,0:0:0:0:
36,192,51074,1,0,0:0:0:0:
182,192,51074,1,0,0:0:0:0:
402,192,51074,1,0,0:0:0:0:
475,192,51074,1,0,0:0:0:0:
109,192,51224,1,0,0:0:0:0:
182,192,51224,1,0,0:0:0:0:
475,192,51224,1,0,0:0:0:0:
329,192,51224,1,0,0:0:0:0:
109,192,51374,1,0,0:0:0:0:
182,192,51374,1,0,0:0:0:0:
475,192,51374,1,0,0:0:0:0:
329,192,51374,1,0,0:0:0:0:
109,192,51674,1,0,0:0:0:0:
182,192,51674,1,0,0:0:0:0:
475,192,51674,1,0,0:0:0:0:
329,192,51674,1,0,0:0:0:0:
109,192,51824,1,0,0:0:0:0:
256,192,51824,1,0,0:0:0:0:
36,192,51824,1,0,0:0:0:0:
402,192,51824,1,0,0:0:0:0:
36,192,51974,1,0,0:0:0:0:
109,192,51974,1,0,0:0:0:0:
256,192,51974,1,0,0:0:0:0:
402,192,51974,1,0,0:0:0:0:
182,192,52274,1,0,0:0:0:0:
256,192,52274,1,0,0:0:0:0:
329,192,52274,1,0,0:0:0:0:
402,192,52274,1,0,0:0:0:0:
109,192,52424,1,0,0:0:0:0:
475,192,52424,1,0,0:0:0:0:
402,192,52424,1,0,0:0:0:0:
329,192,52424,1,0,0:0:0:0:
256,192,52424,1,0,0:0:0:0:
182,192,52574,1,0,0:0:0:0:
329,192,52574,1,0,0:0:0:0:
402,192,52574,1,0,0:0:0:0:
36,192,52574,1,0,0:0:0:0:
475,192,52574,1,0,0:0:0:0:
36,192,52724,1,0,0:0:0:0:
329,192,52724,1,0,0:0:0:0:
402,192,52724,1,0,0:0:0:0:
256,192,52724,1,0,0:0:0:0:
109,192,52724,1,0,0:0:0:0:
256,192,52874,1,0,0:0:0:0:
182,192,52874,1,0,0:0:0:0:
36,192,52874,1,0,0:0:0:0:
475,192,52874,1,0,0:0:0:0:
329,192,52874,1,0,0:0:0:0:
402,192,53024,1,0,0:0:0:0:
475,192,53024,1,0,0:0:0:0:
109,192,53024,1,0,0:0:0:0:
329,192,53024,1,0,0:0:0:0:
109,192,53174,1,0,0:0:0:0:
329,192,53174,1,0,0:0:0:0:
402,192,53174,1,0,0:0:0:0:
475,192,53174,1,0,0:0:0:0:
329,192,53474,1,0,0:0:0:0:
109,192,53474,1,0,0:0:0:0:
402,192,53474,1,0,0:0:0:0:
475,192,53474,1,0,0:0:0:0:
36,192,53624,1,0,0:0:0:0:
182,192,53624,1,0,0:0:0:0:
256,192,53624,1,0,0:0:0:0:
329,192,53624,1,0,0:0:0:0:
329,192,53774,1,0,0:0:0:0:
256,192,53774,1,0,0:0:0:0:
182,192,53774,1,0,0:0:0:0:
36,192,53774,1,0,0:0:0:0:
475,192,54224,1,0,0:0:0:0:
402,192,54224,1,0,0:0:0:0:
182,192,54224,1,0,0:0:0:0:
109,192,54224,1,0,0:0:0:0:
256,192,54374,1,0,0:0:0:0:
182,192,54374,1,0,0:0:0:0:
329,192,54374,1,0,0:0:0:0:
36,192,54374,1,0,0:0:0:0:
109,192,54524,1,0,0:0:0:0:
475,192,54524,1,0,0:0:0:0:
402,192,54524,1,0,0:0:0:0:
329,192,54524,1,0,0:0:0:0:
256,192,54674,1,0,0:0:0:0:
182,192,54674,1,0,0:0:0:0:
36,192,54674,1,0,0:0:0:0:
402,192,54674,1,0,0:0:0:0:
402,192,54824,1,0,0:0:0:0:
475,192,54824,1,0,0:0:0:0:
109,192,54824,1,0,0:0:0:0:
256,192,54824,1,0,0:0:0:0:
36,192,54974,1,0,0:0:0:0:
329,192,54974,1,0,0:0:0:0:
182,192,54974,1,0,0:0:0:0:
109,192,54974,1,0,0:0:0:0:
256,192,55124,1,0,0:0:0:0:
402,192,55124,1,0,0:0:0:0:
475,192,55124,1,0,0:0:0:0:
182,192,55124,1,0,0:0:0:0:
256,192,55274,1,0,0:0:0:0:
329,192,55274,1,0,0:0:0:0:
402,192,55274,1,0,0:0:0:0:
109,192,55274,1,0,0:0:0:0:
402,192,55424,1,0,0:0:0:0:
329,192,55424,1,0,0:0:0:0:
475,192,55424,1,0,0:0:0:0:
182,192,55424,1,0,0:0:0:0:
109,192,55424,1,0,0:0:0:0:
329,192,55574,1,0,0:0:0:0:
256,192,55574,1,0,0:0:0:0:
402,192,55574,1,0,0:0:0:0:
36,192,55574,1,0,0:0:0:0:
109,192,55574,1,0,0:0:0:0:
182,192,55724,1,0,0:0:0:0:
256,192,55724,1,0,0:0:0:0:
329,192,55724,1,0,0:0:0:0:
36,192,55724,1,0,0:0:0:0:
475,192,55724,1,0,0:0:0:0:
475,192,55874,1,0,0:0:0:0:
402,192,55874,1,0,0:0:0:0:
329,192,55874,1,0,0:0:0:0:
182,192,55874,1,0,0:0:0:0:
109,192,55874,1,0,0:0:0:0:
402,192,56024,1,0,0:0:0:0:
329,192,56024,1,0,0:0:0:0:
256,192,56024,1,0,0:0:0:0:
475,192,56024,1,0,0:0:0:0:
109,192,56024,1,0,0:0:0:0:
36,192,56024,1,0,0:0:0:0:
329,192,56174,1,0,0:0:0:0:
256,192,56174,1,0,0:0:0:0:
182,192,56174,1,0,0:0:0:0:
109,192,56174,1,0,0:0:0:0:
475,192,56174,1,0,0:0:0:0:
182,192,56324,1,0,0:0:0:0:
256,192,56324,1,0,0:0:0:0:
329,192,56324,1,0,0:0:0:0:
402,192,56324,1,0,0:0:0:0:
36,192,56324,1,0,0:0:0:0:
256,192,56474,1,0,0:0:0:0:
329,192,56474,1,0,0:0:0:0:
402,192,56474,1,0,0:0:0:0:
475,192,56474,1,0,0:0:0:0:
109,192,56474,1,0,0:0:0:0:
109,192,56624,1,0,0:0:0:0:
182,192,56624,1,0,0:0:0:0:
329,192,56624,1,0,0:0:0:0:
256,192,56624,1,0,0:0:0:0:
402,192,56624,1,0,0:0:0:0:
475,192,57824,1,0,0:0:0:0:
402,192,57824,1,0,0:0:0:0:
256,192,57824,1,0,0:0:0:0:
36,192,57824,1,0,0:0:0:0:
329,192,57899,1,0,0:0:0:0:
256,192,57974,1,0,0:0:0:0:
402,192,57974,1,0,0:0:0:0:
109,192,57974,1,0,0:0:0:0:
329,192,58049,1,0,0:0:0:0:
182,192,58124,1,0,0:0:0:0:
256,192,58124,1,0,0:0:0:0:
475,192,58124,1,0,0:0:0:0:
36,192,58124,1,0,0:0:0:0:
402,192,58199,1,0,0:0:0:0:
256,192,58274,1,0,0:0:0:0:
109,192,58274,1,0,0:0:0:0:
475,192,58274,1,0,0:0:0:0:
329,192,58349,1,0,0:0:0:0:
182,192,58424,1,0,0:0:0:0:
256,192,58424,1,0,0:0:0:0:
402,192,58424,1,0,0:0:0:0:
475,192,58424,1,0,0:0:0:0:
109,192,58499,1,0,0:0:0:0:
36,192,58574,1,0,0:0:0:0:
402,192,58574,1,0,0:0:0:0:
475,192,58574,1,0,0:0:0:0:
329,192,58574,1,0,0:0:0:0:
182,192,58649,1,0,0:0:0:0:
256,192,58724,1,0,0:0:0:0:
109,192,58724,1,0,0:0:0:0:
402,192,58724,1,0,0:0:0:0:
36,192,58724,1,0,0:0:0:0:
329,192,58799,1,0,0:0:0:0:
109,192,58874,1,0,0:0:0:0:
182,192,58874,1,0,0:0:0:0:
402,192,58874,1,0,0:0:0:0:
475,192,58874,1,0,0:0:0:0:
256,192,58949,1,0,0:0:0:0:
36,192,59024,1,0,0:0:0:0:
109,192,59024,1,0,0:0:0:0:
329,192,59024,1,0,0:0:0:0:
475,192,59024,1,0,0:0:0:0:
256,192,59099,1,0,0:0:0:0:
329,192,59174,1,0,0:0:0:0:
402,192,59174,1,0,0:0:0:0:
109,192,59174,1,0,0:0:0:0:
182,192,59249,1,0,0:0:0:0:
36,192,59324,1,0,0:0:0:0:
109,192,59324,1,0,0:0:0:0:
256,192,59324,1,0,0:0:0:0:
475,192,59324,1,0,0:0:0:0:
402,192,59399,1,0,0:0:0:0:
109,192,59474,1,0,0:0:0:0:
182,192,59474,1,0,0:0:0:0:
329,192,59474,1,0,0:0:0:0:
402,192,59549,1,0,0:0:0:0:
182,192,59624,1,0,0:0:0:0:
329,192,59624,1,0,0:0:0:0:
36,192,59624,1,0,0:0:0:0:
256,192,59624,1,0,0:0:0:0:
402,192,59699,1,0,0:0:0:0:
109,192,59774,1,0,0:0:0:0:
256,192,59774,1,0,0:0:0:0:
329,192,59774,1,0,0:0:0:0:
475,192,59774,1,0,0:0:0:0:
182,192,59849,1,0,0:0:0:0:
36,192,59924,1,0,0:0:0:0:
109,192,59924,1,0,0:0:0:0:
329,192,59924,1,0,0:0:0:0:
402,192,59924,1,0,0:0:0:0:
256,192,59999,1,0,0:0:0:0:
182,192,60074,1,0,0:0:0:0:
475,192,60074,1,0,0:0:0:0:
402,192,60074,1,0,0:0:0:0:
36,192,60074,1,0,0:0:0:0:
256,192,60149,1,0,0:0:0:0:
36,192,60224,1,0,0:0:0:0:
329,192,60224,1,0,0:0:0:0:
475,192,60224,1,0,0:0:0:0:
109,192,60224,1,0,0:0:0:0:
402,192,60299,1,0,0:0:0:0:
182,192,60374,1,0,0:0:0:0:
475,192,60374,1,0,0:0:0:0:
329,192,60374,1,0,0:0:0:0:
256,192,60449,1,0,0:0:0:0:
402,192,60524,1,0,0:0:0:0:
329,192,60524,1,0,0:0:0:0:
36,192,60524,1,0,0:0:0:0:
109,192,60524,1,0,0:0:0:0:
256,192,60599,1,0,0:0:0:0:
475,192,60674,1,0,0:0:0:0:
402,192,60674,1,0,0:0:0:0:
182,192,60674,1,0,0:0:0:0:
329,192,60749,1,0,0:0:0:0:
182,192,60824,1,0,0:0:0:0:
256,192,60824,1,0,0:0:0:0:
36,192,60824,1,0,0:0:0:0:
402,192,60824,1,0,0:0:0:0:
329,192,60899,1,0,0:0:0:0:
109,192,60974,1,0,0:0:0:0:
182,192,60974,1,0,0:0:0:0:
475,192,60974,1,0,0:0:0:0:
402,192,60974,1,0,0:0:0:0:
256,192,61049,1,0,0:0:0:0:
36,192,61124,1,0,0:0:0:0:
182,192,61124,1,0,0:0:0:0:
329,192,61124,1,0,0:0:0:0:
402,192,61124,1,0,0:0:0:0:
109,192,61199,1,0,0:0:0:0:
182,192,61274,1,0,0:0:0:0:
475,192,61274,1,0,0:0:0:0:
402,192,61274,1,0,0:0:0:0:
256,192,61274,1,0,0:0:0:0:
109,192,61349,1,0,0:0:0:0:
329,192,61424,1,0,0:0:0:0:
256,192,61424,1,0,0:0:0:0:
36,192,61424,1,0,0:0:0:0:
402,192,61424,1,0,0:0:0:0:
182,192,61499,1,0,0:0:0:0:
475,192,61574,1,0,0:0:0:0:
329,192,61574,1,0,0:0:0:0:
109,192,61574,1,0,0:0:0:0:
182,192,61649,1,0,0:0:0:0:
36,192,61724,1,0,0:0:0:0:
256,192,61724,1,0,0:0:0:0:
109,192,61724,1,0,0:0:0:0:
402,192,61724,1,0,0:0:0:0:
329,192,61799,1,0,0:0:0:0:
182,192,61874,1,0,0:0:0:0:
256,192,61874,1,0,0:0:0:0:
475,192,61874,1,0,0:0:0:0:
329,192,61949,1,0,0:0:0:0:
36,192,62024,1,0,0:0:0:0:
109,192,62024,1,0,0:0:0:0:
256,192,62024,1,0,0:0:0:0:
475,192,62024,1,0,0:0:0:0:
182,192,62099,1,0,0:0:0:0:
329,192,62174,1,0,0:0:0:0:
256,192,62174,1,0,0:0:0:0:
109,192,62174,1,0,0:0:0:0:
402,192,62174,1,0,0:0:0:0:
182,192,62249,1,0,0:0:0:0:
402,192,62324,1,0,0:0:0:0:
329,192,62324,1,0,0:0:0:0:
36,192,62324,1,0,0:0:0:0:
256,192,62324,1,0,0:0:0:0:
109,192,62399,1,0,0:0:0:0:
475,192,62474,1,0,0:0:0:0:
36,192,62474,1,0,0:0:0:0:
182,192,62474,1,0,0:0:0:0:
402,192,62474,1,0,0:0:0:0:
256,192,62549,1,0,0:0:0:0:
109,192,62624,1,0,0:0:0:0:
329,192,62624,1,0,0:0:0:0:
402,192,62624,1,0,0:0:0:0:
36,192,62624,1,0,0:0:0:0:
182,192,62699,1,0,0:0:0:0:
475,192,62774,1,0,0:0:0:0:
402,192,62774,1,0,0:0:0:0:
109,192,62774,1,0,0:0:0:0:
256,192,62849,1,0,0:0:0:0:
182,192,62924,1,0,0:0:0:0:
329,192,62924,1,0,0:0:0:0:
402,192,62924,1,0,0:0:0:0:
36,192,62924,1,0,0:0:0:0:
475,192,62999,1,0,0:0:0:0:
109,192,63074,1,0,0:0:0:0:
182,192,63074,1,0,0:0:0:0:
256,192,63074,1,0,0:0:0:0:
402,192,63149,1,0,0:0:0:0:
182,192,63224,1,0,0:0:0:0:
329,192,63224,1,0,0:0:0:0:
475,192,63224,1,0,0:0:0:0:
256,192,63224,1,0,0:0:0:0:
109,192,63299,1,0,0:0:0:0:
36,192,63374,1,0,0:0:0:0:
182,192,63374,1,0,0:0:0:0:
329,192,63374,1,0,0:0:0:0:
402,192,63374,1,0,0:0:0:0:
256,192,63449,1,0,0:0:0:0:
109,192,63524,1,0,0:0:0:0:
182,192,63524,1,0,0:0:0:0:
402,192,63524,1,0,0:0:0:0:
475,192,63524,1,0,0:0:0:0:
329,192,63599,1,0,0:0:0:0:
36,192,63674,1,0,0:0:0:0:
402,192,63674,1,0,0:0:0:0:
256,192,63674,1,0,0:0:0:0:
182,192,63674,1,0,0:0:0:0:
109,192,63749,1,0,0:0:0:0:
402,192,63824,1,0,0:0:0:0:
329,192,63824,1,0,0:0:0:0:
182,192,63824,1,0,0:0:0:0:
475,192,63824,1,0,0:0:0:0:
36,192,63899,1,0,0:0:0:0:
109,192,63974,1,0,0:0:0:0:
256,192,63974,1,0,0:0:0:0:
329,192,63974,1,0,0:0:0:0:
402,192,64049,1,0,0:0:0:0:
182,192,64124,1,0,0:0:0:0:
109,192,64124,1,0,0:0:0:0:
329,192,64124,1,0,0:0:0:0:
475,192,64124,1,0,0:0:0:0:
36,192,64199,1,0,0:0:0:0:
182,192,64274,1,0,0:0:0:0:
256,192,64274,1,0,0:0:0:0:
402,192,64274,1,0,0:0:0:0:
329,192,64349,1,0,0:0:0:0:
109,192,64424,1,0,0:0:0:0:
182,192,64424,1,0,0:0:0:0:
402,192,64424,1,0,0:0:0:0:
36,192,64424,1,0,0:0:0:0:
256,192,64499,1,0,0:0:0:0:
109,192,64574,1,0,0:0:0:0:
182,192,64574,1,0,0:0:0:0:
475,192,64574,1,0,0:0:0:0:
402,192,64574,1,0,0:0:0:0:
329,192,64649,1,0,0:0:0:0:
36,192,64724,1,0,0:0:0:0:
182,192,64724,1,0,0:0:0:0:
256,192,64724,1,0,0:0:0:0:
402,192,64724,1,0,0:0:0:0:
475,192,64799,1,0,0:0:0:0:
109,192,64874,1,0,0:0:0:0:
256,192,64874,1,0,0:0:0:0:
329,192,64874,1,0,0:0:0:0:
402,192,64874,1,0,0:0:0:0:
475,192,64949,1,0,0:0:0:0:
402,192,65024,1,0,0:0:0:0:
36,192,65024,1,0,0:0:0:0:
256,192,65024,1,0,0:0:0:0:
182,192,65024,1,0,0:0:0:0:
329,192,65099,1,0,0:0:0:0:
109,192,65174,1,0,0:0:0:0:
475,192,65174,1,0,0:0:0:0:
402,192,65174,1,0,0:0:0:0:
329,192,65249,1,0,0:0:0:0:
36,192,65324,1,0,0:0:0:0:
256,192,65324,1,0,0:0:0:0:
402,192,65324,1,0,0:0:0:0:
182,192,65324,1,0,0:0:0:0:
475,192,65399,1,0,0:0:0:0:
109,192,65474,1,0,0:0:0:0:
256,192,65474,1,0,0:0:0:0:
329,192,65474,1,0,0:0:0:0:
402,192,65549,1,0,0:0:0:0:
36,192,65624,1,0,0:0:0:0:
329,192,65624,1,0,0:0:0:0:
475,192,65624,1,0,0:0:0:0:
256,192,65624,1,0,0:0:0:0:
109,192,65699,1,0,0:0:0:0:
182,192,65774,1,0,0:0:0:0:
329,192,65774,1,0,0:0:0:0:
402,192,65774,1,0,0:0:0:0:
36,192,65774,1,0,0:0:0:0:
256,192,65849,1,0,0:0:0:0:
109,192,65924,1,0,0:0:0:0:
182,192,65924,1,0,0:0:0:0:
475,192,65924,1,0,0:0:0:0:
402,192,65924,1,0,0:0:0:0:
36,192,65999,1,0,0:0:0:0:
182,192,66074,1,0,0:0:0:0:
256,192,66074,1,0,0:0:0:0:
402,192,66074,1,0,0:0:0:0:
475,192,66074,1,0,0:0:0:0:
109,192,66149,1,0,0:0:0:0:
256,192,66224,1,0,0:0:0:0:
402,192,66224,1,0,0:0:0:0:
182,192,66224,1,0,0:0:0:0:
329,192,66299,1,0,0:0:0:0:
109,192,66299,1,0,0:0:0:0:
256,192,66374,1,0,0:0:0:0:
402,192,66374,1,0,0:0:0:0:
36,192,66374,1,0,0:0:0:0:
329,192,66449,1,0,0:0:0:0:
475,192,66449,1,0,0:0:0:0:
109,192,66449,1,0,0:0:0:0:
36,192,66524,1,0,0:0:0:0:
182,192,66524,1,0,0:0:0:0:
109,192,66599,1,0,0:0:0:0:
256,192,66599,1,0,0:0:0:0:
182,192,66674,1,0,0:0:0:0:
329,192,66674,1,0,0:0:0:0:
256,192,66749,1,0,0:0:0:0:
402,192,66749,1,0,0:0:0:0:
329,192,66824,1,0,0:0:0:0:
475,192,66824,1,0,0:0:0:0:
36,192,66824,1,0,0:0:0:0:
256,192,66899,1,0,0:0:0:0:
402,192,66899,1,0,0:0:0:0:
182,192,66974,1,0,0:0:0:0:
329,192,66974,1,0,0:0:0:0:
475,192,67049,1,0,0:0:0:0:
109,192,67049,1,0,0:0:0:0:
256,192,67124,1,0,0:0:0:0:
402,192,67124,1,0,0:0:0:0:
329,192,67199,1,0,0:0:0:0:
182,192,67199,1,0,0:0:0:0:
475,192,67274,1,0,0:0:0:0:
36,192,67274,1,0,0:0:0:0:
256,192,67274,1,0,0:0:0:0:
402,192,67349,1,0,0:0:0:0:
109,192,67424,1,0,0:0:0:0:
182,192,67461,1,0,0:0:0:0:
256,192,67499,1,0,0:0:0:0:
329,192,67536,1,0,0:0:0:0:
475,192,67574,1,0,0:0:0:0:
402,192,67611,1,0,0:0:0:0:
329,192,67649,1,0,0:0:0:0:
256,192,67686,1,0,0:0:0:0:
36,192,67724,1,0,0:0:0:0:
109,192,67761,1,0,0:0:0:0:
182,192,67799,1,0,0:0:0:0:
256,192,67836,1,0,0:0:0:0:
402,192,67874,1,0,0:0:0:0:
329,192,67911,1,0,0:0:0:0:
256,192,67949,1,0,0:0:0:0:
182,192,67986,1,0,0:0:0:0:
36,192,68024,1,0,0:0:0:0:
402,192,68024,1,0,0:0:0:0:
475,192,68024,1,0,0:0:0:0:
109,192,68024,1,0,0:0:0:0:
329,192,68099,1,0,0:0:0:0:
109,192,68174,1,0,0:0:0:0:
256,192,68174,1,0,0:0:0:0:
402,192,68174,1,0,0:0:0:0:
475,192,68174,1,0,0:0:0:0:
329,192,68249,1,0,0:0:0:0:
109,192,68324,1,0,0:0:0:0:
182,192,68324,1,0,0:0:0:0:
402,192,68324,1,0,0:0:0:0:
36,192,68324,1,0,0:0:0:0:
256,192,68399,1,0,0:0:0:0:
109,192,68474,1,0,0:0:0:0:
182,192,68474,1,0,0:0:0:0:
329,192,68474,1,0,0:0:0:0:
475,192,68474,1,0,0:0:0:0:
256,192,68549,1,0,0:0:0:0:
402,192,68624,1,0,0:0:0:0:
329,192,68661,1,0,0:0:0:0:
256,192,68699,1,0,0:0:0:0:
182,192,68736,1,0,0:0:0:0:
36,192,68774,1,0,0:0:0:0:
109,192,68811,1,0,0:0:0:0:
182,192,68849,1,0,0:0:0:0:
256,192,68886,1,0,0:0:0:0:
475,192,68924,1,0,0:0:0:0:
402,192,68961,1,0,0:0:0:0:
329,192,68999,1,0,0:0:0:0:
256,192,69036,1,0,0:0:0:0:
109,192,69074,1,0,0:0:0:0:
182,192,69111,1,0,0:0:0:0:
256,192,69149,1,0,0:0:0:0:
329,192,69186,1,0,0:0:0:0:
36,192,69224,1,0,0:0:0:0:
109,192,69224,1,0,0:0:0:0:
402,192,69224,1,0,0:0:0:0:
475,192,69224,1,0,0:0:0:0:
182,192,69299,1,0,0:0:0:0:
256,192,69374,1,0,0:0:0:0:
109,192,69374,1,0,0:0:0:0:
329,192,69374,1,0,0:0:0:0:
402,192,69374,1,0,0:0:0:0:
36,192,69449,1,0,0:0:0:0:
182,192,69524,1,0,0:0:0:0:
256,192,69524,1,0,0:0:0:0:
402,192,69524,1,0,0:0:0:0:
475,192,69524,1,0,0:0:0:0:
329,192,69599,1,0,0:0:0:0:
109,192,69674,1,0,0:0:0:0:
182,192,69674,1,0,0:0:0:0:
402,192,69674,1,0,0:0:0:0:
475,192,69674,1,0,0:0:0:0:
329,192,69749,1,0,0:0:0:0:
109,192,69824,1,0,0:0:0:0:
182,192,69861,1,0,0:0:0:0:
256,192,69899,1,0,0:0:0:0:
329,192,69936,1,0,0:0:0:0:
475,192,69974,1,0,0:0:0:0:
402,192,70011,1,0,0:0:0:0:
329,192,70049,1,0,0:0:0:0:
256,192,70086,1,0,0:0:0:0:
36,192,70124,1,0,0:0:0:0:
109,192,70161,1,0,0:0:0:0:
182,192,70199,1,0,0:0:0:0:
256,192,70236,1,0,0:0:0:0:
402,192,70274,1,0,0:0:0:0:
329,192,70311,1,0,0:0:0:0:
256,192,70349,1,0,0:0:0:0:
182,192,70386,1,0,0:0:0:0:
36,192,70424,1,0,0:0:0:0:
402,192,70424,1,0,0:0:0:0:
109,192,70424,1,0,0:0:0:0:
475,192,70424,1,0,0:0:0:0:
329,192,70499,1,0,0:0:0:0:
109,192,70574,1,0,0:0:0:0:
475,192,70574,1,0,0:0:0:0:
256,192,70574,1,0,0:0:0:0:
402,192,70574,1,0,0:0:0:0:
329,192,70649,1,0,0:0:0:0:
36,192,70724,1,0,0:0:0:0:
109,192,70724,1,0,0:0:0:0:
182,192,70724,1,0,0:0:0:0:
402,192,70724,1,0,0:0:0:0:
256,192,70799,1,0,0:0:0:0:
182,192,70874,1,0,0:0:0:0:
475,192,70874,1,0,0:0:0:0:
109,192,70874,1,0,0:0:0:0:
329,192,70874,1,0,0:0:0:0:
256,192,70949,1,0,0:0:0:0:
36,192,71024,1,0,0:0:0:0:
329,192,71024,1,0,0:0:0:0:
402,192,71024,1,0,0:0:0:0:
182,192,71024,1,0,0:0:0:0:
475,192,71099,1,0,0:0:0:0:
109,192,71174,1,0,0:0:0:0:
182,192,71174,1,0,0:0:0:0:
402,192,71174,1,0,0:0:0:0:
256,192,71174,1,0,0:0:0:0:
36,192,71249,1,0,0:0:0:0:
182,192,71324,1,0,0:0:0:0:
256,192,71324,1,0,0:0:0:0:
329,192,71324,1,0,0:0:0:0:
475,192,71324,1,0,0:0:0:0:
109,192,71399,1,0,0:0:0:0:
182,192,71474,1,0,0:0:0:0:
256,192,71474,1,0,0:0:0:0:
402,192,71474,1,0,0:0:0:0:
36,192,71474,1,0,0:0:0:0:
329,192,71549,1,0,0:0:0:0:
402,192,71624,1,0,0:0:0:0:
36,192,71624,1,0,0:0:0:0:
475,192,71624,1,0,0:0:0:0:
109,192,71624,1,0,0:0:0:0:
182,192,71699,1,0,0:0:0:0:
329,192,71774,1,0,0:0:0:0:
256,192,71774,1,0,0:0:0:0:
402,192,71774,1,0,0:0:0:0:
109,192,71774,1,0,0:0:0:0:
36,192,71849,1,0,0:0:0:0:
475,192,71924,1,0,0:0:0:0:
402,192,71924,1,0,0:0:0:0:
109,192,71924,1,0,0:0:0:0:
182,192,71924,1,0,0:0:0:0:
256,192,71999,1,0,0:0:0:0:
475,192,72074,1,0,0:0:0:0:
109,192,72074,1,0,0:0:0:0:
182,192,72074,1,0,0:0:0:0:
329,192,72074,1,0,0:0:0:0:
402,192,72149,1,0,0:0:0:0:
109,192,72224,1,0,0:0:0:0:
182,192,72261,1,0,0:0:0:0:
256,192,72299,1,0,0:0:0:0:
329,192,72336,1,0,0:0:0:0:
475,192,72374,1,0,0:0:0:0:
402,192,72411,1,0,0:0:0:0:
329,192,72449,1,0,0:0:0:0:
256,192,72486,1,0,0:0:0:0:
36,192,72524,1,0,0:0:0:0:
109,192,72561,1,0,0:0:0:0:
182,192,72599,1,0,0:0:0:0:
256,192,72636,1,0,0:0:0:0:
402,192,72674,1,0,0:0:0:0:
329,192,72711,1,0,0:0:0:0:
256,192,72749,1,0,0:0:0:0:
182,192,72786,1,0,0:0:0:0:
109,192,72824,1,0,0:0:0:0:
475,192,72824,1,0,0:0:0:0:
36,192,72824,1,0,0:0:0:0:
402,192,72824,1,0,0:0:0:0:
329,192,72899,1,0,0:0:0:0:
256,192,72974,1,0,0:0:0:0:
402,192,72974,1,0,0:0:0:0:
109,192,72974,1,0,0:0:0:0:
475,192,72974,1,0,0:0:0:0:
329,192,73049,1,0,0:0:0:0:
182,192,73124,1,0,0:0:0:0:
402,192,73124,1,0,0:0:0:0:
36,192,73124,1,0,0:0:0:0:
109,192,73124,1,0,0:0:0:0:
256,192,73199,1,0,0:0:0:0:
109,192,73274,1,0,0:0:0:0:
329,192,73274,1,0,0:0:0:0:
182,192,73274,1,0,0:0:0:0:
475,192,73274,1,0,0:0:0:0:
256,192,73349,1,0,0:0:0:0:
402,192,73424,1,0,0:0:0:0:
329,192,73461,1,0,0:0:0:0:
256,192,73499,1,0,0:0:0:0:
182,192,73536,1,0,0:0:0:0:
36,192,73574,1,0,0:0:0:0:
109,192,73611,1,0,0:0:0:0:
182,192,73649,1,0,0:0:0:0:
256,192,73686,1,0,0:0:0:0:
475,192,73724,1,0,0:0:0:0:
402,192,73761,1,0,0:0:0:0:
329,192,73799,1,0,0:0:0:0:
256,192,73836,1,0,0:0:0:0:
109,192,73874,1,0,0:0:0:0:
182,192,73911,1,0,0:0:0:0:
256,192,73949,1,0,0:0:0:0:
329,192,73986,1,0,0:0:0:0:
475,192,74024,1,0,0:0:0:0:
109,192,74024,1,0,0:0:0:0:
402,192,74024,1,0,0:0:0:0:
36,192,74024,1,0,0:0:0:0:
182,192,74099,1,0,0:0:0:0:
402,192,74174,1,0,0:0:0:0:
109,192,74174,1,0,0:0:0:0:
329,192,74174,1,0,0:0:0:0:
256,192,74174,1,0,0:0:0:0:
36,192,74249,1,0,0:0:0:0:
402,192,74324,1,0,0:0:0:0:
182,192,74324,1,0,0:0:0:0:
256,192,74324,1,0,0:0:0:0:
475,192,74324,1,0,0:0:0:0:
329,192,74399,1,0,0:0:0:0:
109,192,74474,1,0,0:0:0:0:
402,192,74474,1,0,0:0:0:0:
475,192,74474,1,0,0:0:0:0:
182,192,74474,1,0,0:0:0:0:
256,192,74549,1,0,0:0:0:0:
329,192,74624,1,0,0:0:0:0:
182,192,74624,1,0,0:0:0:0:
402,192,74699,1,0,0:0:0:0:
109,192,74699,1,0,0:0:0:0:
256,192,74699,1,0,0:0:0:0:
329,192,74774,1,0,0:0:0:0:
36,192,74774,1,0,0:0:0:0:
475,192,74774,1,0,0:0:0:0:
402,192,74849,1,0,0:0:0:0:
109,192,74849,1,0,0:0:0:0:
256,192,74849,1,0,0:0:0:0:
329,192,74924,1,0,0:0:0:0:
402,192,74999,1,0,0:0:0:0:
182,192,75074,1,0,0:0:0:0:
109,192,75074,1,0,0:0:0:0:
475,192,75074,1,0,0:0:0:0:
256,192,75149,1,0,0:0:0:0:
36,192,75149,1,0,0:0:0:0:
402,192,75149,1,0,0:0:0:0:
329,192,75224,1,0,0:0:0:0:
475,192,75224,1,0,0:0:0:0:
109,192,75224,1,0,0:0:0:0:
182,192,75299,1,0,0:0:0:0:
256,192,75299,1,0,0:0:0:0:
402,192,75299,1,0,0:0:0:0:
109,192,75374,1,0,0:0:0:0:
182,192,75449,1,0,0:0:0:0:
329,192,75524,1,0,0:0:0:0:
36,192,75524,1,0,0:0:0:0:
475,192,75524,1,0,0:0:0:0:
402,192,75599,1,0,0:0:0:0:
256,192,75599,1,0,0:0:0:0:
109,192,75599,1,0,0:0:0:0:
329,192,75674,1,0,0:0:0:0:
256,192,75749,1,0,0:0:0:0:
182,192,75824,1,0,0:0:0:0:
475,192,75824,1,0,0:0:0:0:
36,192,75824,1,0,0:0:0:0:
329,192,75899,1,0,0:0:0:0:
109,192,75899,1,0,0:0:0:0:
402,192,75899,1,0,0:0:0:0:
256,192,75974,1,0,0:0:0:0:
182,192,75974,1,0,0:0:0:0:
475,192,75974,1,0,0:0:0:0:
402,192,76049,1,0,0:0:0:0:
36,192,76049,1,0,0:0:0:0:
329,192,76049,1,0,0:0:0:0:
109,192,76124,1,0,0:0:0:0:
256,192,76124,1,0,0:0:0:0:
475,192,76124,1,0,0:0:0:0:
402,192,76199,1,0,0:0:0:0:
182,192,76199,1,0,0:0:0:0:
109,192,76274,1,0,0:0:0:0:
475,192,76274,1,0,0:0:0:0:
402,192,76349,1,0,0:0:0:0:
182,192,76349,1,0,0:0:0:0:
329,192,76424,1,0,0:0:0:0:
36,192,76424,1,0,0:0:0:0:
109,192,76424,1,0,0:0:0:0:
256,192,76424,1,0,0:0:0:0:
329,192,76574,1,0,0:0:0:0:
109,192,76574,1,0,0:0:0:0:
256,192,76574,1,0,0:0:0:0:
402,192,76574,1,0,0:0:0:0:
182,192,76724,1,0,0:0:0:0:
329,192,76724,1,0,0:0:0:0:
402,192,76724,1,0,0:0:0:0:
475,192,76724,1,0,0:0:0:0:
329,192,76874,1,0,0:0:0:0:
256,192,76874,1,0,0:0:0:0:
109,192,76874,1,0,0:0:0:0:
36,192,76874,1,0,0:0:0:0:
475,192,77024,1,0,0:0:0:0:
402,192,77024,1,0,0:0:0:0:
182,192,77024,1,0,0:0:0:0:
256,192,77024,1,0,0:0:0:0:
36,192,77024,1,0,0:0:0:0:
109,192,77024,1,0,0:0:0:0:
182,192,77174,1,0,0:0:0:0:
329,192,77174,1,0,0:0:0:0:
402,192,77174,1,0,0:0:0:0:
109,192,77324,1,0,0:0:0:0:
329,192,77324,1,0,0:0:0:0:
256,192,77324,1,0,0:0:0:0:
256,192,77474,1,0,0:0:0:0:
182,192,77474,1,0,0:0:0:0:
36,192,77474,1,0,0:0:0:0:
475,192,77624,1,0,0:0:0:0:
402,192,77624,1,0,0:0:0:0:
109,192,77624,1,0,0:0:0:0:
182,192,77774,1,0,0:0:0:0:
329,192,77774,1,0,0:0:0:0:
402,192,77774,1,0,0:0:0:0:
109,192,77924,1,0,0:0:0:0:
36,192,77924,1,0,0:0:0:0:
402,192,77924,1,0,0:0:0:0:
329,192,78074,1,0,0:0:0:0:
182,192,78074,1,0,0:0:0:0:
109,192,78074,1,0,0:0:0:0:
36,192,78224,1,0,0:0:0:0:
109,192,78224,1,0,0:0:0:0:
402,192,78224,1,0,0:0:0:0:
329,192,78224,1,0,0:0:0:0:
475,192,78224,1,0,0:0:0:0:
256,192,78224,1,0,0:0:0:0:
329,192,78374,1,0,0:0:0:0:
109,192,78374,1,0,0:0:0:0:
182,192,78374,1,0,0:0:0:0:
182,192,78524,1,0,0:0:0:0:
256,192,78524,1,0,0:0:0:0:
402,192,78524,1,0,0:0:0:0:
329,192,78674,1,0,0:0:0:0:
256,192,78674,1,0,0:0:0:0:
475,192,78674,1,0,0:0:0:0:
402,192,78824,1,0,0:0:0:0:
109,192,78824,1,0,0:0:0:0:
36,192,78824,1,0,0:0:0:0:
182,192,78974,1,0,0:0:0:0:
329,192,78974,1,0,0:0:0:0:
109,192,78974,1,0,0:0:0:0:
109,192,79124,1,0,0:0:0:0:
402,192,79124,1,0,0:0:0:0:
475,192,79124,1,0,0:0:0:0:
182,192,79274,1,0,0:0:0:0:
329,192,79274,1,0,0:0:0:0:
402,192,79274,1,0,0:0:0:0:
109,192,79424,1,0,0:0:0:0:
36,192,79424,1,0,0:0:0:0:
256,192,79424,1,0,0:0:0:0:
402,192,79424,1,0,0:0:0:0:
475,192,79424,1,0,0:0:0:0:
182,192,79424,1,0,0:0:0:0:
182,192,79574,1,0,0:0:0:0:
329,192,79574,1,0,0:0:0:0:
402,192,79574,1,0,0:0:0:0:
329,192,79724,1,0,0:0:0:0:
256,192,79724,1,0,0:0:0:0:
109,192,79724,1,0,0:0:0:0:
36,192,79874,1,0,0:0:0:0:
182,192,79874,1,0,0:0:0:0:
256,192,79874,1,0,0:0:0:0:
475,192,80024,1,0,0:0:0:0:
402,192,80024,1,0,0:0:0:0:
109,192,80024,1,0,0:0:0:0:
182,192,80174,1,0,0:0:0:0:
402,192,80174,1,0,0:0:0:0:
329,192,80174,1,0,0:0:0:0:
109,192,80324,1,0,0:0:0:0:
36,192,80324,1,0,0:0:0:0:
402,192,80324,1,0,0:0:0:0:
182,192,80474,1,0,0:0:0:0:
329,192,80474,1,0,0:0:0:0:
109,192,80474,1,0,0:0:0:0:
256,192,80624,1,0,0:0:0:0:
329,192,80624,1,0,0:0:0:0:
475,192,80624,1,0,0:0:0:0:
36,192,80624,1,0,0:0:0:0:
109,192,80624,1,0,0:0:0:0:
402,192,80624,1,0,0:0:0:0:
329,192,80774,1,0,0:0:0:0:
182,192,80774,1,0,0:0:0:0:
109,192,80774,1,0,0:0:0:0:
402,192,80924,1,0,0:0:0:0:
256,192,80924,1,0,0:0:0:0:
182,192,80924,1,0,0:0:0:0:
329,192,81074,1,0,0:0:0:0:
256,192,81074,1,0,0:0:0:0:
475,192,81074,1,0,0:0:0:0:
36,192,81224,1,0,0:0:0:0:
109,192,81224,1,0,0:0:0:0:
402,192,81224,1,0,0:0:0:0:
329,192,81374,1,0,0:0:0:0:
109,192,81374,1,0,0:0:0:0:
182,192,81374,1,0,0:0:0:0:
475,192,81524,1,0,0:0:0:0:
402,192,81524,1,0,0:0:0:0:
109,192,81524,1,0,0:0:0:0:
182,192,81674,1,0,0:0:0:0:
329,192,81674,1,0,0:0:0:0:
402,192,81674,1,0,0:0:0:0:
109,192,81824,1,0,0:0:0:0:
256,192,81824,1,0,0:0:0:0:
475,192,81824,1,0,0:0:0:0:
36,192,81824,1,0,0:0:0:0:
329,192,81824,1,0,0:0:0:0:
109,192,81899,1,0,0:0:0:0:
182,192,81974,1,0,0:0:0:0:
402,192,81974,1,0,0:0:0:0:
329,192,82124,1,0,0:0:0:0:
36,192,82124,1,0,0:0:0:0:
329,192,82199,1,0,0:0:0:0:
256,192,82274,1,0,0:0:0:0:
475,192,82274,1,0,0:0:0:0:
109,192,82424,1,0,0:0:0:0:
402,192,82424,1,0,0:0:0:0:
329,192,82424,1,0,0:0:0:0:
475,192,82424,1,0,0:0:0:0:
182,192,82424,1,0,0:0:0:0:
182,192,82499,1,0,0:0:0:0:
256,192,82574,1,0,0:0:0:0:
402,192,82574,1,0,0:0:0:0:
475,192,82724,1,0,0:0:0:0:
109,192,82724,1,0,0:0:0:0:
475,192,82799,1,0,0:0:0:0:
402,192,82874,1,0,0:0:0:0:
182,192,82874,1,0,0:0:0:0:
256,192,83024,1,0,0:0:0:0:
182,192,83024,1,0,0:0:0:0:
36,192,83024,1,0,0:0:0:0:
109,192,83024,1,0,0:0:0:0:
475,192,83024,1,0,0:0:0:0:
36,192,83099,1,0,0:0:0:0:
329,192,83174,1,0,0:0:0:0:
109,192,83174,1,0,0:0:0:0:
402,192,83324,1,0,0:0:0:0:
182,192,83324,1,0,0:0:0:0:
402,192,83399,1,0,0:0:0:0:
256,192,83474,1,0,0:0:0:0:
109,192,83474,1,0,0:0:0:0:
256,192,83624,1,0,0:0:0:0:
182,192,83624,1,0,0:0:0:0:
36,192,83624,1,0,0:0:0:0:
475,192,83624,1,0,0:0:0:0:
402,192,83624,1,0,0:0:0:0:
182,192,83699,1,0,0:0:0:0:
256,192,83774,1,0,0:0:0:0:
402,192,83774,1,0,0:0:0:0:
109,192,83924,1,0,0:0:0:0:
475,192,83924,1,0,0:0:0:0:
475,192,83999,1,0,0:0:0:0:
256,192,84074,1,0,0:0:0:0:
402,192,84074,1,0,0:0:0:0:
109,192,84224,1,0,0:0:0:0:
36,192,84224,1,0,0:0:0:0:
329,192,84224,1,0,0:0:0:0:
182,192,84299,1,0,0:0:0:0:
402,192,84299,1,0,0:0:0:0:
109,192,84374,1,0,0:0:0:0:
36,192,84374,1,0,0:0:0:0:
329,192,84374,1,0,0:0:0:0:
182,192,84449,1,0,0:0:0:0:
256,192,84449,1,0,0:0:0:0:
475,192,84524,1,0,0:0:0:0:
402,192,84524,1,0,0:0:0:0:
36,192,84524,1,0,0:0:0:0:
329,192,84599,1,0,0:0:0:0:
109,192,84599,1,0,0:0:0:0:
475,192,84674,1,0,0:0:0:0:
402,192,84674,1,0,0:0:0:0:
182,192,84674,1,0,0:0:0:0:
329,192,84749,1,0,0:0:0:0:
109,192,84749,1,0,0:0:0:0:
36,192,84824,1,0,0:0:0:0:
182,192,84824,1,0,0:0:0:0:
475,192,84824,1,0,0:0:0:0:
256,192,84899,1,0,0:0:0:0:
402,192,84899,1,0,0:0:0:0:
36,192,84974,1,0,0:0:0:0:
182,192,84974,1,0,0:0:0:0:
329,192,84974,1,0,0:0:0:0:
475,192,85049,1,0,0:0:0:0:
402,192,85124,1,0,0:0:0:0:
329,192,85124,1,0,0:0:0:0:
109,192,85124,1,0,0:0:0:0:
256,192,85199,1,0,0:0:0:0:
182,192,85199,1,0,0:0:0:0:
402,192,85274,1,0,0:0:0:0:
329,192,85274,1,0,0:0:0:0:
36,192,85274,1,0,0:0:0:0:
256,192,85349,1,0,0:0:0:0:
109,192,85349,1,0,0:0:0:0:
182,192,85424,1,0,0:0:0:0:
475,192,85424,1,0,0:0:0:0:
256,192,85499,1,0,0:0:0:0:
402,192,85499,1,0,0:0:0:0:
36,192,85574,1,0,0:0:0:0:
329,192,85574,1,0,0:0:0:0:
182,192,85649,1,0,0:0:0:0:
402,192,85649,1,0,0:0:0:0:
109,192,85724,1,0,0:0:0:0:
329,192,85724,1,0,0:0:0:0:
36,192,85799,1,0,0:0:0:0:
256,192,85799,1,0,0:0:0:0:
475,192,85874,1,0,0:0:0:0:
182,192,85874,1,0,0:0:0:0:
402,192,85949,1,0,0:0:0:0:
256,192,85949,1,0,0:0:0:0:
329,192,86024,1,0,0:0:0:0:
109,192,86024,1,0,0:0:0:0:
182,192,86099,1,0,0:0:0:0:
402,192,86099,1,0,0:0:0:0:
36,192,86174,1,0,0:0:0:0:
329,192,86174,1,0,0:0:0:0:
109,192,86249,1,0,0:0:0:0:
256,192,86249,1,0,0:0:0:0:
182,192,86324,1,0,0:0:0:0:
402,192,86324,1,0,0:0:0:0:
329,192,86399,1,0,0:0:0:0:
109,192,86399,1,0,0:0:0:0:
402,192,86474,1,0,0:0:0:0:
182,192,86474,1,0,0:0:0:0:
256,192,86549,1,0,0:0:0:0:
36,192,86549,1,0,0:0:0:0:
475,192,86549,1,0,0:0:0:0:
329,192,86549,1,0,0:0:0:0:
182,192,86624,1,0,0:0:0:0:
109,192,86699,1,0,0:0:0:0:
256,192,86699,1,0,0:0:0:0:
475,192,86699,1,0,0:0:0:0:
402,192,86699,1,0,0:0:0:0:
182,192,86774,1,0,0:0:0:0:
36,192,86849,1,0,0:0:0:0:
329,192,86849,1,0,0:0:0:0:
256,192,86849,1,0,0:0:0:0:
182,192,86924,1,0,0:0:0:0:
109,192,86999,1,0,0:0:0:0:
402,192,86999,1,0,0:0:0:0:
475,192,86999,1,0,0:0:0:0:
256,192,87074,1,0,0:0:0:0:
36,192,87149,1,0,0:0:0:0:
402,192,87149,1,0,0:0:0:0:
182,192,87149,1,0,0:0:0:0:
329,192,87149,1,0,0:0:0:0:
109,192,87224,1,0,0:0:0:0:
475,192,87224,1,0,0:0:0:0:
182,192,87299,1,0,0:0:0:0:
256,192,87299,1,0,0:0:0:0:
402,192,87299,1,0,0:0:0:0:
109,192,87374,1,0,0:0:0:0:
36,192,87374,1,0,0:0:0:0:
182,192,87449,1,0,0:0:0:0:
475,192,87449,1,0,0:0:0:0:
329,192,87449,1,0,0:0:0:0:
36,192,87524,1,0,0:0:0:0:
256,192,87524,1,0,0:0:0:0:
109,192,87599,1,0,0:0:0:0:
475,192,87599,1,0,0:0:0:0:
402,192,87599,1,0,0:0:0:0:
182,192,87674,1,0,0:0:0:0:
256,192,87674,1,0,0:0:0:0:
329,192,87749,1,0,0:0:0:0:
109,192,87749,1,0,0:0:0:0:
475,192,87749,1,0,0:0:0:0:
36,192,87749,1,0,0:0:0:0:
256,192,87824,1,0,0:0:0:0:
402,192,87899,1,0,0:0:0:0:
329,192,87899,1,0,0:0:0:0:
182,192,87899,1,0,0:0:0:0:
109,192,87899,1,0,0:0:0:0:
475,192,87974,1,0,0:0:0:0:
329,192,88049,1,0,0:0:0:0:
402,192,88049,1,0,0:0:0:0:
36,192,88049,1,0,0:0:0:0:
256,192,88124,1,0,0:0:0:0:
475,192,88199,1,0,0:0:0:0:
36,192,88199,1,0,0:0:0:0:
182,192,88199,1,0,0:0:0:0:
329,192,88274,1,0,0:0:0:0:
256,192,88349,1,0,0:0:0:0:
475,192,88349,1,0,0:0:0:0:
36,192,88349,1,0,0:0:0:0:
109,192,88349,1,0,0:0:0:0:
329,192,88424,1,0,0:0:0:0:
402,192,88424,1,0,0:0:0:0:
256,192,88499,1,0,0:0:0:0:
475,192,88499,1,0,0:0:0:0:
182,192,88499,1,0,0:0:0:0:
402,192,88574,1,0,0:0:0:0:
36,192,88574,1,0,0:0:0:0:
256,192,88649,1,0,0:0:0:0:
475,192,88649,1,0,0:0:0:0:
109,192,88649,1,0,0:0:0:0:
329,192,88724,1,0,0:0:0:0:
402,192,88724,1,0,0:0:0:0:
475,192,88799,1,0,0:0:0:0:
36,192,88799,1,0,0:0:0:0:
182,192,88799,1,0,0:0:0:0:
256,192,88874,1,0,0:0:0:0:
402,192,88874,1,0,0:0:0:0:
329,192,88949,1,0,0:0:0:0:
109,192,88949,1,0,0:0:0:0:
36,192,88949,1,0,0:0:0:0:
475,192,88949,1,0,0:0:0:0:
182,192,89024,1,0,0:0:0:0:
256,192,89099,1,0,0:0:0:0:
329,192,89099,1,0,0:0:0:0:
36,192,89099,1,0,0:0:0:0:
402,192,89099,1,0,0:0:0:0:
109,192,89174,1,0,0:0:0:0:
36,192,89249,1,0,0:0:0:0:
475,192,89249,1,0,0:0:0:0:
182,192,89249,1,0,0:0:0:0:
329,192,89324,1,0,0:0:0:0:
109,192,89399,1,0,0:0:0:0:
182,192,89399,1,0,0:0:0:0:
402,192,89399,1,0,0:0:0:0:
256,192,89474,1,0,0:0:0:0:
329,192,89549,1,0,0:0:0:0:
182,192,89549,1,0,0:0:0:0:
402,192,89549,1,0,0:0:0:0:
36,192,89549,1,0,0:0:0:0:
475,192,89624,1,0,0:0:0:0:
256,192,89624,1,0,0:0:0:0:
402,192,89699,1,0,0:0:0:0:
182,192,89699,1,0,0:0:0:0:
109,192,89699,1,0,0:0:0:0:
329,192,89774,1,0,0:0:0:0:
475,192,89774,1,0,0:0:0:0:
256,192,89849,1,0,0:0:0:0:
182,192,89849,1,0,0:0:0:0:
36,192,89849,1,0,0:0:0:0:
402,192,89924,1,0,0:0:0:0:
329,192,89924,1,0,0:0:0:0:
256,192,89999,1,0,0:0:0:0:
475,192,89999,1,0,0:0:0:0:
109,192,89999,1,0,0:0:0:0:
182,192,90074,1,0,0:0:0:0:
329,192,90074,1,0,0:0:0:0:
36,192,90149,1,0,0:0:0:0:
256,192,90149,1,0,0:0:0:0:
475,192,90149,1,0,0:0:0:0:
402,192,90149,1,0,0:0:0:0:
182,192,90224,1,0,0:0:0:0:
256,192,90299,1,0,0:0:0:0:
475,192,90299,1,0,0:0:0:0:
36,192,90299,1,0,0:0:0:0:
329,192,90299,1,0,0:0:0:0:
109,192,90374,1,0,0:0:0:0:
256,192,90449,1,0,0:0:0:0:
182,192,90449,1,0,0:0:0:0:
36,192,90449,1,0,0:0:0:0:
402,192,90524,1,0,0:0:0:0:
109,192,90599,1,0,0:0:0:0:
475,192,90599,1,0,0:0:0:0:
329,192,90599,1,0,0:0:0:0:
182,192,90674,1,0,0:0:0:0:
256,192,90749,1,0,0:0:0:0:
36,192,90749,1,0,0:0:0:0:
475,192,90749,1,0,0:0:0:0:
402,192,90749,1,0,0:0:0:0:
109,192,90824,1,0,0:0:0:0:
182,192,90824,1,0,0:0:0:0:
256,192,90899,1,0,0:0:0:0:
475,192,90899,1,0,0:0:0:0:
329,192,90899,1,0,0:0:0:0:
36,192,90974,1,0,0:0:0:0:
182,192,90974,1,0,0:0:0:0:
109,192,91049,1,0,0:0:0:0:
475,192,91049,1,0,0:0:0:0:
402,192,91049,1,0,0:0:0:0:
256,192,91124,1,0,0:0:0:0:
36,192,91124,1,0,0:0:0:0:
182,192,91199,1,0,0:0:0:0:
475,192,91199,1,0,0:0:0:0:
329,192,91199,1,0,0:0:0:0:
109,192,91274,1,0,0:0:0:0:
36,192,91349,1,0,0:0:0:0:
402,192,91349,1,0,0:0:0:0:
475,192,91349,1,0,0:0:0:0:
182,192,91349,1,0,0:0:0:0:
182,192,91424,1,0,0:0:0:0:
475,192,91499,1,0,0:0:0:0:
256,192,91499,1,0,0:0:0:0:
36,192,91649,1,0,0:0:0:0:
256,192,91649,1,0,0:0:0:0:
329,192,91649,1,0,0:0:0:0:
402,192,91649,1,0,0:0:0:0:
402,192,91724,1,0,0:0:0:0:
329,192,91799,1,0,0:0:0:0:
182,192,91799,1,0,0:0:0:0:
475,192,91949,1,0,0:0:0:0:
402,192,91949,1,0,0:0:0:0:
109,192,91949,1,0,0:0:0:0:
256,192,91949,1,0,0:0:0:0:
109,192,92024,1,0,0:0:0:0:
182,192,92099,1,0,0:0:0:0:
402,192,92099,1,0,0:0:0:0:
109,192,92249,1,0,0:0:0:0:
329,192,92249,1,0,0:0:0:0:
256,192,92249,1,0,0:0:0:0:
36,192,92249,1,0,0:0:0:0:
329,192,92324,1,0,0:0:0:0:
256,192,92399,1,0,0:0:0:0:
36,192,92399,1,0,0:0:0:0:
36,192,92549,1,0,0:0:0:0:
475,192,92549,1,0,0:0:0:0:
256,192,92549,1,0,0:0:0:0:
182,192,92549,1,0,0:0:0:0:
36,192,92624,1,0,0:0:0:0:
109,192,92699,1,0,0:0:0:0:
329,192,92699,1,0,0:0:0:0:
36,192,92849,1,0,0:0:0:0:
329,192,92849,1,0,0:0:0:0:
109,192,92849,1,0,0:0:0:0:
475,192,92849,1,0,0:0:0:0:
475,192,92924,1,0,0:0:0:0:
182,192,92999,1,0,0:0:0:0:
402,192,92999,1,0,0:0:0:0:
109,192,93149,1,0,0:0:0:0:
402,192,93149,1,0,0:0:0:0:
475,192,93149,1,0,0:0:0:0:
329,192,93149,1,0,0:0:0:0:
109,192,93224,1,0,0:0:0:0:
402,192,93299,1,0,0:0:0:0:
182,192,93299,1,0,0:0:0:0:
36,192,93449,1,0,0:0:0:0:
256,192,93449,1,0,0:0:0:0:
329,192,93449,1,0,0:0:0:0:
475,192,93449,1,0,0:0:0:0:
329,192,93524,1,0,0:0:0:0:
256,192,93599,1,0,0:0:0:0:
109,192,93599,1,0,0:0:0:0:
402,192,93749,1,0,0:0:0:0:
36,192,93749,1,0,0:0:0:0:
182,192,93749,1,0,0:0:0:0:
109,192,93824,1,0,0:0:0:0:
256,192,93824,1,0,0:0:0:0:
475,192,93899,1,0,0:0:0:0:
36,192,93899,1,0,0:0:0:0:
329,192,93899,1,0,0:0:0:0:
256,192,93974,1,0,0:0:0:0:
109,192,93974,1,0,0:0:0:0:
402,192,94049,1,0,0:0:0:0:
329,192,94049,1,0,0:0:0:0:
182,192,94049,1,0,0:0:0:0:
36,192,94124,1,0,0:0:0:0:
256,192,94124,1,0,0:0:0:0:
109,192,94199,1,0,0:0:0:0:
329,192,94199,1,0,0:0:0:0:
475,192,94199,1,0,0:0:0:0:
182,192,94274,1,0,0:0:0:0:
402,192,94274,1,0,0:0:0:0:
109,192,94349,1,0,0:0:0:0:
256,192,94349,1,0,0:0:0:0:
329,192,94349,1,0,0:0:0:0:
402,192,94424,1,0,0:0:0:0:
36,192,94424,1,0,0:0:0:0:
256,192,94499,1,0,0:0:0:0:
475,192,94499,1,0,0:0:0:0:
182,192,94499,1,0,0:0:0:0:
402,192,94574,1,0,0:0:0:0:
109,192,94574,1,0,0:0:0:0:
256,192,94649,1,0,0:0:0:0:
36,192,94649,1,0,0:0:0:0:
329,192,94649,1,0,0:0:0:0:
182,192,94724,1,0,0:0:0:0:
402,192,94724,1,0,0:0:0:0:
109,192,94799,1,0,0:0:0:0:
475,192,94799,1,0,0:0:0:0:
256,192,94799,1,0,0:0:0:0:
402,192,94874,1,0,0:0:0:0:
329,192,94874,1,0,0:0:0:0:
182,192,94949,1,0,0:0:0:0:
36,192,94949,1,0,0:0:0:0:
109,192,94949,1,0,0:0:0:0:
475,192,94949,1,0,0:0:0:0:
329,192,95024,1,0,0:0:0:0:
402,192,95024,1,0,0:0:0:0:
182,192,95099,1,0,0:0:0:0:
256,192,95099,1,0,0:0:0:0:
109,192,95174,1,0,0:0:0:0:
329,192,95174,1,0,0:0:0:0:
256,192,95249,1,0,0:0:0:0:
402,192,95249,1,0,0:0:0:0:
475,192,95324,1,0,0:0:0:0:
109,192,95324,1,0,0:0:0:0:
182,192,95399,1,0,0:0:0:0:
256,192,95399,1,0,0:0:0:0:
329,192,95399,1,0,0:0:0:0:
36,192,95399,1,0,0:0:0:0:
475,192,95474,1,0,0:0:0:0:
402,192,95474,1,0,0:0:0:0:
182,192,95549,1,0,0:0:0:0:
329,192,95549,1,0,0:0:0:0:
402,192,95624,1,0,0:0:0:0:
109,192,95624,1,0,0:0:0:0:
329,192,95699,1,0,0:0:0:0:
182,192,95699,1,0,0:0:0:0:
36,192,95774,1,0,0:0:0:0:
109,192,95774,1,0,0:0:0:0:
329,192,95849,1,0,0:0:0:0:
402,192,95849,1,0,0:0:0:0:
475,192,95849,1,0,0:0:0:0:
256,192,95849,1,0,0:0:0:0:
109,192,95924,1,0,0:0:0:0:
182,192,95924,1,0,0:0:0:0:
402,192,95999,1,0,0:0:0:0:
329,192,95999,1,0,0:0:0:0:
475,192,96074,1,0,0:0:0:0:
256,192,96074,1,0,0:0:0:0:
402,192,96149,1,0,0:0:0:0:
36,192,96149,1,0,0:0:0:0:
329,192,96224,1,0,0:0:0:0:
182,192,96224,1,0,0:0:0:0:
256,192,96299,1,0,0:0:0:0:
402,192,96299,1,0,0:0:0:0:
36,192,96299,1,0,0:0:0:0:
329,192,96374,1,0,0:0:0:0:
182,192,96374,1,0,0:0:0:0:
256,192,96449,1,0,0:0:0:0:
109,192,96449,1,0,0:0:0:0:
475,192,96449,1,0,0:0:0:0:
182,192,96524,1,0,0:0:0:0:
329,192,96524,1,0,0:0:0:0:
256,192,96599,1,0,0:0:0:0:
109,192,96599,1,0,0:0:0:0:
475,192,96599,1,0,0:0:0:0:
182,192,96674,1,0,0:0:0:0:
329,192,96674,1,0,0:0:0:0:
256,192,96749,1,0,0:0:0:0:
402,192,96749,1,0,0:0:0:0:
36,192,96749,1,0,0:0:0:0:
329,192,96824,1,0,0:0:0:0:
182,192,96824,1,0,0:0:0:0:
256,192,96899,1,0,0:0:0:0:
402,192,96899,1,0,0:0:0:0:
36,192,96899,1,0,0:0:0:0:
329,192,96974,1,0,0:0:0:0:
182,192,96974,1,0,0:0:0:0:
256,192,97049,1,0,0:0:0:0:
109,192,97049,1,0,0:0:0:0:
475,192,97049,1,0,0:0:0:0:
182,192,97124,1,0,0:0:0:0:
329,192,97124,1,0,0:0:0:0:
256,192,97199,1,0,0:0:0:0:
109,192,97199,1,0,0:0:0:0:
475,192,97199,1,0,0:0:0:0:
182,192,97274,1,0,0:0:0:0:
329,192,97349,1,0,0:0:0:0:
109,192,97349,1,0,0:0:0:0:
36,192,97349,1,0,0:0:0:0:
402,192,97424,1,0,0:0:0:0:
182,192,97424,1,0,0:0:0:0:
256,192,97424,1,0,0:0:0:0:
109,192,97499,1,0,0:0:0:0:
475,192,97499,1,0,0:0:0:0:
36,192,97499,1,0,0:0:0:0:
402,192,97574,1,0,0:0:0:0:
256,192,97574,1,0,0:0:0:0:
109,192,97649,1,0,0:0:0:0:
475,192,97649,1,0,0:0:0:0:
402,192,97724,1,0,0:0:0:0:
182,192,97724,1,0,0:0:0:0:
329,192,97799,1,0,0:0:0:0:
475,192,97799,1,0,0:0:0:0:
256,192,97874,1,0,0:0:0:0:
182,192,97874,1,0,0:0:0:0:
109,192,97949,1,0,0:0:0:0:
402,192,97949,1,0,0:0:0:0:
256,192,98024,1,0,0:0:0:0:
329,192,98024,1,0,0:0:0:0:
36,192,98099,1,0,0:0:0:0:
109,192,98099,1,0,0:0:0:0:
402,192,98174,1,0,0:0:0:0:
182,192,98174,1,0,0:0:0:0:
109,192,98249,1,0,0:0:0:0:
329,192,98249,1,0,0:0:0:0:
182,192,98324,1,0,0:0:0:0:
402,192,98324,1,0,0:0:0:0:
256,192,98399,1,0,0:0:0:0:
109,192,98399,1,0,0:0:0:0:
475,192,98474,1,0,0:0:0:0:
182,192,98474,1,0,0:0:0:0:
256,192,98549,1,0,0:0:0:0:
109,192,98549,1,0,0:0:0:0:
36,192,98549,1,0,0:0:0:0:
402,192,98549,1,0,0:0:0:0:
329,192,98624,1,0,0:0:0:0:
256,192,98699,1,0,0:0:0:0:
329,192,98774,1,0,0:0:0:0:
109,192,98849,1,0,0:0:0:0:
182,192,98849,1,0,0:0:0:0:
256,192,98849,1,0,0:0:0:0:
402,192,98849,1,0,0:0:0:0:
36,192,98849,1,0,0:0:0:0:
475,192,98924,1,0,0:0:0:0:
402,192,98999,1,0,0:0:0:0:
329,192,99074,1,0,0:0:0:0:
109,192,99149,1,0,0:0:0:0:
182,192,99149,1,0,0:0:0:0:
256,192,99149,1,0,0:0:0:0:
402,192,99149,1,0,0:0:0:0:
36,192,99149,1,0,0:0:0:0:
475,192,99224,1,0,0:0:0:0:
402,192,99299,1,0,0:0:0:0:
329,192,99374,1,0,0:0:0:0:
109,192,99449,1,0,0:0:0:0:
256,192,99449,1,0,0:0:0:0:
402,192,99449,1,0,0:0:0:0:
182,192,99449,1,0,0:0:0:0:
475,192,99449,1,0,0:0:0:0:
36,192,99599,1,0,0:0:0:0:
329,192,99599,1,0,0:0:0:0:
402,192,99674,1,0,0:0:0:0:
109,192,99749,1,0,0:0:0:0:
182,192,99749,1,0,0:0:0:0:
256,192,99749,1,0,0:0:0:0:
475,192,99749,1,0,0:0:0:0:
329,192,99749,1,0,0:0:0:0:
402,192,99824,1,0,0:0:0:0:
256,192,99899,1,0,0:0:0:0:
329,192,99974,1,0,0:0:0:0:
109,192,100049,1,0,0:0:0:0:
182,192,100049,1,0,0:0:0:0:
256,192,100049,1,0,0:0:0:0:
402,192,100049,1,0,0:0:0:0:
475,192,100124,1,0,0:0:0:0:
402,192,100199,1,0,0:0:0:0:
329,192,100274,1,0,0:0:0:0:
109,192,100349,1,0,0:0:0:0:
256,192,100349,1,0,0:0:0:0:
182,192,100424,1,0,0:0:0:0:
402,192,100424,1,0,0:0:0:0:
36,192,100499,1,0,0:0:0:0:
329,192,100499,1,0,0:0:0:0:
256,192,100574,1,0,0:0:0:0:
109,192,100574,1,0,0:0:0:0:
329,192,100649,1,0,0:0:0:0:
182,192,100649,1,0,0:0:0:0:
36,192,100724,1,0,0:0:0:0:
402,192,100724,1,0,0:0:0:0:
256,192,100799,1,0,0:0:0:0:
109,192,100799,1,0,0:0:0:0:
329,192,100874,1,0,0:0:0:0:
182,192,100874,1,0,0:0:0:0:
256,192,100949,1,0,0:0:0:0:
402,192,100949,1,0,0:0:0:0:
475,192,100949,1,0,0:0:0:0:
256,192,101099,1,0,0:0:0:0:
402,192,101099,1,0,0:0:0:0:
475,192,101099,1,0,0:0:0:0:
36,192,101249,1,0,0:0:0:0:
109,192,101249,1,0,0:0:0:0:
329,192,101249,1,0,0:0:0:0:
36,192,101399,1,0,0:0:0:0:
109,192,101399,1,0,0:0:0:0:
329,192,101399,1,0,0:0:0:0:
182,192,101549,1,0,0:0:0:0:
475,192,101549,1,0,0:0:0:0:
329,192,101599,1,0,0:0:0:0:
402,192,101649,1,0,0:0:0:0:
109,192,101699,1,0,0:0:0:0:
475,192,101699,1,0,0:0:0:0:
182,192,101749,1,0,0:0:0:0:
256,192,101799,1,0,0:0:0:0:
402,192,101849,1,0,0:0:0:0:
109,192,101849,1,0,0:0:0:0:
329,192,101899,1,0,0:0:0:0:
36,192,101949,1,0,0:0:0:0:
109,192,101999,1,0,0:0:0:0:
402,192,101999,1,0,0:0:0:0:
256,192,102049,1,0,0:0:0:0:
182,192,102099,1,0,0:0:0:0:
329,192,102149,1,0,0:0:0:0:
36,192,102149,1,0,0:0:0:0:
402,192,102199,1,0,0:0:0:0:
109,192,102249,1,0,0:0:0:0:
329,192,102299,1,0,0:0:0:0:
36,192,102299,1,0,0:0:0:0:
402,192,102349,1,0,0:0:0:0:
475,192,102399,1,0,0:0:0:0:
256,192,102449,1,0,0:0:0:0:
36,192,102449,1,0,0:0:0:0:
109,192,102499,1,0,0:0:0:0:
402,192,102549,1,0,0:0:0:0:
475,192,102599,1,0,0:0:0:0:
182,192,102599,1,0,0:0:0:0:
256,192,102649,1,0,0:0:0:0:
402,192,102699,1,0,0:0:0:0:
182,192,102749,1,0,0:0:0:0:
329,192,102749,1,0,0:0:0:0:
36,192,102799,1,0,0:0:0:0:
256,192,102849,1,0,0:0:0:0:
329,192,102899,1,0,0:0:0:0:
109,192,102899,1,0,0:0:0:0:
402,192,102949,1,0,0:0:0:0:
256,192,102999,1,0,0:0:0:0:
109,192,103049,1,0,0:0:0:0:
182,192,103049,1,0,0:0:0:0:
36,192,103049,1,0,0:0:0:0:
475,192,103049,1,0,0:0:0:0:
329,192,103124,1,0,0:0:0:0:
402,192,103124,1,0,0:0:0:0:
256,192,103124,1,0,0:0:0:0:
109,192,103199,1,0,0:0:0:0:
182,192,103199,1,0,0:0:0:0:
36,192,103199,1,0,0:0:0:0:
475,192,103199,1,0,0:0:0:0:
329,192,103274,1,0,0:0:0:0:
402,192,103274,1,0,0:0:0:0:
256,192,103274,1,0,0:0:0:0:
475,192,103349,1,0,0:0:0:0:
182,192,103349,1,0,0:0:0:0:
36,192,103349,1,0,0:0:0:0:
109,192,103349,1,0,0:0:0:0:
329,192,103424,1,0,0:0:0:0:
475,192,103499,1,0,0:0:0:0:
256,192,103499,1,0,0:0:0:0:
182,192,103499,1,0,0:0:0:0:
402,192,103499,1,0,0:0:0:0:
329,192,103574,1,0,0:0:0:0:
109,192,103649,1,0,0:0:0:0:
256,192,103649,1,0,0:0:0:0:
475,192,103649,1,0,0:0:0:0:
36,192,103649,1,0,0:0:0:0:
402,192,103724,1,0,0:0:0:0:
329,192,103799,1,0,0:0:0:0:
109,192,103799,1,0,0:0:0:0:
182,192,103799,1,0,0:0:0:0:
256,192,103799,1,0,0:0:0:0:
475,192,103874,1,0,0:0:0:0:
329,192,103949,1,0,0:0:0:0:
36,192,103949,1,0,0:0:0:0:
109,192,103949,1,0,0:0:0:0:
402,192,103949,1,0,0:0:0:0:
182,192,104024,1,0,0:0:0:0:
256,192,104099,1,0,0:0:0:0:
36,192,104099,1,0,0:0:0:0:
329,192,104099,1,0,0:0:0:0:
475,192,104099,1,0,0:0:0:0:
182,192,104174,1,0,0:0:0:0:
256,192,104249,1,0,0:0:0:0:
402,192,104249,1,0,0:0:0:0:
109,192,104249,1,0,0:0:0:0:
36,192,104249,1,0,0:0:0:0:
329,192,104324,1,0,0:0:0:0:
256,192,104399,1,0,0:0:0:0:
475,192,104399,1,0,0:0:0:0:
182,192,104399,1,0,0:0:0:0:
402,192,104399,1,0,0:0:0:0:
329,192,104474,1,0,0:0:0:0:
256,192,104549,1,0,0:0:0:0:
109,192,104549,1,0,0:0:0:0:
36,192,104549,1,0,0:0:0:0:
475,192,104549,1,0,0:0:0:0:
109,192,104699,1,0,0:0:0:0:
256,192,104699,1,0,0:0:0:0:
475,192,104699,1,0,0:0:0:0:
36,192,104699,1,0,0:0:0:0:
329,192,104774,1,0,0:0:0:0:
182,192,104849,1,0,0:0:0:0:
256,192,104849,1,0,0:0:0:0:
402,192,104849,1,0,0:0:0:0:
475,192,104849,1,0,0:0:0:0:
182,192,104999,1,0,0:0:0:0:
402,192,104999,1,0,0:0:0:0:
256,192,104999,1,0,0:0:0:0:
475,192,104999,1,0,0:0:0:0:
329,192,105074,1,0,0:0:0:0:
402,192,105149,1,0,0:0:0:0:
182,192,105149,1,0,0:0:0:0:
109,192,105149,1,0,0:0:0:0:
36,192,105149,1,0,0:0:0:0:
109,192,105299,1,0,0:0:0:0:
182,192,105299,1,0,0:0:0:0:
36,192,105299,1,0,0:0:0:0:
402,192,105299,1,0,0:0:0:0:
256,192,105374,1,0,0:0:0:0:
182,192,105449,1,0,0:0:0:0:
36,192,105449,1,0,0:0:0:0:
329,192,105449,1,0,0:0:0:0:
475,192,105449,1,0,0:0:0:0:
329,192,105599,1,0,0:0:0:0:
475,192,105599,1,0,0:0:0:0:
182,192,105599,1,0,0:0:0:0:
36,192,105599,1,0,0:0:0:0:
256,192,105674,1,0,0:0:0:0:
329,192,105749,1,0,0:0:0:0:
402,192,105749,1,0,0:0:0:0:
475,192,105749,1,0,0:0:0:0:
109,192,105749,1,0,0:0:0:0:
182,192,105824,1,0,0:0:0:0:
109,192,105899,1,0,0:0:0:0:
182,192,105974,1,0,0:0:0:0:
402,192,106049,1,0,0:0:0:0:
475,192,106049,1,0,0:0:0:0:
329,192,106049,1,0,0:0:0:0:
36,192,106049,1,0,0:0:0:0:
109,192,106124,1,0,0:0:0:0:
36,192,106199,1,0,0:0:0:0:
109,192,106274,1,0,0:0:0:0:
329,192,106349,1,0,0:0:0:0:
402,192,106349,1,0,0:0:0:0:
475,192,106349,1,0,0:0:0:0:
182,192,106349,1,0,0:0:0:0:
256,192,106424,1,0,0:0:0:0:
182,192,106499,1,0,0:0:0:0:
256,192,106574,1,0,0:0:0:0:
329,192,106649,1,0,0:0:0:0:
402,192,106649,1,0,0:0:0:0:
475,192,106649,1,0,0:0:0:0:
109,192,106649,1,0,0:0:0:0:
182,192,106724,1,0,0:0:0:0:
109,192,106799,1,0,0:0:0:0:
182,192,106874,1,0,0:0:0:0:
329,192,106949,1,0,0:0:0:0:
475,192,106949,1,0,0:0:0:0:
402,192,106949,1,0,0:0:0:0:
36,192,106949,1,0,0:0:0:0:
109,192,107024,1,0,0:0:0:0:
36,192,107099,1,0,0:0:0:0:
109,192,107174,1,0,0:0:0:0:
329,192,107249,1,0,0:0:0:0:
402,192,107249,1,0,0:0:0:0:
475,192,107249,1,0,0:0:0:0:
182,192,107249,1,0,0:0:0:0:
256,192,107324,1,0,0:0:0:0:
182,192,107399,1,0,0:0:0:0:
256,192,107474,1,0,0:0:0:0:
329,192,107549,1,0,0:0:0:0:
402,192,107549,1,0,0:0:0:0:
475,192,107549,1,0,0:0:0:0:
36,192,107549,1,0,0:0:0:0:
109,192,107624,1,0,0:0:0:0:
36,192,107699,1,0,0:0:0:0:
109,192,107774,1,0,0:0:0:0:
402,192,107849,1,0,0:0:0:0:
256,192,107849,1,0,0:0:0:0:
475,192,107849,1,0,0:0:0:0:
329,192,107924,1,0,0:0:0:0:
182,192,107924,1,0,0:0:0:0:
36,192,107924,1,0,0:0:0:0:
475,192,107999,1,0,0:0:0:0:
109,192,107999,1,0,0:0:0:0:
256,192,107999,1,0,0:0:0:0:
402,192,108074,1,0,0:0:0:0:
182,192,108074,1,0,0:0:0:0:
329,192,108074,1,0,0:0:0:0:
256,192,108149,1,0,0:0:0:0:
109,192,108149,1,0,0:0:0:0:
329,192,108224,1,0,0:0:0:0:
109,192,108299,1,0,0:0:0:0:
256,192,108299,1,0,0:0:0:0:
475,192,108299,1,0,0:0:0:0:
182,192,108449,1,0,0:0:0:0:
329,192,108449,1,0,0:0:0:0:
36,192,108449,1,0,0:0:0:0:
109,192,108524,1,0,0:0:0:0:
402,192,108524,1,0,0:0:0:0:
256,192,108599,1,0,0:0:0:0:
475,192,108599,1,0,0:0:0:0:
402,192,108674,1,0,0:0:0:0:
109,192,108749,1,0,0:0:0:0:
182,192,108749,1,0,0:0:0:0:
329,192,108749,1,0,0:0:0:0:
402,192,108824,1,0,0:0:0:0:
475,192,108824,1,0,0:0:0:0:
109,192,108899,1,0,0:0:0:0:
182,192,108899,1,0,0:0:0:0:
402,192,108974,1,0,0:0:0:0:
475,192,108974,1,0,0:0:0:0:
109,192,109049,1,0,0:0:0:0:
256,192,109049,1,0,0:0:0:0:
329,192,109049,1,0,0:0:0:0:
36,192,109049,1,0,0:0:0:0:
182,192,109124,1,0,0:0:0:0:
475,192,109199,1,0,0:0:0:0:
402,192,109199,1,0,0:0:0:0:
256,192,109199,1,0,0:0:0:0:
329,192,109274,1,0,0:0:0:0:
402,192,109349,1,0,0:0:0:0:
475,192,109349,1,0,0:0:0:0:
109,192,109349,1,0,0:0:0:0:
182,192,109349,1,0,0:0:0:0:
256,192,109349,1,0,0:0:0:0:
329,192,109424,1,0,0:0:0:0:
402,192,109499,1,0,0:0:0:0:
36,192,109499,1,0,0:0:0:0:
475,192,109499,1,0,0:0:0:0:
329,192,109574,1,0,0:0:0:0:
402,192,109649,1,0,0:0:0:0:
36,192,109649,1,0,0:0:0:0:
109,192,109649,1,0,0:0:0:0:
329,192,109724,1,0,0:0:0:0:
256,192,109799,1,0,0:0:0:0:
475,192,109799,1,0,0:0:0:0:
182,192,109874,1,0,0:0:0:0:
329,192,109949,1,0,0:0:0:0:
256,192,109949,1,0,0:0:0:0:
36,192,109949,1,0,0:0:0:0:
402,192,110024,1,0,0:0:0:0:
109,192,110024,1,0,0:0:0:0:
182,192,110099,1,0,0:0:0:0:
475,192,110099,1,0,0:0:0:0:
329,192,110174,1,0,0:0:0:0:
402,192,110249,1,0,0:0:0:0:
182,192,110249,1,0,0:0:0:0:
109,192,110249,1,0,0:0:0:0:
256,192,110324,1,0,0:0:0:0:
475,192,110324,1,0,0:0:0:0:
182,192,110399,1,0,0:0:0:0:
329,192,110399,1,0,0:0:0:0:
402,192,110549,1,0,0:0:0:0:
475,192,110549,1,0,0:0:0:0:
182,192,110549,1,0,0:0:0:0:
36,192,110549,1,0,0:0:0:0:
402,192,110624,1,0,0:0:0:0:
36,192,110699,1,0,0:0:0:0:
329,192,110699,1,0,0:0:0:0:
402,192,110849,1,0,0:0:0:0:
256,192,110849,1,0,0:0:0:0:
329,192,110849,1,0,0:0:0:0:
109,192,110849,1,0,0:0:0:0:
109,192,110924,1,0,0:0:0:0:
182,192,110999,1,0,0:0:0:0:
402,192,110999,1,0,0:0:0:0:
475,192,111149,1,0,0:0:0:0:
109,192,111149,1,0,0:0:0:0:
36,192,111149,1,0,0:0:0:0:
329,192,111149,1,0,0:0:0:0:
475,192,111224,1,0,0:0:0:0:
402,192,111299,1,0,0:0:0:0:
182,192,111299,1,0,0:0:0:0:
256,192,111449,1,0,0:0:0:0:
36,192,111449,1,0,0:0:0:0:
329,192,111449,1,0,0:0:0:0:
182,192,111449,1,0,0:0:0:0:
36,192,111524,1,0,0:0:0:0:
109,192,111599,1,0,0:0:0:0:
256,192,111599,1,0,0:0:0:0:
475,192,111749,1,0,0:0:0:0:
36,192,111749,1,0,0:0:0:0:
329,192,111749,1,0,0:0:0:0:
256,192,111749,1,0,0:0:0:0:
329,192,111824,1,0,0:0:0:0:
256,192,111899,1,0,0:0:0:0:
109,192,111899,1,0,0:0:0:0:
182,192,112049,1,0,0:0:0:0:
36,192,112049,1,0,0:0:0:0:
329,192,112049,1,0,0:0:0:0:
109,192,112049,1,0,0:0:0:0:
182,192,112124,1,0,0:0:0:0:
256,192,112199,1,0,0:0:0:0:
402,192,112199,1,0,0:0:0:0:
475,192,112349,1,0,0:0:0:0:
402,192,112349,1,0,0:0:0:0:
36,192,112349,1,0,0:0:0:0:
182,192,112349,1,0,0:0:0:0:
36,192,112424,1,0,0:0:0:0:
109,192,112499,1,0,0:0:0:0:
329,192,112499,1,0,0:0:0:0:
256,192,112649,1,0,0:0:0:0:
475,192,112649,1,0,0:0:0:0:
36,192,112649,1,0,0:0:0:0:
329,192,112649,1,0,0:0:0:0:
475,192,112724,1,0,0:0:0:0:
402,192,112799,1,0,0:0:0:0:
182,192,112799,1,0,0:0:0:0:
109,192,112949,1,0,0:0:0:0:
329,192,112949,1,0,0:0:0:0:
256,192,112949,1,0,0:0:0:0:
36,192,112949,1,0,0:0:0:0:
109,192,113024,1,0,0:0:0:0:
182,192,113099,1,0,0:0:0:0:
402,192,113099,1,0,0:0:0:0:
256,192,113174,1,0,0:0:0:0:
182,192,113249,1,0,0:0:0:0:
402,192,113249,1,0,0:0:0:0:
109,192,113249,1,0,0:0:0:0:
475,192,113249,1,0,0:0:0:0:
402,192,113324,1,0,0:0:0:0:
329,192,113399,1,0,0:0:0:0:
109,192,113399,1,0,0:0:0:0:
109,192,113549,1,0,0:0:0:0:
182,192,113549,1,0,0:0:0:0:
36,192,113549,1,0,0:0:0:0:
402,192,113549,1,0,0:0:0:0:
36,192,113624,1,0,0:0:0:0:
109,192,113699,1,0,0:0:0:0:
329,192,113699,1,0,0:0:0:0:
256,192,113774,1,0,0:0:0:0:
329,192,113849,1,0,0:0:0:0:
402,192,113849,1,0,0:0:0:0:
36,192,113849,1,0,0:0:0:0:
475,192,113849,1,0,0:0:0:0:
182,192,113849,1,0,0:0:0:0:
475,192,113924,1,0,0:0:0:0:
402,192,113999,1,0,0:0:0:0:
182,192,113999,1,0,0:0:0:0:
256,192,114074,1,0,0:0:0:0:
36,192,114149,1,0,0:0:0:0:
329,192,114149,1,0,0:0:0:0:
109,192,114149,1,0,0:0:0:0:
329,192,114299,1,0,0:0:0:0:
36,192,114299,1,0,0:0:0:0:
109,192,114299,1,0,0:0:0:0:
475,192,114449,1,0,0:0:0:0:
182,192,114449,1,0,0:0:0:0:
402,192,114449,1,0,0:0:0:0:
475,192,114599,1,0,0:0:0:0:
182,192,114599,1,0,0:0:0:0:
402,192,114599,1,0,0:0:0:0:
36,192,114749,1,0,0:0:0:0:
109,192,114749,1,0,0:0:0:0:
182,192,114786,1,0,0:0:0:0:
256,192,114824,1,0,0:0:0:0:
402,192,114861,1,0,0:0:0:0:
182,192,114899,1,0,0:0:0:0:
109,192,114936,1,0,0:0:0:0:
475,192,114974,1,0,0:0:0:0:
36,192,114974,1,0,0:0:0:0:
402,192,115011,1,0,0:0:0:0:
256,192,115049,1,0,0:0:0:0:
329,192,115049,1,0,0:0:0:0:
36,192,115086,1,0,0:0:0:0:
182,192,115124,1,0,0:0:0:0:
402,192,115161,1,0,0:0:0:0:
475,192,115199,1,0,0:0:0:0:
109,192,115199,1,0,0:0:0:0:
329,192,115236,1,0,0:0:0:0:
182,192,115274,1,0,0:0:0:0:
36,192,115349,1,0,0:0:0:0:
109,192,115349,1,0,0:0:0:0:
475,192,115349,1,0,0:0:0:0:
402,192,115349,1,0,0:0:0:0:
256,192,115349,1,0,0:0:0:0:
182,192,124949,132,0,126749:0:0:0:0:
329,192,124949,128,0,126749:0:0:0:0:
36,192,124949,1,0,0:0:0:0:
475,192,124949,1,0,0:0:0:0:
109,192,124949,1,0,0:0:0:0:
402,192,124949,1,0,0:0:0:0:
256,192,125249,1,0,0:0:0:0:
256,192,125399,1,0,0:0:0:0:
256,192,125549,1,0,0:0:0:0:
256,192,125699,1,0,0:0:0:0:
256,192,125849,1,0,0:0:0:0:
256,192,125999,1,0,0:0:0:0:
256,192,126149,1,0,0:0:0:0:
109,192,126149,1,0,0:0:0:0:
402,192,126149,1,0,0:0:0:0:
256,192,126299,1,0,0:0:0:0:
36,192,126299,1,0,0:0:0:0:
475,192,126299,1,0,0:0:0:0:
256,192,126449,1,0,0:0:0:0:
402,192,126449,1,0,0:0:0:0:
109,192,126449,1,0,0:0:0:0:
36,192,126599,1,0,0:0:0:0:
109,192,126599,1,0,0:0:0:0:
475,192,126599,1,0,0:0:0:0:
402,192,126599,1,0,0:0:0:0:
36,192,126749,1,0,0:0:0:0:
109,192,126749,1,0,0:0:0:0:
402,192,126749,1,0,0:0:0:0:
475,192,126749,1,0,0:0:0:0:
256,192,126749,1,0,0:0:0:0:
182,192,126899,128,0,127349:0:0:0:0:
109,192,126899,128,0,127349:0:0:0:0:
329,192,126899,128,0,127349:0:0:0:0:
402,192,126899,1,0,0:0:0:0:
475,192,126899,1,0,0:0:0:0:
402,192,127349,1,0,0:0:0:0:
36,192,127349,1,0,0:0:0:0:
475,192,127424,1,0,0:0:0:0:
109,192,127424,1,0,0:0:0:0:
402,192,127499,1,0,0:0:0:0:
36,192,127499,1,0,0:0:0:0:
329,192,127649,1,0,0:0:0:0:
475,192,127649,1,0,0:0:0:0:
329,192,127799,1,0,0:0:0:0:
475,192,127799,1,0,0:0:0:0:
109,192,127949,128,0,128549:0:0:0:0:
36,192,127949,128,0,128549:0:0:0:0:
256,192,127949,128,0,128549:0:0:0:0:
475,192,128549,1,0,0:0:0:0:
329,192,128549,1,0,0:0:0:0:
475,192,128699,1,0,0:0:0:0:
329,192,128699,1,0,0:0:0:0:
182,192,128849,1,0,0:0:0:0:
36,192,128849,1,0,0:0:0:0:
36,192,128999,1,0,0:0:0:0:
182,192,128999,1,0,0:0:0:0:
329,192,129149,128,0,129449:0:0:0:0:
402,192,129149,128,0,129449:0:0:0:0:
475,192,129149,128,0,129449:0:0:0:0:
182,192,129449,128,0,129749:0:0:0:0:
109,192,129449,128,0,129749:0:0:0:0:
36,192,129449,128,0,129749:0:0:0:0:
402,192,129749,1,0,0:0:0:0:
256,192,129749,1,0,0:0:0:0:
475,192,129824,1,0,0:0:0:0:
329,192,129824,1,0,0:0:0:0:
402,192,129899,1,0,0:0:0:0:
256,192,129899,1,0,0:0:0:0:
329,192,130049,1,0,0:0:0:0:
475,192,130049,1,0,0:0:0:0:
329,192,130199,1,0,0:0:0:0:
475,192,130199,1,0,0:0:0:0:
109,192,130349,128,0,130949:0:0:0:0:
182,192,130349,128,0,130949:0:0:0:0:
402,192,130349,128,0,130949:0:0:0:0:
329,192,130949,1,0,0:0:0:0:
475,192,130949,1,0,0:0:0:0:
36,192,130949,1,0,0:0:0:0:
329,192,131099,1,0,0:0:0:0:
475,192,131099,1,0,0:0:0:0:
36,192,131099,1,0,0:0:0:0:
109,192,131399,1,0,0:0:0:0:
182,192,131399,1,0,0:0:0:0:
109,192,131549,128,0,131849:0:0:0:0:
182,192,131549,128,0,131849:0:0:0:0:
329,192,131549,1,0,0:0:0:0:
402,192,131549,1,0,0:0:0:0:
329,192,131849,128,0,132149:0:0:0:0:
402,192,131849,128,0,132149:0:0:0:0:
36,192,132149,1,0,0:0:0:0:
182,192,132149,1,0,0:0:0:0:
109,192,132224,1,0,0:0:0:0:
256,192,132224,1,0,0:0:0:0:
36,192,132299,1,0,0:0:0:0:
182,192,132299,1,0,0:0:0:0:
475,192,132449,1,0,0:0:0:0:
329,192,132449,1,0,0:0:0:0:
329,192,132599,1,0,0:0:0:0:
475,192,132599,1,0,0:0:0:0:
182,192,132749,128,0,133349:0:0:0:0:
256,192,132749,128,0,133349:0:0:0:0:
36,192,132749,128,0,133349:0:0:0:0:
329,192,133349,1,0,0:0:0:0:
475,192,133349,1,0,0:0:0:0:
329,192,133499,1,0,0:0:0:0:
475,192,133499,1,0,0:0:0:0:
36,192,133799,1,0,0:0:0:0:
182,192,133799,1,0,0:0:0:0:
36,192,133949,128,0,134549:0:0:0:0:
182,192,133949,128,0,134549:0:0:0:0:
475,192,133949,1,0,0:0:0:0:
109,192,133949,128,0,134549:0:0:0:0:
402,192,133949,1,0,0:0:0:0:
475,192,134249,128,0,134549:0:0:0:0:
402,192,134249,128,0,134549:0:0:0:0:
256,192,134549,1,0,0:0:0:0:
329,192,134624,1,0,0:0:0:0:
256,192,134699,1,0,0:0:0:0:
329,192,134849,1,0,0:0:0:0:
475,192,134849,1,0,0:0:0:0:
329,192,134999,1,0,0:0:0:0:
475,192,134999,1,0,0:0:0:0:
182,192,135149,128,0,135749:0:0:0:0:
36,192,135149,128,0,135749:0:0:0:0:
109,192,135149,128,0,135749:0:0:0:0:
329,192,135749,1,0,0:0:0:0:
475,192,135749,1,0,0:0:0:0:
329,192,135899,1,0,0:0:0:0:
475,192,135899,1,0,0:0:0:0:
182,192,136199,1,0,0:0:0:0:
256,192,136199,1,0,0:0:0:0:
329,192,136199,1,0,0:0:0:0:
329,192,136349,128,0,136649:0:0:0:0:
256,192,136349,128,0,136649:0:0:0:0:
182,192,136349,128,0,136649:0:0:0:0:
36,192,136649,128,0,136949:0:0:0:0:
475,192,136649,128,0,136949:0:0:0:0:
402,192,136949,1,0,0:0:0:0:
329,192,136949,1,0,0:0:0:0:
109,192,136949,1,0,0:0:0:0:
182,192,136949,1,0,0:0:0:0:
256,192,137024,1,0,0:0:0:0:
402,192,137099,1,0,0:0:0:0:
109,192,137099,1,0,0:0:0:0:
329,192,137174,1,0,0:0:0:0:
256,192,137249,1,0,0:0:0:0:
402,192,137249,1,0,0:0:0:0:
475,192,137249,1,0,0:0:0:0:
182,192,137249,1,0,0:0:0:0:
329,192,137324,1,0,0:0:0:0:
402,192,137399,1,0,0:0:0:0:
36,192,137399,1,0,0:0:0:0:
256,192,137474,1,0,0:0:0:0:
109,192,137549,1,0,0:0:0:0:
182,192,137549,1,0,0:0:0:0:
475,192,137549,1,0,0:0:0:0:
329,192,137549,1,0,0:0:0:0:
256,192,137624,1,0,0:0:0:0:
109,192,137699,1,0,0:0:0:0:
402,192,137699,1,0,0:0:0:0:
182,192,137774,1,0,0:0:0:0:
256,192,137849,1,0,0:0:0:0:
36,192,137849,1,0,0:0:0:0:
109,192,137849,1,0,0:0:0:0:
329,192,137849,1,0,0:0:0:0:
182,192,137924,1,0,0:0:0:0:
109,192,137999,1,0,0:0:0:0:
475,192,137999,1,0,0:0:0:0:
256,192,138074,1,0,0:0:0:0:
402,192,138149,1,0,0:0:0:0:
329,192,138149,1,0,0:0:0:0:
36,192,138149,1,0,0:0:0:0:
182,192,138149,1,0,0:0:0:0:
256,192,138224,1,0,0:0:0:0:
475,192,138299,1,0,0:0:0:0:
109,192,138299,1,0,0:0:0:0:
329,192,138374,1,0,0:0:0:0:
402,192,138449,1,0,0:0:0:0:
256,192,138449,1,0,0:0:0:0:
36,192,138449,1,0,0:0:0:0:
182,192,138449,1,0,0:0:0:0:
475,192,138524,1,0,0:0:0:0:
402,192,138599,1,0,0:0:0:0:
329,192,138599,1,0,0:0:0:0:
109,192,138674,1,0,0:0:0:0:
182,192,138749,1,0,0:0:0:0:
256,192,138749,1,0,0:0:0:0:
475,192,138749,1,0,0:0:0:0:
36,192,138749,1,0,0:0:0:0:
402,192,138824,1,0,0:0:0:0:
256,192,138899,1,0,0:0:0:0:
182,192,138899,1,0,0:0:0:0:
109,192,138974,1,0,0:0:0:0:
36,192,139049,1,0,0:0:0:0:
402,192,139049,1,0,0:0:0:0:
475,192,139049,1,0,0:0:0:0:
329,192,139049,1,0,0:0:0:0:
109,192,139124,1,0,0:0:0:0:
182,192,139199,1,0,0:0:0:0:
256,192,139199,1,0,0:0:0:0:
402,192,139274,1,0,0:0:0:0:
329,192,139349,1,0,0:0:0:0:
36,192,139349,1,0,0:0:0:0:
475,192,139349,1,0,0:0:0:0:
109,192,139349,1,0,0:0:0:0:
182,192,139424,1,0,0:0:0:0:
256,192,139499,1,0,0:0:0:0:
402,192,139499,1,0,0:0:0:0:
182,192,139574,1,0,0:0:0:0:
329,192,139649,1,0,0:0:0:0:
109,192,139649,1,0,0:0:0:0:
256,192,139649,1,0,0:0:0:0:
36,192,139649,1,0,0:0:0:0:
475,192,139724,1,0,0:0:0:0:
182,192,139799,1,0,0:0:0:0:
329,192,139799,1,0,0:0:0:0:
256,192,139874,1,0,0:0:0:0:
36,192,139949,1,0,0:0:0:0:
475,192,139949,1,0,0:0:0:0:
402,192,139949,1,0,0:0:0:0:
182,192,139949,1,0,0:0:0:0:
109,192,140024,1,0,0:0:0:0:
256,192,140099,1,0,0:0:0:0:
402,192,140099,1,0,0:0:0:0:
329,192,140174,1,0,0:0:0:0:
182,192,140249,1,0,0:0:0:0:
256,192,140249,1,0,0:0:0:0:
475,192,140249,1,0,0:0:0:0:
109,192,140249,1,0,0:0:0:0:
402,192,140324,1,0,0:0:0:0:
256,192,140399,1,0,0:0:0:0:
329,192,140399,1,0,0:0:0:0:
182,192,140474,1,0,0:0:0:0:
475,192,140549,1,0,0:0:0:0:
402,192,140549,1,0,0:0:0:0:
109,192,140549,1,0,0:0:0:0:
36,192,140549,1,0,0:0:0:0:
256,192,140624,1,0,0:0:0:0:
182,192,140699,1,0,0:0:0:0:
109,192,140699,1,0,0:0:0:0:
329,192,140774,1,0,0:0:0:0:
256,192,140849,1,0,0:0:0:0:
402,192,140849,1,0,0:0:0:0:
475,192,140849,1,0,0:0:0:0:
182,192,140849,1,0,0:0:0:0:
36,192,140924,1,0,0:0:0:0:
109,192,140999,1,0,0:0:0:0:
402,192,140999,1,0,0:0:0:0:
329,192,141074,1,0,0:0:0:0:
182,192,141149,1,0,0:0:0:0:
36,192,141149,1,0,0:0:0:0:
256,192,141149,1,0,0:0:0:0:
475,192,141149,1,0,0:0:0:0:
109,192,141224,1,0,0:0:0:0:
256,192,141299,1,0,0:0:0:0:
402,192,141299,1,0,0:0:0:0:
182,192,141374,1,0,0:0:0:0:
256,192,141449,1,0,0:0:0:0:
36,192,141449,1,0,0:0:0:0:
109,192,141449,1,0,0:0:0:0:
329,192,141449,1,0,0:0:0:0:
475,192,141524,1,0,0:0:0:0:
182,192,141599,1,0,0:0:0:0:
36,192,141599,1,0,0:0:0:0:
256,192,141674,1,0,0:0:0:0:
109,192,141749,1,0,0:0:0:0:
402,192,141749,1,0,0:0:0:0:
329,192,141749,1,0,0:0:0:0:
475,192,141749,1,0,0:0:0:0:
182,192,141749,1,0,0:0:0:0:
256,192,141824,1,0,0:0:0:0:
402,192,141899,1,0,0:0:0:0:
36,192,141899,1,0,0:0:0:0:
475,192,141899,1,0,0:0:0:0:
109,192,141899,1,0,0:0:0:0:
329,192,141974,1,0,0:0:0:0:
475,192,142049,1,0,0:0:0:0:
256,192,142049,1,0,0:0:0:0:
402,192,142049,1,0,0:0:0:0:
36,192,142049,1,0,0:0:0:0:
182,192,142049,1,0,0:0:0:0:
329,192,142124,1,0,0:0:0:0:
402,192,142199,1,0,0:0:0:0:
475,192,142199,1,0,0:0:0:0:
109,192,142199,1,0,0:0:0:0:
36,192,142199,1,0,0:0:0:0:
256,192,142274,1,0,0:0:0:0:
109,192,142349,1,0,0:0:0:0:
475,192,142349,1,0,0:0:0:0:
182,192,142349,1,0,0:0:0:0:
402,192,142349,1,0,0:0:0:0:
329,192,142349,1,0,0:0:0:0:
256,192,142424,1,0,0:0:0:0:
109,192,142499,1,0,0:0:0:0:
475,192,142499,1,0,0:0:0:0:
36,192,142499,1,0,0:0:0:0:
402,192,142499,1,0,0:0:0:0:
182,192,142574,1,0,0:0:0:0:
36,192,142649,1,0,0:0:0:0:
109,192,142649,1,0,0:0:0:0:
256,192,142649,1,0,0:0:0:0:
475,192,142649,1,0,0:0:0:0:
329,192,142649,1,0,0:0:0:0:
182,192,142724,1,0,0:0:0:0:
109,192,142799,1,0,0:0:0:0:
402,192,142799,1,0,0:0:0:0:
36,192,142799,1,0,0:0:0:0:
475,192,142799,1,0,0:0:0:0:
256,192,142874,1,0,0:0:0:0:
402,192,142949,1,0,0:0:0:0:
329,192,142949,1,0,0:0:0:0:
36,192,142949,1,0,0:0:0:0:
109,192,142949,1,0,0:0:0:0:
182,192,142949,1,0,0:0:0:0:
256,192,143024,1,0,0:0:0:0:
475,192,143099,1,0,0:0:0:0:
402,192,143099,1,0,0:0:0:0:
36,192,143099,1,0,0:0:0:0:
109,192,143099,1,0,0:0:0:0:
329,192,143174,1,0,0:0:0:0:
36,192,143249,1,0,0:0:0:0:
256,192,143249,1,0,0:0:0:0:
402,192,143249,1,0,0:0:0:0:
182,192,143249,1,0,0:0:0:0:
475,192,143324,1,0,0:0:0:0:
402,192,143399,1,0,0:0:0:0:
256,192,143399,1,0,0:0:0:0:
36,192,143399,1,0,0:0:0:0:
329,192,143399,1,0,0:0:0:0:
109,192,143474,1,0,0:0:0:0:
256,192,143549,1,0,0:0:0:0:
475,192,143549,1,0,0:0:0:0:
182,192,143549,1,0,0:0:0:0:
402,192,143549,1,0,0:0:0:0:
36,192,143549,1,0,0:0:0:0:
109,192,143624,1,0,0:0:0:0:
256,192,143699,1,0,0:0:0:0:
329,192,143699,1,0,0:0:0:0:
475,192,143699,1,0,0:0:0:0:
402,192,143699,1,0,0:0:0:0:
182,192,143699,1,0,0:0:0:0:
109,192,143774,1,0,0:0:0:0:
475,192,143849,1,0,0:0:0:0:
36,192,143849,1,0,0:0:0:0:
402,192,143849,1,0,0:0:0:0:
256,192,143849,1,0,0:0:0:0:
329,192,143849,1,0,0:0:0:0:
109,192,143924,1,0,0:0:0:0:
182,192,143999,1,0,0:0:0:0:
36,192,143999,1,0,0:0:0:0:
475,192,143999,1,0,0:0:0:0:
256,192,143999,1,0,0:0:0:0:
402,192,144074,1,0,0:0:0:0:
329,192,144149,1,0,0:0:0:0:
475,192,144149,1,0,0:0:0:0:
36,192,144149,1,0,0:0:0:0:
109,192,144149,1,0,0:0:0:0:
182,192,144224,1,0,0:0:0:0:
256,192,144299,1,0,0:0:0:0:
329,192,144299,1,0,0:0:0:0:
475,192,144299,1,0,0:0:0:0:
36,192,144299,1,0,0:0:0:0:
402,192,144299,1,0,0:0:0:0:
182,192,144374,1,0,0:0:0:0:
256,192,144449,1,0,0:0:0:0:
329,192,144449,1,0,0:0:0:0:
109,192,144449,1,0,0:0:0:0:
36,192,144449,1,0,0:0:0:0:
475,192,144524,1,0,0:0:0:0:
182,192,144599,1,0,0:0:0:0:
402,192,144599,1,0,0:0:0:0:
109,192,144599,1,0,0:0:0:0:
329,192,144599,1,0,0:0:0:0:
256,192,144674,1,0,0:0:0:0:
475,192,144749,1,0,0:0:0:0:
402,192,144749,1,0,0:0:0:0:
36,192,144749,1,0,0:0:0:0:
182,192,144749,1,0,0:0:0:0:
109,192,144824,1,0,0:0:0:0:
256,192,144899,1,0,0:0:0:0:
36,192,144899,1,0,0:0:0:0:
475,192,144899,1,0,0:0:0:0:
402,192,144899,1,0,0:0:0:0:
329,192,144974,1,0,0:0:0:0:
256,192,145049,1,0,0:0:0:0:
475,192,145049,1,0,0:0:0:0:
182,192,145049,1,0,0:0:0:0:
36,192,145049,1,0,0:0:0:0:
109,192,145049,1,0,0:0:0:0:
402,192,145124,1,0,0:0:0:0:
256,192,145199,1,0,0:0:0:0:
475,192,145199,1,0,0:0:0:0:
36,192,145199,1,0,0:0:0:0:
329,192,145199,1,0,0:0:0:0:
182,192,145274,1,0,0:0:0:0:
475,192,145349,1,0,0:0:0:0:
256,192,145349,1,0,0:0:0:0:
36,192,145349,1,0,0:0:0:0:
36,192,145549,1,0,0:0:0:0:
256,192,145549,1,0,0:0:0:0:
475,192,145549,1,0,0:0:0:0:
475,192,145749,1,0,0:0:0:0:
256,192,145749,1,0,0:0:0:0:
36,192,145749,1,0,0:0:0:0:
36,192,145949,1,0,0:0:0:0:
256,192,145949,1,0,0:0:0:0:
475,192,145949,1,0,0:0:0:0:
475,192,146149,1,0,0:0:0:0:
256,192,146149,1,0,0:0:0:0:
36,192,146149,1,0,0:0:0:0:
36,192,146349,1,0,0:0:0:0:
256,192,146349,1,0,0:0:0:0:
475,192,146349,1,0,0:0:0:0:
182,192,146549,1,0,0:0:0:0:
475,192,146549,1,0,0:0:0:0:
329,192,146549,1,0,0:0:0:0:
402,192,146549,1,0,0:0:0:0:
36,192,146549,1,0,0:0:0:0:
256,192,146624,1,0,0:0:0:0:
329,192,146699,1,0,0:0:0:0:
182,192,146699,1,0,0:0:0:0:
475,192,146699,1,0,0:0:0:0:
109,192,146699,1,0,0:0:0:0:
402,192,146774,1,0,0:0:0:0:
256,192,146849,1,0,0:0:0:0:
329,192,146849,1,0,0:0:0:0:
475,192,146849,1,0,0:0:0:0:
36,192,146849,1,0,0:0:0:0:
182,192,146924,1,0,0:0:0:0:
329,192,146999,1,0,0:0:0:0:
402,192,146999,1,0,0:0:0:0:
256,192,146999,1,0,0:0:0:0:
109,192,146999,1,0,0:0:0:0:
475,192,147074,1,0,0:0:0:0:
402,192,147149,1,0,0:0:0:0:
256,192,147149,1,0,0:0:0:0:
182,192,147149,1,0,0:0:0:0:
36,192,147149,1,0,0:0:0:0:
329,192,147224,1,0,0:0:0:0:
256,192,147299,1,0,0:0:0:0:
475,192,147299,1,0,0:0:0:0:
402,192,147299,1,0,0:0:0:0:
109,192,147299,1,0,0:0:0:0:
329,192,147374,1,0,0:0:0:0:
182,192,147449,1,0,0:0:0:0:
402,192,147449,1,0,0:0:0:0:
36,192,147449,1,0,0:0:0:0:
256,192,147524,1,0,0:0:0:0:
329,192,147599,1,0,0:0:0:0:
475,192,147599,1,0,0:0:0:0:
402,192,147599,1,0,0:0:0:0:
109,192,147599,1,0,0:0:0:0:
256,192,147674,1,0,0:0:0:0:
182,192,147749,1,0,0:0:0:0:
329,192,147749,1,0,0:0:0:0:
402,192,147749,1,0,0:0:0:0:
36,192,147749,1,0,0:0:0:0:
475,192,147749,1,0,0:0:0:0:
256,192,147824,1,0,0:0:0:0:
36,192,147899,1,0,0:0:0:0:
109,192,147899,1,0,0:0:0:0:
402,192,147899,1,0,0:0:0:0:
475,192,147899,1,0,0:0:0:0:
182,192,147974,1,0,0:0:0:0:
256,192,148049,1,0,0:0:0:0:
109,192,148049,1,0,0:0:0:0:
36,192,148049,1,0,0:0:0:0:
329,192,148049,1,0,0:0:0:0:
182,192,148124,1,0,0:0:0:0:
256,192,148199,1,0,0:0:0:0:
109,192,148199,1,0,0:0:0:0:
402,192,148199,1,0,0:0:0:0:
475,192,148274,1,0,0:0:0:0:
36,192,148349,1,0,0:0:0:0:
256,192,148349,1,0,0:0:0:0:
402,192,148349,1,0,0:0:0:0:
182,192,148349,1,0,0:0:0:0:
475,192,148424,1,0,0:0:0:0:
329,192,148499,1,0,0:0:0:0:
402,192,148499,1,0,0:0:0:0:
256,192,148499,1,0,0:0:0:0:
109,192,148499,1,0,0:0:0:0:
475,192,148574,1,0,0:0:0:0:
329,192,148649,1,0,0:0:0:0:
402,192,148649,1,0,0:0:0:0:
36,192,148649,1,0,0:0:0:0:
182,192,148649,1,0,0:0:0:0:
475,192,148724,1,0,0:0:0:0:
329,192,148799,1,0,0:0:0:0:
402,192,148799,1,0,0:0:0:0:
109,192,148799,1,0,0:0:0:0:
256,192,148799,1,0,0:0:0:0:
475,192,148874,1,0,0:0:0:0:
402,192,148949,1,0,0:0:0:0:
109,192,148949,1,0,0:0:0:0:
36,192,148949,1,0,0:0:0:0:
182,192,148949,1,0,0:0:0:0:
329,192,149024,1,0,0:0:0:0:
475,192,149099,1,0,0:0:0:0:
402,192,149099,1,0,0:0:0:0:
36,192,149099,1,0,0:0:0:0:
182,192,149099,1,0,0:0:0:0:
256,192,149174,1,0,0:0:0:0:
402,192,149249,1,0,0:0:0:0:
329,192,149249,1,0,0:0:0:0:
109,192,149249,1,0,0:0:0:0:
182,192,149249,1,0,0:0:0:0:
475,192,149324,1,0,0:0:0:0:
329,192,149399,1,0,0:0:0:0:
256,192,149399,1,0,0:0:0:0:
36,192,149399,1,0,0:0:0:0:
109,192,149399,1,0,0:0:0:0:
402,192,149474,1,0,0:0:0:0:
256,192,149549,1,0,0:0:0:0:
329,192,149549,1,0,0:0:0:0:
109,192,149549,1,0,0:0:0:0:
182,192,149549,1,0,0:0:0:0:
36,192,149624,1,0,0:0:0:0:
182,192,149699,1,0,0:0:0:0:
329,192,149699,1,0,0:0:0:0:
402,192,149699,1,0,0:0:0:0:
475,192,149699,1,0,0:0:0:0:
109,192,149774,1,0,0:0:0:0:
182,192,149849,1,0,0:0:0:0:
256,192,149849,1,0,0:0:0:0:
36,192,149849,1,0,0:0:0:0:
329,192,149849,1,0,0:0:0:0:
402,192,149924,1,0,0:0:0:0:
109,192,149999,1,0,0:0:0:0:
182,192,149999,1,0,0:0:0:0:
256,192,149999,1,0,0:0:0:0:
475,192,149999,1,0,0:0:0:0:
36,192,150074,1,0,0:0:0:0:
109,192,150149,1,0,0:0:0:0:
182,192,150149,1,0,0:0:0:0:
402,192,150149,1,0,0:0:0:0:
329,192,150149,1,0,0:0:0:0:
36,192,150224,1,0,0:0:0:0:
182,192,150299,1,0,0:0:0:0:
329,192,150299,1,0,0:0:0:0:
402,192,150299,1,0,0:0:0:0:
475,192,150299,1,0,0:0:0:0:
109,192,150374,1,0,0:0:0:0:
256,192,150449,1,0,0:0:0:0:
36,192,150449,1,0,0:0:0:0:
182,192,150449,1,0,0:0:0:0:
475,192,150449,1,0,0:0:0:0:
402,192,150524,1,0,0:0:0:0:
329,192,150599,1,0,0:0:0:0:
256,192,150599,1,0,0:0:0:0:
109,192,150599,1,0,0:0:0:0:
182,192,150674,1,0,0:0:0:0:
329,192,150749,1,0,0:0:0:0:
36,192,150749,1,0,0:0:0:0:
402,192,150749,1,0,0:0:0:0:
475,192,150749,1,0,0:0:0:0:
109,192,150824,1,0,0:0:0:0:
182,192,150899,1,0,0:0:0:0:
256,192,150899,1,0,0:0:0:0:
36,192,150899,1,0,0:0:0:0:
475,192,150899,1,0,0:0:0:0:
402,192,150974,1,0,0:0:0:0:
329,192,151049,1,0,0:0:0:0:
256,192,151049,1,0,0:0:0:0:
109,192,151049,1,0,0:0:0:0:
475,192,151049,1,0,0:0:0:0:
182,192,151124,1,0,0:0:0:0:
402,192,151199,1,0,0:0:0:0:
36,192,151199,1,0,0:0:0:0:
329,192,151199,1,0,0:0:0:0:
109,192,151199,1,0,0:0:0:0:
256,192,151274,1,0,0:0:0:0:
329,192,151349,1,0,0:0:0:0:
182,192,151349,1,0,0:0:0:0:
402,192,151349,1,0,0:0:0:0:
36,192,151349,1,0,0:0:0:0:
256,192,151424,1,0,0:0:0:0:
475,192,151499,1,0,0:0:0:0:
402,192,151499,1,0,0:0:0:0:
182,192,151499,1,0,0:0:0:0:
109,192,151499,1,0,0:0:0:0:
329,192,151574,1,0,0:0:0:0:
256,192,151649,1,0,0:0:0:0:
402,192,151649,1,0,0:0:0:0:
475,192,151649,1,0,0:0:0:0:
36,192,151649,1,0,0:0:0:0:
182,192,151724,1,0,0:0:0:0:
329,192,151799,1,0,0:0:0:0:
402,192,151799,1,0,0:0:0:0:
256,192,151799,1,0,0:0:0:0:
109,192,151799,1,0,0:0:0:0:
475,192,151874,1,0,0:0:0:0:
182,192,151949,1,0,0:0:0:0:
256,192,151949,1,0,0:0:0:0:
402,192,151949,1,0,0:0:0:0:
36,192,151949,1,0,0:0:0:0:
475,192,152024,1,0,0:0:0:0:
402,192,152099,1,0,0:0:0:0:
329,192,152099,1,0,0:0:0:0:
182,192,152099,1,0,0:0:0:0:
109,192,152099,1,0,0:0:0:0:
475,192,152174,1,0,0:0:0:0:
256,192,152249,1,0,0:0:0:0:
329,192,152249,1,0,0:0:0:0:
402,192,152249,1,0,0:0:0:0:
36,192,152249,1,0,0:0:0:0:
182,192,152324,1,0,0:0:0:0:
402,192,152399,1,0,0:0:0:0:
475,192,152399,1,0,0:0:0:0:
256,192,152399,1,0,0:0:0:0:
109,192,152399,1,0,0:0:0:0:
329,192,152474,1,0,0:0:0:0:
182,192,152549,1,0,0:0:0:0:
402,192,152549,1,0,0:0:0:0:
475,192,152549,1,0,0:0:0:0:
36,192,152549,1,0,0:0:0:0:
329,192,152624,1,0,0:0:0:0:
109,192,152699,1,0,0:0:0:0:
36,192,152699,1,0,0:0:0:0:
402,192,152699,1,0,0:0:0:0:
256,192,152699,1,0,0:0:0:0:
329,192,152774,1,0,0:0:0:0:
475,192,152849,1,0,0:0:0:0:
402,192,152849,1,0,0:0:0:0:
36,192,152849,1,0,0:0:0:0:
182,192,152849,1,0,0:0:0:0:
109,192,152924,1,0,0:0:0:0:
329,192,152999,1,0,0:0:0:0:
256,192,152999,1,0,0:0:0:0:
402,192,152999,1,0,0:0:0:0:
182,192,152999,1,0,0:0:0:0:
36,192,153074,1,0,0:0:0:0:
402,192,153149,1,0,0:0:0:0:
109,192,153149,1,0,0:0:0:0:
329,192,153149,1,0,0:0:0:0:
475,192,153149,1,0,0:0:0:0:
256,192,153224,1,0,0:0:0:0:
182,192,153299,1,0,0:0:0:0:
329,192,153299,1,0,0:0:0:0:
402,192,153299,1,0,0:0:0:0:
36,192,153299,1,0,0:0:0:0:
109,192,153374,1,0,0:0:0:0:
256,192,153449,1,0,0:0:0:0:
329,192,153449,1,0,0:0:0:0:
182,192,153449,1,0,0:0:0:0:
402,192,153449,1,0,0:0:0:0:
109,192,153524,1,0,0:0:0:0:
256,192,153599,1,0,0:0:0:0:
182,192,153599,1,0,0:0:0:0:
475,192,153599,1,0,0:0:0:0:
329,192,153599,1,0,0:0:0:0:
36,192,153674,1,0,0:0:0:0:
182,192,153749,1,0,0:0:0:0:
256,192,153749,1,0,0:0:0:0:
402,192,153749,1,0,0:0:0:0:
475,192,153749,1,0,0:0:0:0:
109,192,153824,1,0,0:0:0:0:
256,192,153899,1,0,0:0:0:0:
329,192,153899,1,0,0:0:0:0:
36,192,153899,1,0,0:0:0:0:
475,192,153899,1,0,0:0:0:0:
402,192,153974,1,0,0:0:0:0:
182,192,154049,1,0,0:0:0:0:
256,192,154049,1,0,0:0:0:0:
36,192,154049,1,0,0:0:0:0:
475,192,154049,1,0,0:0:0:0:
329,192,154124,1,0,0:0:0:0:
36,192,154199,1,0,0:0:0:0:
256,192,154199,1,0,0:0:0:0:
402,192,154199,1,0,0:0:0:0:
109,192,154199,1,0,0:0:0:0:
182,192,154274,1,0,0:0:0:0:
256,192,154349,1,0,0:0:0:0:
329,192,154349,1,0,0:0:0:0:
109,192,154349,1,0,0:0:0:0:
36,192,154349,1,0,0:0:0:0:
402,192,154424,1,0,0:0:0:0:
182,192,154499,1,0,0:0:0:0:
256,192,154499,1,0,0:0:0:0:
475,192,154499,1,0,0:0:0:0:
36,192,154499,1,0,0:0:0:0:
329,192,154574,1,0,0:0:0:0:
109,192,154649,1,0,0:0:0:0:
182,192,154649,1,0,0:0:0:0:
402,192,154649,1,0,0:0:0:0:
256,192,154649,1,0,0:0:0:0:
329,192,154724,1,0,0:0:0:0:
256,192,154799,1,0,0:0:0:0:
402,192,154799,1,0,0:0:0:0:
475,192,154799,1,0,0:0:0:0:
36,192,154799,1,0,0:0:0:0:
329,192,154874,1,0,0:0:0:0:
109,192,154949,1,0,0:0:0:0:
182,192,154949,1,0,0:0:0:0:
475,192,154949,1,0,0:0:0:0:
402,192,154949,1,0,0:0:0:0:
256,192,155024,1,0,0:0:0:0:
182,192,155099,1,0,0:0:0:0:
329,192,155099,1,0,0:0:0:0:
36,192,155099,1,0,0:0:0:0:
402,192,155099,1,0,0:0:0:0:
109,192,155174,1,0,0:0:0:0:
256,192,155249,1,0,0:0:0:0:
475,192,155249,1,0,0:0:0:0:
182,192,155249,1,0,0:0:0:0:
329,192,155249,1,0,0:0:0:0:
36,192,155324,1,0,0:0:0:0:
109,192,155399,1,0,0:0:0:0:
182,192,155399,1,0,0:0:0:0:
475,192,155399,1,0,0:0:0:0:
402,192,155399,1,0,0:0:0:0:
256,192,155474,1,0,0:0:0:0:
36,192,155549,1,0,0:0:0:0:
182,192,155549,1,0,0:0:0:0:
329,192,155549,1,0,0:0:0:0:
109,192,155624,1,0,0:0:0:0:
256,192,155624,1,0,0:0:0:0:
182,192,155699,1,0,0:0:0:0:
329,192,155699,1,0,0:0:0:0:
36,192,155699,1,0,0:0:0:0:
256,192,155774,1,0,0:0:0:0:
109,192,155774,1,0,0:0:0:0:
329,192,155849,1,0,0:0:0:0:
182,192,155849,1,0,0:0:0:0:
475,192,155849,1,0,0:0:0:0:
256,192,155924,1,0,0:0:0:0:
109,192,155924,1,0,0:0:0:0:
182,192,155999,1,0,0:0:0:0:
329,192,155999,1,0,0:0:0:0:
475,192,155999,1,0,0:0:0:0:
109,192,156074,1,0,0:0:0:0:
256,192,156074,1,0,0:0:0:0:
329,192,156149,1,0,0:0:0:0:
182,192,156149,1,0,0:0:0:0:
475,192,156149,1,0,0:0:0:0:
36,192,156149,1,0,0:0:0:0:
109,192,156224,1,0,0:0:0:0:
256,192,156299,1,0,0:0:0:0:
329,192,156299,1,0,0:0:0:0:
402,192,156299,1,0,0:0:0:0:
475,192,156299,1,0,0:0:0:0:
182,192,156374,1,0,0:0:0:0:
475,192,156449,1,0,0:0:0:0:
109,192,156449,1,0,0:0:0:0:
402,192,156449,1,0,0:0:0:0:
36,192,156449,1,0,0:0:0:0:
256,192,156524,1,0,0:0:0:0:
329,192,156599,1,0,0:0:0:0:
402,192,156599,1,0,0:0:0:0:
182,192,156599,1,0,0:0:0:0:
36,192,156599,1,0,0:0:0:0:
475,192,156674,1,0,0:0:0:0:
256,192,156749,1,0,0:0:0:0:
109,192,156749,1,0,0:0:0:0:
402,192,156749,1,0,0:0:0:0:
182,192,156749,1,0,0:0:0:0:
329,192,156824,1,0,0:0:0:0:
475,192,156899,1,0,0:0:0:0:
402,192,156899,1,0,0:0:0:0:
109,192,156899,1,0,0:0:0:0:
182,192,156899,1,0,0:0:0:0:
256,192,156974,1,0,0:0:0:0:
329,192,157049,1,0,0:0:0:0:
36,192,157049,1,0,0:0:0:0:
402,192,157049,1,0,0:0:0:0:
182,192,157049,1,0,0:0:0:0:
475,192,157124,1,0,0:0:0:0:
256,192,157199,1,0,0:0:0:0:
329,192,157199,1,0,0:0:0:0:
109,192,157199,1,0,0:0:0:0:
36,192,157199,1,0,0:0:0:0:
402,192,157274,1,0,0:0:0:0:
329,192,157349,1,0,0:0:0:0:
256,192,157349,1,0,0:0:0:0:
182,192,157349,1,0,0:0:0:0:
475,192,157349,1,0,0:0:0:0:
109,192,157424,1,0,0:0:0:0:
402,192,157499,1,0,0:0:0:0:
329,192,157499,1,0,0:0:0:0:
36,192,157499,1,0,0:0:0:0:
182,192,157499,1,0,0:0:0:0:
256,192,157574,1,0,0:0:0:0:
109,192,157649,1,0,0:0:0:0:
182,192,157649,1,0,0:0:0:0:
329,192,157649,1,0,0:0:0:0:
475,192,157649,1,0,0:0:0:0:
402,192,157724,1,0,0:0:0:0:
256,192,157799,1,0,0:0:0:0:
36,192,157799,1,0,0:0:0:0:
109,192,157799,1,0,0:0:0:0:
475,192,157799,1,0,0:0:0:0:
182,192,157874,1,0,0:0:0:0:
329,192,157949,1,0,0:0:0:0:
402,192,157949,1,0,0:0:0:0:
109,192,157949,1,0,0:0:0:0:
475,192,157949,1,0,0:0:0:0:
256,192,158024,1,0,0:0:0:0:
329,192,158099,1,0,0:0:0:0:
402,192,158099,1,0,0:0:0:0:
36,192,158099,1,0,0:0:0:0:
182,192,158099,1,0,0:0:0:0:
256,192,158174,1,0,0:0:0:0:
475,192,158249,1,0,0:0:0:0:
402,192,158249,1,0,0:0:0:0:
109,192,158249,1,0,0:0:0:0:
329,192,158249,1,0,0:0:0:0:
36,192,158324,1,0,0:0:0:0:
256,192,158399,1,0,0:0:0:0:
109,192,158399,1,0,0:0:0:0:
475,192,158399,1,0,0:0:0:0:
329,192,158399,1,0,0:0:0:0:
36,192,158474,1,0,0:0:0:0:
182,192,158549,1,0,0:0:0:0:
109,192,158549,1,0,0:0:0:0:
402,192,158549,1,0,0:0:0:0:
256,192,158549,1,0,0:0:0:0:
36,192,158624,1,0,0:0:0:0:
182,192,158699,1,0,0:0:0:0:
402,192,158699,1,0,0:0:0:0:
475,192,158699,1,0,0:0:0:0:
329,192,158699,1,0,0:0:0:0:
109,192,158774,1,0,0:0:0:0:
329,192,158849,1,0,0:0:0:0:
402,192,158849,1,0,0:0:0:0:
182,192,158849,1,0,0:0:0:0:
36,192,158849,1,0,0:0:0:0:
109,192,158924,1,0,0:0:0:0:
475,192,158999,1,0,0:0:0:0:
402,192,158999,1,0,0:0:0:0:
182,192,158999,1,0,0:0:0:0:
36,192,158999,1,0,0:0:0:0:
329,192,159074,1,0,0:0:0:0:
109,192,159149,1,0,0:0:0:0:
182,192,159149,1,0,0:0:0:0:
402,192,159149,1,0,0:0:0:0:
36,192,159149,1,0,0:0:0:0:
256,192,159224,1,0,0:0:0:0:
329,192,159299,1,0,0:0:0:0:
402,192,159299,1,0,0:0:0:0:
475,192,159299,1,0,0:0:0:0:
182,192,159299,1,0,0:0:0:0:
256,192,159374,1,0,0:0:0:0:
109,192,159449,1,0,0:0:0:0:
36,192,159449,1,0,0:0:0:0:
402,192,159449,1,0,0:0:0:0:
182,192,159449,1,0,0:0:0:0:
329,192,159524,1,0,0:0:0:0:
475,192,159599,1,0,0:0:0:0:
402,192,159599,1,0,0:0:0:0:
109,192,159599,1,0,0:0:0:0:
256,192,159674,1,0,0:0:0:0:
329,192,159749,1,0,0:0:0:0:
182,192,159749,1,0,0:0:0:0:
402,192,159749,1,0,0:0:0:0:
475,192,159749,1,0,0:0:0:0:
36,192,159824,1,0,0:0:0:0:
182,192,159899,1,0,0:0:0:0:
256,192,159899,1,0,0:0:0:0:
402,192,159899,1,0,0:0:0:0:
109,192,159899,1,0,0:0:0:0:
329,192,159974,1,0,0:0:0:0:
109,192,160049,1,0,0:0:0:0:
402,192,160049,1,0,0:0:0:0:
182,192,160049,1,0,0:0:0:0:
475,192,160049,1,0,0:0:0:0:
256,192,160124,1,0,0:0:0:0:
329,192,160199,1,0,0:0:0:0:
402,192,160199,1,0,0:0:0:0:
109,192,160199,1,0,0:0:0:0:
36,192,160199,1,0,0:0:0:0:
182,192,160274,1,0,0:0:0:0:
36,192,160349,1,0,0:0:0:0:
109,192,160349,1,0,0:0:0:0:
402,192,160349,1,0,0:0:0:0:
475,192,160349,1,0,0:0:0:0:
256,192,160424,1,0,0:0:0:0:
182,192,160499,1,0,0:0:0:0:
109,192,160499,1,0,0:0:0:0:
402,192,160499,1,0,0:0:0:0:
329,192,160499,1,0,0:0:0:0:
256,192,160574,1,0,0:0:0:0:
36,192,160649,1,0,0:0:0:0:
475,192,160649,1,0,0:0:0:0:
182,192,160649,1,0,0:0:0:0:
329,192,160649,1,0,0:0:0:0:
256,192,160724,1,0,0:0:0:0:
109,192,160799,1,0,0:0:0:0:
182,192,160799,1,0,0:0:0:0:
475,192,160799,1,0,0:0:0:0:
402,192,160799,1,0,0:0:0:0:
256,192,160874,1,0,0:0:0:0:
182,192,160949,1,0,0:0:0:0:
329,192,160949,1,0,0:0:0:0:
109,192,160949,1,0,0:0:0:0:
36,192,160949,1,0,0:0:0:0:
475,192,161024,1,0,0:0:0:0:
256,192,161099,1,0,0:0:0:0:
329,192,161099,1,0,0:0:0:0:
182,192,161099,1,0,0:0:0:0:
109,192,161099,1,0,0:0:0:0:
402,192,161174,1,0,0:0:0:0:
109,192,161249,1,0,0:0:0:0:
329,192,161249,1,0,0:0:0:0:
475,192,161249,1,0,0:0:0:0:
182,192,161324,1,0,0:0:0:0:
402,192,161399,1,0,0:0:0:0:
329,192,161399,1,0,0:0:0:0:
256,192,161399,1,0,0:0:0:0:
36,192,161399,1,0,0:0:0:0:
109,192,161474,1,0,0:0:0:0:
256,192,161549,1,0,0:0:0:0:
402,192,161549,1,0,0:0:0:0:
475,192,161549,1,0,0:0:0:0:
182,192,161549,1,0,0:0:0:0:
329,192,161624,1,0,0:0:0:0:
475,192,161699,1,0,0:0:0:0:
109,192,161699,1,0,0:0:0:0:
402,192,161699,1,0,0:0:0:0:
256,192,161699,1,0,0:0:0:0:
329,192,161774,1,0,0:0:0:0:
402,192,161849,1,0,0:0:0:0:
475,192,161849,1,0,0:0:0:0:
36,192,161849,1,0,0:0:0:0:
182,192,161849,1,0,0:0:0:0:
256,192,161924,1,0,0:0:0:0:
329,192,161999,1,0,0:0:0:0:
402,192,161999,1,0,0:0:0:0:
36,192,161999,1,0,0:0:0:0:
109,192,161999,1,0,0:0:0:0:
256,192,162074,1,0,0:0:0:0:
402,192,162149,1,0,0:0:0:0:
329,192,162149,1,0,0:0:0:0:
182,192,162149,1,0,0:0:0:0:
475,192,162149,1,0,0:0:0:0:
36,192,162224,1,0,0:0:0:0:
182,192,162299,1,0,0:0:0:0:
256,192,162299,1,0,0:0:0:0:
109,192,162299,1,0,0:0:0:0:
402,192,162299,1,0,0:0:0:0:
329,192,162374,1,0,0:0:0:0:
36,192,162449,1,0,0:0:0:0:
109,192,162449,1,0,0:0:0:0:
256,192,162449,1,0,0:0:0:0:
475,192,162449,1,0,0:0:0:0:
329,192,162524,1,0,0:0:0:0:
182,192,162599,1,0,0:0:0:0:
109,192,162599,1,0,0:0:0:0:
256,192,162599,1,0,0:0:0:0:
402,192,162599,1,0,0:0:0:0:
475,192,162674,1,0,0:0:0:0:
329,192,162749,1,0,0:0:0:0:
256,192,162749,1,0,0:0:0:0:
109,192,162749,1,0,0:0:0:0:
36,192,162749,1,0,0:0:0:0:
182,192,162824,1,0,0:0:0:0:
475,192,162899,1,0,0:0:0:0:
402,192,162899,1,0,0:0:0:0:
256,192,162899,1,0,0:0:0:0:
109,192,162899,1,0,0:0:0:0:
182,192,162974,1,0,0:0:0:0:
36,192,163049,1,0,0:0:0:0:
402,192,163049,1,0,0:0:0:0:
475,192,163049,1,0,0:0:0:0:
329,192,163049,1,0,0:0:0:0:
182,192,163124,1,0,0:0:0:0:
256,192,163199,1,0,0:0:0:0:
329,192,163199,1,0,0:0:0:0:
402,192,163199,1,0,0:0:0:0:
475,192,163199,1,0,0:0:0:0:
36,192,163274,1,0,0:0:0:0:
256,192,163349,1,0,0:0:0:0:
109,192,163349,1,0,0:0:0:0:
402,192,163349,1,0,0:0:0:0:
182,192,163349,1,0,0:0:0:0:
329,192,163424,1,0,0:0:0:0:
475,192,163499,1,0,0:0:0:0:
402,192,163499,1,0,0:0:0:0:
36,192,163499,1,0,0:0:0:0:
182,192,163499,1,0,0:0:0:0:
256,192,163574,1,0,0:0:0:0:
329,192,163649,1,0,0:0:0:0:
109,192,163649,1,0,0:0:0:0:
402,192,163649,1,0,0:0:0:0:
182,192,163649,1,0,0:0:0:0:
475,192,163724,1,0,0:0:0:0:
329,192,163799,1,0,0:0:0:0:
402,192,163799,1,0,0:0:0:0:
36,192,163799,1,0,0:0:0:0:
109,192,163799,1,0,0:0:0:0:
256,192,163874,1,0,0:0:0:0:
109,192,163949,1,0,0:0:0:0:
402,192,163949,1,0,0:0:0:0:
475,192,163949,1,0,0:0:0:0:
182,192,163949,1,0,0:0:0:0:
329,192,164024,1,0,0:0:0:0:
36,192,164099,1,0,0:0:0:0:
402,192,164099,1,0,0:0:0:0:
256,192,164099,1,0,0:0:0:0:
182,192,164099,1,0,0:0:0:0:
475,192,164174,1,0,0:0:0:0:
402,192,164249,1,0,0:0:0:0:
329,192,164249,1,0,0:0:0:0:
109,192,164249,1,0,0:0:0:0:
256,192,164249,1,0,0:0:0:0:
475,192,164324,1,0,0:0:0:0:
256,192,164399,1,0,0:0:0:0:
36,192,164399,1,0,0:0:0:0:
329,192,164399,1,0,0:0:0:0:
182,192,164399,1,0,0:0:0:0:
402,192,164474,1,0,0:0:0:0:
329,192,164549,1,0,0:0:0:0:
109,192,164549,1,0,0:0:0:0:
36,192,164549,1,0,0:0:0:0:
182,192,164549,1,0,0:0:0:0:
475,192,164624,1,0,0:0:0:0:
256,192,164624,1,0,0:0:0:0:
182,192,164699,1,0,0:0:0:0:
402,192,164699,1,0,0:0:0:0:
36,192,164699,1,0,0:0:0:0:
329,192,164774,1,0,0:0:0:0:
109,192,164774,1,0,0:0:0:0:
256,192,164849,1,0,0:0:0:0:
36,192,164849,1,0,0:0:0:0:
402,192,164849,1,0,0:0:0:0:
182,192,164924,1,0,0:0:0:0:
329,192,164924,1,0,0:0:0:0:
475,192,164999,1,0,0:0:0:0:
109,192,164999,1,0,0:0:0:0:
36,192,164999,1,0,0:0:0:0:
402,192,165074,1,0,0:0:0:0:
256,192,165074,1,0,0:0:0:0:
36,192,165149,1,0,0:0:0:0:
329,192,165149,1,0,0:0:0:0:
475,192,165149,1,0,0:0:0:0:
182,192,165224,1,0,0:0:0:0:
402,192,165224,1,0,0:0:0:0:
256,192,165299,1,0,0:0:0:0:
475,192,165299,1,0,0:0:0:0:
109,192,165299,1,0,0:0:0:0:
402,192,165374,1,0,0:0:0:0:
182,192,165374,1,0,0:0:0:0:
329,192,165449,1,0,0:0:0:0:
109,192,165449,1,0,0:0:0:0:
36,192,165449,1,0,0:0:0:0:
182,192,165524,1,0,0:0:0:0:
402,192,165524,1,0,0:0:0:0:
109,192,165599,1,0,0:0:0:0:
475,192,165599,1,0,0:0:0:0:
329,192,165599,1,0,0:0:0:0:
402,192,165674,1,0,0:0:0:0:
256,192,165674,1,0,0:0:0:0:
182,192,165749,1,0,0:0:0:0:
36,192,165749,1,0,0:0:0:0:
329,192,165749,1,0,0:0:0:0:
475,192,165749,1,0,0:0:0:0:
36,192,165899,1,0,0:0:0:0:
182,192,165899,1,0,0:0:0:0:
329,192,165899,1,0,0:0:0:0:
475,192,165899,1,0,0:0:0:0:
329,192,166199,1,0,0:0:0:0:
475,192,166199,1,0,0:0:0:0:
182,192,166199,1,0,0:0:0:0:
36,192,166199,1,0,0:0:0:0:
36,192,166349,1,0,0:0:0:0:
475,192,166349,1,0,0:0:0:0:
109,192,166349,1,0,0:0:0:0:
402,192,166349,1,0,0:0:0:0:
36,192,166499,1,0,0:0:0:0:
109,192,166499,1,0,0:0:0:0:
402,192,166499,1,0,0:0:0:0:
475,192,166499,1,0,0:0:0:0:
475,192,166799,1,0,0:0:0:0:
36,192,166799,1,0,0:0:0:0:
109,192,166799,1,0,0:0:0:0:
402,192,166799,1,0,0:0:0:0:
36,192,166949,1,0,0:0:0:0:
182,192,166949,1,0,0:0:0:0:
329,192,166949,1,0,0:0:0:0:
475,192,166949,1,0,0:0:0:0:
36,192,167099,1,0,0:0:0:0:
182,192,167099,1,0,0:0:0:0:
329,192,167099,1,0,0:0:0:0:
475,192,167099,1,0,0:0:0:0:
329,192,167399,1,0,0:0:0:0:
475,192,167399,1,0,0:0:0:0:
182,192,167399,1,0,0:0:0:0:
36,192,167399,1,0,0:0:0:0:
329,192,167549,1,0,0:0:0:0:
475,192,167549,1,0,0:0:0:0:
109,192,167549,1,0,0:0:0:0:
182,192,167549,1,0,0:0:0:0:
256,192,167549,1,0,0:0:0:0:
475,192,167699,1,0,0:0:0:0:
329,192,167699,1,0,0:0:0:0:
256,192,167699,1,0,0:0:0:0:
36,192,167699,1,0,0:0:0:0:
109,192,167699,1,0,0:0:0:0:
475,192,167849,1,0,0:0:0:0:
109,192,167849,1,0,0:0:0:0:
182,192,167849,1,0,0:0:0:0:
329,192,167849,1,0,0:0:0:0:
402,192,167849,1,0,0:0:0:0:
402,192,167999,1,0,0:0:0:0:
329,192,167999,1,0,0:0:0:0:
256,192,167999,1,0,0:0:0:0:
36,192,167999,1,0,0:0:0:0:
182,192,167999,1,0,0:0:0:0:
36,192,168149,1,0,0:0:0:0:
182,192,168149,1,0,0:0:0:0:
329,192,168149,1,0,0:0:0:0:
475,192,168149,1,0,0:0:0:0:
36,192,168299,1,0,0:0:0:0:
182,192,168299,1,0,0:0:0:0:
329,192,168299,1,0,0:0:0:0:
475,192,168299,1,0,0:0:0:0:
329,192,168599,1,0,0:0:0:0:
475,192,168599,1,0,0:0:0:0:
182,192,168599,1,0,0:0:0:0:
36,192,168599,1,0,0:0:0:0:
36,192,168749,1,0,0:0:0:0:
475,192,168749,1,0,0:0:0:0:
109,192,168749,1,0,0:0:0:0:
402,192,168749,1,0,0:0:0:0:
36,192,168899,1,0,0:0:0:0:
109,192,168899,1,0,0:0:0:0:
402,192,168899,1,0,0:0:0:0:
475,192,168899,1,0,0:0:0:0:
475,192,169199,1,0,0:0:0:0:
36,192,169199,1,0,0:0:0:0:
109,192,169199,1,0,0:0:0:0:
402,192,169199,1,0,0:0:0:0:
182,192,169349,1,0,0:0:0:0:
36,192,169349,1,0,0:0:0:0:
329,192,169349,1,0,0:0:0:0:
475,192,169349,1,0,0:0:0:0:
36,192,169499,1,0,0:0:0:0:
182,192,169499,1,0,0:0:0:0:
329,192,169499,1,0,0:0:0:0:
475,192,169499,1,0,0:0:0:0:
329,192,169799,1,0,0:0:0:0:
475,192,169799,1,0,0:0:0:0:
182,192,169799,1,0,0:0:0:0:
36,192,169799,1,0,0:0:0:0:
329,192,169949,1,0,0:0:0:0:
36,192,169949,1,0,0:0:0:0:
109,192,169949,1,0,0:0:0:0:
256,192,169949,1,0,0:0:0:0:
402,192,169949,1,0,0:0:0:0:
475,192,170099,1,0,0:0:0:0:
402,192,170099,1,0,0:0:0:0:
329,192,170099,1,0,0:0:0:0:
182,192,170099,1,0,0:0:0:0:
109,192,170099,1,0,0:0:0:0:
475,192,170249,1,0,0:0:0:0:
36,192,170249,1,0,0:0:0:0:
182,192,170249,1,0,0:0:0:0:
256,192,170249,1,0,0:0:0:0:
329,192,170249,1,0,0:0:0:0:
475,192,170399,1,0,0:0:0:0:
109,192,170399,1,0,0:0:0:0:
182,192,170399,1,0,0:0:0:0:
256,192,170399,1,0,0:0:0:0:
402,192,170399,1,0,0:0:0:0:
475,192,170549,1,0,0:0:0:0:
329,192,170549,1,0,0:0:0:0:
36,192,170549,1,0,0:0:0:0:
182,192,170549,1,0,0:0:0:0:
36,192,170699,1,0,0:0:0:0:
182,192,170699,1,0,0:0:0:0:
329,192,170699,1,0,0:0:0:0:
475,192,170699,1,0,0:0:0:0:
329,192,170999,1,0,0:0:0:0:
475,192,170999,1,0,0:0:0:0:
182,192,170999,1,0,0:0:0:0:
36,192,170999,1,0,0:0:0:0:
402,192,171149,1,0,0:0:0:0:
36,192,171149,1,0,0:0:0:0:
109,192,171149,1,0,0:0:0:0:
475,192,171149,1,0,0:0:0:0:
36,192,171299,1,0,0:0:0:0:
109,192,171299,1,0,0:0:0:0:
402,192,171299,1,0,0:0:0:0:
475,192,171299,1,0,0:0:0:0:
36,192,171749,1,0,0:0:0:0:
329,192,171749,1,0,0:0:0:0:
109,192,171749,1,0,0:0:0:0:
256,192,171749,1,0,0:0:0:0:
182,192,171899,1,0,0:0:0:0:
402,192,171899,1,0,0:0:0:0:
329,192,171899,1,0,0:0:0:0:
36,192,171899,1,0,0:0:0:0:
329,192,172049,1,0,0:0:0:0:
475,192,172049,1,0,0:0:0:0:
182,192,172049,1,0,0:0:0:0:
256,192,172049,1,0,0:0:0:0:
36,192,172199,1,0,0:0:0:0:
182,192,172199,1,0,0:0:0:0:
256,192,172199,1,0,0:0:0:0:
402,192,172199,1,0,0:0:0:0:
475,192,172349,1,0,0:0:0:0:
182,192,172349,1,0,0:0:0:0:
109,192,172349,1,0,0:0:0:0:
329,192,172349,1,0,0:0:0:0:
109,192,172499,1,0,0:0:0:0:
182,192,172499,1,0,0:0:0:0:
256,192,172499,1,0,0:0:0:0:
402,192,172499,1,0,0:0:0:0:
36,192,172649,1,0,0:0:0:0:
109,192,172649,1,0,0:0:0:0:
329,192,172649,1,0,0:0:0:0:
402,192,172649,1,0,0:0:0:0:
36,192,172799,1,0,0:0:0:0:
475,192,172799,1,0,0:0:0:0:
182,192,172799,1,0,0:0:0:0:
256,192,172799,1,0,0:0:0:0:
36,192,172949,1,0,0:0:0:0:
182,192,172949,1,0,0:0:0:0:
256,192,172949,1,0,0:0:0:0:
109,192,172949,1,0,0:0:0:0:
329,192,172949,1,0,0:0:0:0:
182,192,173099,1,0,0:0:0:0:
109,192,173099,1,0,0:0:0:0:
256,192,173099,1,0,0:0:0:0:
329,192,173099,1,0,0:0:0:0:
402,192,173099,1,0,0:0:0:0:
475,192,173249,1,0,0:0:0:0:
329,192,173249,1,0,0:0:0:0:
182,192,173249,1,0,0:0:0:0:
256,192,173249,1,0,0:0:0:0:
402,192,173249,1,0,0:0:0:0:
402,192,173399,1,0,0:0:0:0:
329,192,173399,1,0,0:0:0:0:
256,192,173399,1,0,0:0:0:0:
182,192,173399,1,0,0:0:0:0:
109,192,173399,1,0,0:0:0:0:
475,192,173549,1,0,0:0:0:0:
182,192,173549,1,0,0:0:0:0:
36,192,173549,1,0,0:0:0:0:
329,192,173549,1,0,0:0:0:0:
36,192,173699,1,0,0:0:0:0:
182,192,173699,1,0,0:0:0:0:
329,192,173699,1,0,0:0:0:0:
475,192,173699,1,0,0:0:0:0:
475,192,173849,1,0,0:0:0:0:
329,192,173849,1,0,0:0:0:0:
182,192,173849,1,0,0:0:0:0:
36,192,173849,1,0,0:0:0:0:
36,192,173999,1,0,0:0:0:0:
182,192,173999,1,0,0:0:0:0:
329,192,173999,1,0,0:0:0:0:
475,192,173999,1,0,0:0:0:0:
36,192,174149,1,0,0:0:0:0:
182,192,174149,1,0,0:0:0:0:
329,192,174149,1,0,0:0:0:0:
475,192,174149,1,0,0:0:0:0:
109,192,174224,1,0,0:0:0:0:
402,192,174224,1,0,0:0:0:0:
182,192,174299,1,0,0:0:0:0:
475,192,174299,1,0,0:0:0:0:
402,192,174374,1,0,0:0:0:0:
256,192,174374,1,0,0:0:0:0:
329,192,174449,1,0,0:0:0:0:
182,192,174449,1,0,0:0:0:0:
109,192,174524,1,0,0:0:0:0:
256,192,174524,1,0,0:0:0:0:
182,192,174599,1,0,0:0:0:0:
329,192,174599,1,0,0:0:0:0:
256,192,174674,1,0,0:0:0:0:
402,192,174674,1,0,0:0:0:0:
329,192,174749,1,0,0:0:0:0:
109,192,174749,1,0,0:0:0:0:
182,192,174824,1,0,0:0:0:0:
402,192,174824,1,0,0:0:0:0:
329,192,174899,1,0,0:0:0:0:
109,192,174899,1,0,0:0:0:0:
36,192,174974,1,0,0:0:0:0:
256,192,174974,1,0,0:0:0:0:
109,192,175049,1,0,0:0:0:0:
182,192,175049,1,0,0:0:0:0:
329,192,175049,1,0,0:0:0:0:
402,192,175049,1,0,0:0:0:0:
475,192,175049,1,0,0:0:0:0:
182,192,175349,1,0,0:0:0:0:
402,192,175349,1,0,0:0:0:0:
475,192,175349,1,0,0:0:0:0:
36,192,175349,1,0,0:0:0:0:
329,192,175424,1,0,0:0:0:0:
109,192,175424,1,0,0:0:0:0:
256,192,175499,1,0,0:0:0:0:
402,192,175499,1,0,0:0:0:0:
182,192,175499,1,0,0:0:0:0:
329,192,175574,1,0,0:0:0:0:
182,192,175649,1,0,0:0:0:0:
36,192,175649,1,0,0:0:0:0:
402,192,175649,1,0,0:0:0:0:
475,192,175649,1,0,0:0:0:0:
109,192,175724,1,0,0:0:0:0:
256,192,175724,1,0,0:0:0:0:
329,192,175799,1,0,0:0:0:0:
402,192,175799,1,0,0:0:0:0:
182,192,175874,1,0,0:0:0:0:
475,192,175874,1,0,0:0:0:0:
256,192,175949,1,0,0:0:0:0:
109,192,175949,1,0,0:0:0:0:
402,192,175949,1,0,0:0:0:0:
182,192,176024,1,0,0:0:0:0:
329,192,176024,1,0,0:0:0:0:
475,192,176099,1,0,0:0:0:0:
109,192,176099,1,0,0:0:0:0:
329,192,176174,1,0,0:0:0:0:
182,192,176249,1,0,0:0:0:0:
36,192,176249,1,0,0:0:0:0:
402,192,176249,1,0,0:0:0:0:
256,192,176249,1,0,0:0:0:0:
475,192,176324,1,0,0:0:0:0:
109,192,176324,1,0,0:0:0:0:
329,192,176399,1,0,0:0:0:0:
256,192,176399,1,0,0:0:0:0:
402,192,176474,1,0,0:0:0:0:
36,192,176549,1,0,0:0:0:0:
329,192,176549,1,0,0:0:0:0:
475,192,176549,1,0,0:0:0:0:
109,192,176549,1,0,0:0:0:0:
256,192,176624,1,0,0:0:0:0:
402,192,176624,1,0,0:0:0:0:
109,192,176699,1,0,0:0:0:0:
329,192,176699,1,0,0:0:0:0:
402,192,176774,1,0,0:0:0:0:
36,192,176849,1,0,0:0:0:0:
182,192,176849,1,0,0:0:0:0:
475,192,176849,1,0,0:0:0:0:
256,192,176849,1,0,0:0:0:0:
109,192,176924,1,0,0:0:0:0:
402,192,176924,1,0,0:0:0:0:
182,192,176999,1,0,0:0:0:0:
475,192,176999,1,0,0:0:0:0:
329,192,177074,1,0,0:0:0:0:
36,192,177074,1,0,0:0:0:0:
182,192,177149,1,0,0:0:0:0:
402,192,177149,1,0,0:0:0:0:
256,192,177224,1,0,0:0:0:0:
109,192,177299,1,0,0:0:0:0:
329,192,177299,1,0,0:0:0:0:
475,192,177299,1,0,0:0:0:0:
36,192,177299,1,0,0:0:0:0:
256,192,177374,1,0,0:0:0:0:
402,192,177374,1,0,0:0:0:0:
475,192,177449,1,0,0:0:0:0:
182,192,177449,1,0,0:0:0:0:
402,192,177524,1,0,0:0:0:0:
109,192,177599,1,0,0:0:0:0:
182,192,177674,1,0,0:0:0:0:
329,192,177749,1,0,0:0:0:0:
36,192,177749,1,0,0:0:0:0:
475,192,177749,1,0,0:0:0:0:
402,192,177749,1,0,0:0:0:0:
475,192,177899,1,0,0:0:0:0:
329,192,177899,1,0,0:0:0:0:
256,192,177899,1,0,0:0:0:0:
109,192,177899,1,0,0:0:0:0:
182,192,177974,1,0,0:0:0:0:
402,192,177974,1,0,0:0:0:0:
256,192,178049,1,0,0:0:0:0:
36,192,178049,1,0,0:0:0:0:
109,192,178124,1,0,0:0:0:0:
475,192,178124,1,0,0:0:0:0:
329,192,178199,1,0,0:0:0:0:
402,192,178199,1,0,0:0:0:0:
36,192,178199,1,0,0:0:0:0:
182,192,178274,1,0,0:0:0:0:
329,192,178349,1,0,0:0:0:0:
402,192,178349,1,0,0:0:0:0:
36,192,178349,1,0,0:0:0:0:
109,192,178424,1,0,0:0:0:0:
182,192,178499,1,0,0:0:0:0:
256,192,178649,1,0,0:0:0:0:
475,192,178649,1,0,0:0:0:0:
36,192,178649,1,0,0:0:0:0:
182,192,178649,1,0,0:0:0:0:
329,192,178724,1,0,0:0:0:0:
109,192,178724,1,0,0:0:0:0:
402,192,178799,1,0,0:0:0:0:
182,192,178799,1,0,0:0:0:0:
256,192,178874,1,0,0:0:0:0:
36,192,178874,1,0,0:0:0:0:
182,192,178949,1,0,0:0:0:0:
329,192,178949,1,0,0:0:0:0:
475,192,179024,1,0,0:0:0:0:
402,192,179024,1,0,0:0:0:0:
182,192,179099,1,0,0:0:0:0:
329,192,179099,1,0,0:0:0:0:
475,192,179174,1,0,0:0:0:0:
402,192,179174,1,0,0:0:0:0:
36,192,179249,1,0,0:0:0:0:
109,192,179249,1,0,0:0:0:0:
329,192,179324,1,0,0:0:0:0:
256,192,179324,1,0,0:0:0:0:
36,192,179399,1,0,0:0:0:0:
109,192,179399,1,0,0:0:0:0:
329,192,179474,1,0,0:0:0:0:
256,192,179474,1,0,0:0:0:0:
182,192,179549,1,0,0:0:0:0:
475,192,179624,1,0,0:0:0:0:
182,192,179699,1,0,0:0:0:0:
475,192,179774,1,0,0:0:0:0:
36,192,179849,1,0,0:0:0:0:
329,192,179924,1,0,0:0:0:0:
36,192,179999,1,0,0:0:0:0:
329,192,180074,1,0,0:0:0:0:
109,192,180149,1,0,0:0:0:0:
182,192,180149,1,0,0:0:0:0:
256,192,180149,1,0,0:0:0:0:
402,192,180149,1,0,0:0:0:0:
475,192,180149,1,0,0:0:0:0:
329,192,180449,1,0,0:0:0:0:
402,192,180449,1,0,0:0:0:0:
182,192,180449,1,0,0:0:0:0:
109,192,180449,1,0,0:0:0:0:
109,192,180599,1,0,0:0:0:0:
182,192,180599,1,0,0:0:0:0:
256,192,180899,1,0,0:0:0:0:
182,192,180899,1,0,0:0:0:0:
329,192,180899,1,0,0:0:0:0:
256,192,181199,1,0,0:0:0:0:
182,192,181199,1,0,0:0:0:0:
329,192,181199,1,0,0:0:0:0:
182,192,181349,1,0,0:0:0:0:
329,192,181349,1,0,0:0:0:0:
475,192,181349,1,0,0:0:0:0:
109,192,181349,1,0,0:0:0:0:
256,192,181424,1,0,0:0:0:0:
36,192,181424,1,0,0:0:0:0:
402,192,181499,1,0,0:0:0:0:
182,192,181499,1,0,0:0:0:0:
329,192,181574,1,0,0:0:0:0:
109,192,181649,1,0,0:0:0:0:
182,192,181649,1,0,0:0:0:0:
256,192,181649,1,0,0:0:0:0:
475,192,181649,1,0,0:0:0:0:
402,192,181724,1,0,0:0:0:0:
36,192,181724,1,0,0:0:0:0:
329,192,181799,1,0,0:0:0:0:
109,192,181799,1,0,0:0:0:0:
402,192,181874,1,0,0:0:0:0:
329,192,181949,1,0,0:0:0:0:
256,192,181949,1,0,0:0:0:0:
475,192,181949,1,0,0:0:0:0:
36,192,181949,1,0,0:0:0:0:
182,192,182024,1,0,0:0:0:0:
402,192,182024,1,0,0:0:0:0:
109,192,182099,1,0,0:0:0:0:
256,192,182099,1,0,0:0:0:0:
329,192,182174,1,0,0:0:0:0:
256,192,182249,1,0,0:0:0:0:
402,192,182249,1,0,0:0:0:0:
475,192,182249,1,0,0:0:0:0:
36,192,182249,1,0,0:0:0:0:
109,192,182324,1,0,0:0:0:0:
329,192,182324,1,0,0:0:0:0:
36,192,182399,1,0,0:0:0:0:
402,192,182399,1,0,0:0:0:0:
256,192,182474,1,0,0:0:0:0:
109,192,182549,1,0,0:0:0:0:
182,192,182549,1,0,0:0:0:0:
329,192,182549,1,0,0:0:0:0:
402,192,182549,1,0,0:0:0:0:
475,192,182549,1,0,0:0:0:0:
36,192,182624,1,0,0:0:0:0:
256,192,182624,1,0,0:0:0:0:
182,192,182699,1,0,0:0:0:0:
329,192,182699,1,0,0:0:0:0:
256,192,182774,1,0,0:0:0:0:
402,192,182774,1,0,0:0:0:0:
329,192,182849,1,0,0:0:0:0:
109,192,182849,1,0,0:0:0:0:
256,192,182924,1,0,0:0:0:0:
475,192,182924,1,0,0:0:0:0:
182,192,182999,1,0,0:0:0:0:
402,192,182999,1,0,0:0:0:0:
329,192,182999,1,0,0:0:0:0:
109,192,182999,1,0,0:0:0:0:
36,192,182999,1,0,0:0:0:0:
256,192,183074,1,0,0:0:0:0:
475,192,183074,1,0,0:0:0:0:
402,192,183149,1,0,0:0:0:0:
182,192,183149,1,0,0:0:0:0:
475,192,183224,1,0,0:0:0:0:
36,192,183224,1,0,0:0:0:0:
109,192,183299,1,0,0:0:0:0:
329,192,183299,1,0,0:0:0:0:
256,192,183374,1,0,0:0:0:0:
402,192,183374,1,0,0:0:0:0:
182,192,183449,1,0,0:0:0:0:
329,192,183449,1,0,0:0:0:0:
475,192,183449,1,0,0:0:0:0:
109,192,183449,1,0,0:0:0:0:
36,192,183449,1,0,0:0:0:0:
256,192,183524,1,0,0:0:0:0:
402,192,183524,1,0,0:0:0:0:
109,192,183599,1,0,0:0:0:0:
329,192,183599,1,0,0:0:0:0:
256,192,183674,1,0,0:0:0:0:
402,192,183674,1,0,0:0:0:0:
36,192,183749,1,0,0:0:0:0:
182,192,183749,1,0,0:0:0:0:
329,192,183749,1,0,0:0:0:0:
475,192,183749,1,0,0:0:0:0:
182,192,184049,1,0,0:0:0:0:
36,192,184049,1,0,0:0:0:0:
329,192,184049,1,0,0:0:0:0:
475,192,184049,1,0,0:0:0:0:
402,192,184049,1,0,0:0:0:0:
109,192,184049,1,0,0:0:0:0:
109,192,184349,1,0,0:0:0:0:
182,192,184349,1,0,0:0:0:0:
329,192,184349,1,0,0:0:0:0:
402,192,184349,1,0,0:0:0:0:
475,192,184424,1,0,0:0:0:0:
256,192,184424,1,0,0:0:0:0:
402,192,184499,1,0,0:0:0:0:
36,192,184499,1,0,0:0:0:0:
109,192,184574,1,0,0:0:0:0:
329,192,184574,1,0,0:0:0:0:
256,192,184649,1,0,0:0:0:0:
475,192,184649,1,0,0:0:0:0:
182,192,184724,1,0,0:0:0:0:
402,192,184724,1,0,0:0:0:0:
329,192,184799,1,0,0:0:0:0:
256,192,184799,1,0,0:0:0:0:
182,192,184874,1,0,0:0:0:0:
402,192,184874,1,0,0:0:0:0:
475,192,184949,1,0,0:0:0:0:
329,192,184949,1,0,0:0:0:0:
109,192,184949,1,0,0:0:0:0:
36,192,184949,1,0,0:0:0:0:
256,192,185024,1,0,0:0:0:0:
402,192,185099,1,0,0:0:0:0:
329,192,185099,1,0,0:0:0:0:
182,192,185099,1,0,0:0:0:0:
109,192,185099,1,0,0:0:0:0:
36,192,185099,1,0,0:0:0:0:
475,192,185174,1,0,0:0:0:0:
109,192,185249,1,0,0:0:0:0:
182,192,185249,1,0,0:0:0:0:
402,192,185249,1,0,0:0:0:0:
329,192,185249,1,0,0:0:0:0:
36,192,185249,1,0,0:0:0:0:
256,192,185324,1,0,0:0:0:0:
475,192,185399,1,0,0:0:0:0:
329,192,185399,1,0,0:0:0:0:
182,192,185399,1,0,0:0:0:0:
109,192,185399,1,0,0:0:0:0:
256,192,185474,1,0,0:0:0:0:
402,192,185549,1,0,0:0:0:0:
329,192,185549,1,0,0:0:0:0:
182,192,185549,1,0,0:0:0:0:
36,192,185549,1,0,0:0:0:0:
475,192,185624,1,0,0:0:0:0:
402,192,185699,1,0,0:0:0:0:
329,192,185699,1,0,0:0:0:0:
109,192,185699,1,0,0:0:0:0:
182,192,185699,1,0,0:0:0:0:
256,192,185774,1,0,0:0:0:0:
475,192,185849,1,0,0:0:0:0:
109,192,185849,1,0,0:0:0:0:
329,192,185849,1,0,0:0:0:0:
182,192,185849,1,0,0:0:0:0:
402,192,185924,1,0,0:0:0:0:
256,192,185999,1,0,0:0:0:0:
329,192,185999,1,0,0:0:0:0:
36,192,185999,1,0,0:0:0:0:
109,192,185999,1,0,0:0:0:0:
402,192,186074,1,0,0:0:0:0:
256,192,186149,1,0,0:0:0:0:
182,192,186149,1,0,0:0:0:0:
36,192,186149,1,0,0:0:0:0:
475,192,186149,1,0,0:0:0:0:
329,192,186224,1,0,0:0:0:0:
109,192,186299,1,0,0:0:0:0:
182,192,186299,1,0,0:0:0:0:
402,192,186299,1,0,0:0:0:0:
36,192,186299,1,0,0:0:0:0:
475,192,186299,1,0,0:0:0:0:
256,192,186374,1,0,0:0:0:0:
36,192,186449,1,0,0:0:0:0:
329,192,186449,1,0,0:0:0:0:
182,192,186449,1,0,0:0:0:0:
402,192,186449,1,0,0:0:0:0:
475,192,186449,1,0,0:0:0:0:
109,192,186524,1,0,0:0:0:0:
329,192,186599,1,0,0:0:0:0:
256,192,186599,1,0,0:0:0:0:
36,192,186599,1,0,0:0:0:0:
402,192,186599,1,0,0:0:0:0:
182,192,186674,1,0,0:0:0:0:
109,192,186749,1,0,0:0:0:0:
329,192,186749,1,0,0:0:0:0:
36,192,186749,1,0,0:0:0:0:
475,192,186749,1,0,0:0:0:0:
256,192,186824,1,0,0:0:0:0:
182,192,186899,1,0,0:0:0:0:
109,192,186899,1,0,0:0:0:0:
402,192,186899,1,0,0:0:0:0:
329,192,186899,1,0,0:0:0:0:
256,192,186974,1,0,0:0:0:0:
36,192,187049,1,0,0:0:0:0:
109,192,187049,1,0,0:0:0:0:
475,192,187049,1,0,0:0:0:0:
329,192,187049,1,0,0:0:0:0:
182,192,187124,1,0,0:0:0:0:
256,192,187199,1,0,0:0:0:0:
109,192,187199,1,0,0:0:0:0:
475,192,187199,1,0,0:0:0:0:
402,192,187199,1,0,0:0:0:0:
182,192,187274,1,0,0:0:0:0:
329,192,187349,1,0,0:0:0:0:
256,192,187349,1,0,0:0:0:0:
109,192,187349,1,0,0:0:0:0:
36,192,187349,1,0,0:0:0:0:
475,192,187424,1,0,0:0:0:0:
402,192,187499,1,0,0:0:0:0:
329,192,187499,1,0,0:0:0:0:
182,192,187499,1,0,0:0:0:0:
109,192,187499,1,0,0:0:0:0:
36,192,187499,1,0,0:0:0:0:
475,192,187574,1,0,0:0:0:0:
109,192,187649,1,0,0:0:0:0:
182,192,187649,1,0,0:0:0:0:
256,192,187649,1,0,0:0:0:0:
329,192,187649,1,0,0:0:0:0:
36,192,187649,1,0,0:0:0:0:
402,192,187724,1,0,0:0:0:0:
182,192,187799,1,0,0:0:0:0:
256,192,187799,1,0,0:0:0:0:
475,192,187799,1,0,0:0:0:0:
36,192,187799,1,0,0:0:0:0:
329,192,187799,1,0,0:0:0:0:
402,192,187874,1,0,0:0:0:0:
256,192,187949,1,0,0:0:0:0:
36,192,187949,1,0,0:0:0:0:
475,192,187949,1,0,0:0:0:0:
109,192,187949,1,0,0:0:0:0:
402,192,188024,1,0,0:0:0:0:
256,192,188099,1,0,0:0:0:0:
329,192,188099,1,0,0:0:0:0:
475,192,188099,1,0,0:0:0:0:
182,192,188099,1,0,0:0:0:0:
402,192,188174,1,0,0:0:0:0:
36,192,188249,1,0,0:0:0:0:
109,192,188249,1,0,0:0:0:0:
329,192,188249,1,0,0:0:0:0:
182,192,188249,1,0,0:0:0:0:
475,192,188324,1,0,0:0:0:0:
256,192,188399,1,0,0:0:0:0:
109,192,188399,1,0,0:0:0:0:
402,192,188399,1,0,0:0:0:0:
36,192,188399,1,0,0:0:0:0:
329,192,188474,1,0,0:0:0:0:
182,192,188549,1,0,0:0:0:0:
256,192,188549,1,0,0:0:0:0:
402,192,188549,1,0,0:0:0:0:
109,192,188549,1,0,0:0:0:0:
475,192,188549,1,0,0:0:0:0:
329,192,188624,1,0,0:0:0:0:
36,192,188699,1,0,0:0:0:0:
182,192,188699,1,0,0:0:0:0:
256,192,188699,1,0,0:0:0:0:
402,192,188699,1,0,0:0:0:0:
475,192,188699,1,0,0:0:0:0:
329,192,188774,1,0,0:0:0:0:
109,192,188849,1,0,0:0:0:0:
182,192,188849,1,0,0:0:0:0:
402,192,188849,1,0,0:0:0:0:
256,192,188849,1,0,0:0:0:0:
475,192,188849,1,0,0:0:0:0:
36,192,188924,1,0,0:0:0:0:
329,192,188999,1,0,0:0:0:0:
402,192,188999,1,0,0:0:0:0:
182,192,188999,1,0,0:0:0:0:
109,192,188999,1,0,0:0:0:0:
475,192,188999,1,0,0:0:0:0:
36,192,189074,1,0,0:0:0:0:
182,192,189149,1,0,0:0:0:0:
256,192,189149,1,0,0:0:0:0:
329,192,189149,1,0,0:0:0:0:
402,192,189149,1,0,0:0:0:0:
475,192,189149,1,0,0:0:0:0:
109,192,189224,1,0,0:0:0:0:
256,192,189299,1,0,0:0:0:0:
182,192,189299,1,0,0:0:0:0:
36,192,189299,1,0,0:0:0:0:
329,192,189299,1,0,0:0:0:0:
402,192,189374,1,0,0:0:0:0:
109,192,189449,1,0,0:0:0:0:
182,192,189449,1,0,0:0:0:0:
256,192,189449,1,0,0:0:0:0:
475,192,189449,1,0,0:0:0:0:
36,192,189524,1,0,0:0:0:0:
182,192,189599,1,0,0:0:0:0:
256,192,189599,1,0,0:0:0:0:
475,192,189599,1,0,0:0:0:0:
402,192,189599,1,0,0:0:0:0:
109,192,189674,1,0,0:0:0:0:
329,192,189749,1,0,0:0:0:0:
256,192,189749,1,0,0:0:0:0:
475,192,189749,1,0,0:0:0:0:
36,192,189749,1,0,0:0:0:0:
182,192,189824,1,0,0:0:0:0:
475,192,189899,1,0,0:0:0:0:
109,192,189899,1,0,0:0:0:0:
256,192,189899,1,0,0:0:0:0:
402,192,189899,1,0,0:0:0:0:
36,192,189899,1,0,0:0:0:0:
329,192,189974,1,0,0:0:0:0:
182,192,190049,1,0,0:0:0:0:
256,192,190049,1,0,0:0:0:0:
402,192,190049,1,0,0:0:0:0:
475,192,190049,1,0,0:0:0:0:
36,192,190049,1,0,0:0:0:0:
329,192,190124,1,0,0:0:0:0:
402,192,190199,1,0,0:0:0:0:
475,192,190199,1,0,0:0:0:0:
182,192,190199,1,0,0:0:0:0:
109,192,190199,1,0,0:0:0:0:
256,192,190274,1,0,0:0:0:0:
402,192,190349,1,0,0:0:0:0:
182,192,190349,1,0,0:0:0:0:
329,192,190349,1,0,0:0:0:0:
36,192,190349,1,0,0:0:0:0:
475,192,190424,1,0,0:0:0:0:
256,192,190499,1,0,0:0:0:0:
109,192,190499,1,0,0:0:0:0:
402,192,190499,1,0,0:0:0:0:
182,192,190499,1,0,0:0:0:0:
475,192,190574,1,0,0:0:0:0:
329,192,190649,1,0,0:0:0:0:
402,192,190649,1,0,0:0:0:0:
109,192,190649,1,0,0:0:0:0:
182,192,190649,1,0,0:0:0:0:
36,192,190724,1,0,0:0:0:0:
256,192,190799,1,0,0:0:0:0:
402,192,190799,1,0,0:0:0:0:
475,192,190799,1,0,0:0:0:0:
109,192,190799,1,0,0:0:0:0:
329,192,190874,1,0,0:0:0:0:
182,192,190949,1,0,0:0:0:0:
256,192,190949,1,0,0:0:0:0:
36,192,190949,1,0,0:0:0:0:
475,192,190949,1,0,0:0:0:0:
402,192,191024,1,0,0:0:0:0:
329,192,191099,1,0,0:0:0:0:
256,192,191099,1,0,0:0:0:0:
109,192,191099,1,0,0:0:0:0:
36,192,191099,1,0,0:0:0:0:
475,192,191099,1,0,0:0:0:0:
402,192,191174,1,0,0:0:0:0:
182,192,191249,1,0,0:0:0:0:
329,192,191249,1,0,0:0:0:0:
256,192,191249,1,0,0:0:0:0:
36,192,191249,1,0,0:0:0:0:
475,192,191249,1,0,0:0:0:0:
109,192,191324,1,0,0:0:0:0:
329,192,191399,1,0,0:0:0:0:
256,192,191399,1,0,0:0:0:0:
36,192,191399,1,0,0:0:0:0:
402,192,191399,1,0,0:0:0:0:
182,192,191474,1,0,0:0:0:0:
329,192,191549,1,0,0:0:0:0:
109,192,191549,1,0,0:0:0:0:
36,192,191549,1,0,0:0:0:0:
475,192,191549,1,0,0:0:0:0:
256,192,191624,1,0,0:0:0:0:
109,192,191699,1,0,0:0:0:0:
402,192,191699,1,0,0:0:0:0:
36,192,191699,1,0,0:0:0:0:
329,192,191699,1,0,0:0:0:0:
182,192,191774,1,0,0:0:0:0:
109,192,191849,1,0,0:0:0:0:
475,192,191849,1,0,0:0:0:0:
256,192,191849,1,0,0:0:0:0:
329,192,191849,1,0,0:0:0:0:
36,192,191924,1,0,0:0:0:0:
182,192,191999,1,0,0:0:0:0:
256,192,191999,1,0,0:0:0:0:
109,192,191999,1,0,0:0:0:0:
402,192,191999,1,0,0:0:0:0:
475,192,192074,1,0,0:0:0:0:
256,192,192149,1,0,0:0:0:0:
329,192,192149,1,0,0:0:0:0:
36,192,192149,1,0,0:0:0:0:
109,192,192149,1,0,0:0:0:0:
475,192,192224,1,0,0:0:0:0:
329,192,192299,1,0,0:0:0:0:
402,192,192299,1,0,0:0:0:0:
36,192,192299,1,0,0:0:0:0:
182,192,192299,1,0,0:0:0:0:
256,192,192374,1,0,0:0:0:0:
475,192,192449,1,0,0:0:0:0:
402,192,192449,1,0,0:0:0:0:
36,192,192449,1,0,0:0:0:0:
182,192,192449,1,0,0:0:0:0:
109,192,192524,1,0,0:0:0:0:
329,192,192599,1,0,0:0:0:0:
256,192,192599,1,0,0:0:0:0:
36,192,192599,1,0,0:0:0:0:
182,192,192599,1,0,0:0:0:0:
475,192,192599,1,0,0:0:0:0:
402,192,192674,1,0,0:0:0:0:
256,192,192749,1,0,0:0:0:0:
329,192,192749,1,0,0:0:0:0:
109,192,192749,1,0,0:0:0:0:
36,192,192749,1,0,0:0:0:0:
402,192,192824,1,0,0:0:0:0:
256,192,192899,1,0,0:0:0:0:
475,192,192899,1,0,0:0:0:0:
329,192,192899,1,0,0:0:0:0:
182,192,192899,1,0,0:0:0:0:
402,192,192974,1,0,0:0:0:0:
36,192,193049,1,0,0:0:0:0:
475,192,193049,1,0,0:0:0:0:
256,192,193049,1,0,0:0:0:0:
109,192,193049,1,0,0:0:0:0:
402,192,193124,1,0,0:0:0:0:
475,192,193199,1,0,0:0:0:0:
329,192,193199,1,0,0:0:0:0:
36,192,193199,1,0,0:0:0:0:
182,192,193199,1,0,0:0:0:0:
256,192,193274,1,0,0:0:0:0:
402,192,193349,1,0,0:0:0:0:
329,192,193349,1,0,0:0:0:0:
109,192,193349,1,0,0:0:0:0:
475,192,193349,1,0,0:0:0:0:
36,192,193349,1,0,0:0:0:0:
256,192,193424,1,0,0:0:0:0:
475,192,193499,1,0,0:0:0:0:
402,192,193499,1,0,0:0:0:0:
182,192,193499,1,0,0:0:0:0:
109,192,193499,1,0,0:0:0:0:
36,192,193499,1,0,0:0:0:0:
329,192,193574,1,0,0:0:0:0:
256,192,193649,1,0,0:0:0:0:
402,192,193649,1,0,0:0:0:0:
475,192,193649,1,0,0:0:0:0:
109,192,193649,1,0,0:0:0:0:
36,192,193649,1,0,0:0:0:0:
182,192,193724,1,0,0:0:0:0:
329,192,193799,1,0,0:0:0:0:
256,192,193799,1,0,0:0:0:0:
402,192,193799,1,0,0:0:0:0:
109,192,193799,1,0,0:0:0:0:
36,192,193799,1,0,0:0:0:0:
475,192,193874,1,0,0:0:0:0:
402,192,193949,1,0,0:0:0:0:
182,192,193949,1,0,0:0:0:0:
256,192,193949,1,0,0:0:0:0:
109,192,193949,1,0,0:0:0:0:
36,192,193949,1,0,0:0:0:0:
475,192,194024,1,0,0:0:0:0:
329,192,194099,1,0,0:0:0:0:
402,192,194099,1,0,0:0:0:0:
109,192,194099,1,0,0:0:0:0:
182,192,194099,1,0,0:0:0:0:
475,192,194174,1,0,0:0:0:0:
256,192,194249,1,0,0:0:0:0:
329,192,194249,1,0,0:0:0:0:
36,192,194249,1,0,0:0:0:0:
182,192,194249,1,0,0:0:0:0:
402,192,194324,1,0,0:0:0:0:
329,192,194399,1,0,0:0:0:0:
475,192,194399,1,0,0:0:0:0:
36,192,194399,1,0,0:0:0:0:
109,192,194399,1,0,0:0:0:0:
256,192,194474,1,0,0:0:0:0:
182,192,194549,1,0,0:0:0:0:
256,192,194586,1,0,0:0:0:0:
329,192,194624,1,0,0:0:0:0:
402,192,194661,1,0,0:0:0:0:
36,192,194699,1,0,0:0:0:0:
109,192,194736,1,0,0:0:0:0:
182,192,194774,1,0,0:0:0:0:
256,192,194811,1,0,0:0:0:0:
475,192,194849,1,0,0:0:0:0:
402,192,194886,1,0,0:0:0:0:
329,192,194924,1,0,0:0:0:0:
256,192,194961,1,0,0:0:0:0:
109,192,194999,1,0,0:0:0:0:
182,192,195036,1,0,0:0:0:0:
256,192,195074,1,0,0:0:0:0:
329,192,195111,1,0,0:0:0:0:
36,192,195149,1,0,0:0:0:0:
109,192,195149,1,0,0:0:0:0:
182,192,195149,1,0,0:0:0:0:
475,192,195149,1,0,0:0:0:0:
402,192,195224,1,0,0:0:0:0:
109,192,195299,1,0,0:0:0:0:
182,192,195299,1,0,0:0:0:0:
329,192,195299,1,0,0:0:0:0:
475,192,195299,1,0,0:0:0:0:
402,192,195374,1,0,0:0:0:0:
182,192,195449,1,0,0:0:0:0:
256,192,195449,1,0,0:0:0:0:
36,192,195449,1,0,0:0:0:0:
329,192,195449,1,0,0:0:0:0:
109,192,195524,1,0,0:0:0:0:
329,192,195599,1,0,0:0:0:0:
256,192,195599,1,0,0:0:0:0:
402,192,195599,1,0,0:0:0:0:
475,192,195599,1,0,0:0:0:0:
182,192,195674,1,0,0:0:0:0:
36,192,195749,1,0,0:0:0:0:
109,192,195786,1,0,0:0:0:0:
182,192,195824,1,0,0:0:0:0:
256,192,195861,1,0,0:0:0:0:
402,192,195899,1,0,0:0:0:0:
329,192,195936,1,0,0:0:0:0:
256,192,195974,1,0,0:0:0:0:
182,192,196011,1,0,0:0:0:0:
36,192,196049,1,0,0:0:0:0:
109,192,196086,1,0,0:0:0:0:
182,192,196124,1,0,0:0:0:0:
256,192,196161,1,0,0:0:0:0:
475,192,196199,1,0,0:0:0:0:
402,192,196236,1,0,0:0:0:0:
329,192,196274,1,0,0:0:0:0:
256,192,196311,1,0,0:0:0:0:
36,192,196349,1,0,0:0:0:0:
182,192,196349,1,0,0:0:0:0:
402,192,196349,1,0,0:0:0:0:
475,192,196349,1,0,0:0:0:0:
329,192,196424,1,0,0:0:0:0:
109,192,196499,1,0,0:0:0:0:
182,192,196499,1,0,0:0:0:0:
402,192,196499,1,0,0:0:0:0:
256,192,196499,1,0,0:0:0:0:
36,192,196574,1,0,0:0:0:0:
182,192,196649,1,0,0:0:0:0:
329,192,196649,1,0,0:0:0:0:
475,192,196649,1,0,0:0:0:0:
402,192,196649,1,0,0:0:0:0:
256,192,196724,1,0,0:0:0:0:
109,192,196799,1,0,0:0:0:0:
182,192,196799,1,0,0:0:0:0:
402,192,196799,1,0,0:0:0:0:
475,192,196799,1,0,0:0:0:0:
36,192,196874,1,0,0:0:0:0:
182,192,196949,1,0,0:0:0:0:
256,192,196986,1,0,0:0:0:0:
329,192,197024,1,0,0:0:0:0:
402,192,197061,1,0,0:0:0:0:
36,192,197099,1,0,0:0:0:0:
109,192,197136,1,0,0:0:0:0:
182,192,197174,1,0,0:0:0:0:
256,192,197211,1,0,0:0:0:0:
475,192,197249,1,0,0:0:0:0:
402,192,197286,1,0,0:0:0:0:
329,192,197324,1,0,0:0:0:0:
256,192,197361,1,0,0:0:0:0:
109,192,197399,1,0,0:0:0:0:
182,192,197436,1,0,0:0:0:0:
256,192,197474,1,0,0:0:0:0:
329,192,197511,1,0,0:0:0:0:
36,192,197549,1,0,0:0:0:0:
109,192,197549,1,0,0:0:0:0:
182,192,197549,1,0,0:0:0:0:
475,192,197549,1,0,0:0:0:0:
402,192,197624,1,0,0:0:0:0:
182,192,197699,1,0,0:0:0:0:
256,192,197699,1,0,0:0:0:0:
475,192,197699,1,0,0:0:0:0:
109,192,197699,1,0,0:0:0:0:
36,192,197774,1,0,0:0:0:0:
182,192,197849,1,0,0:0:0:0:
402,192,197849,1,0,0:0:0:0:
329,192,197849,1,0,0:0:0:0:
475,192,197849,1,0,0:0:0:0:
256,192,197924,1,0,0:0:0:0:
109,192,197999,1,0,0:0:0:0:
182,192,197999,1,0,0:0:0:0:
402,192,197999,1,0,0:0:0:0:
475,192,197999,1,0,0:0:0:0:
36,192,198074,1,0,0:0:0:0:
329,192,198149,1,0,0:0:0:0:
182,192,198149,1,0,0:0:0:0:
402,192,198149,1,0,0:0:0:0:
256,192,198149,1,0,0:0:0:0:
475,192,198224,1,0,0:0:0:0:
329,192,198299,1,0,0:0:0:0:
402,192,198299,1,0,0:0:0:0:
36,192,198299,1,0,0:0:0:0:
109,192,198299,1,0,0:0:0:0:
182,192,198374,1,0,0:0:0:0:
402,192,198449,1,0,0:0:0:0:
475,192,198449,1,0,0:0:0:0:
256,192,198449,1,0,0:0:0:0:
109,192,198449,1,0,0:0:0:0:
329,192,198524,1,0,0:0:0:0:
402,192,198599,1,0,0:0:0:0:
256,192,198599,1,0,0:0:0:0:
36,192,198599,1,0,0:0:0:0:
182,192,198599,1,0,0:0:0:0:
475,192,198674,1,0,0:0:0:0:
402,192,198749,1,0,0:0:0:0:
329,192,198749,1,0,0:0:0:0:
109,192,198749,1,0,0:0:0:0:
36,192,198749,1,0,0:0:0:0:
256,192,198824,1,0,0:0:0:0:
475,192,198899,1,0,0:0:0:0:
402,192,198899,1,0,0:0:0:0:
182,192,198899,1,0,0:0:0:0:
109,192,198899,1,0,0:0:0:0:
329,192,198974,1,0,0:0:0:0:
109,192,199049,1,0,0:0:0:0:
182,192,199049,1,0,0:0:0:0:
402,192,199049,1,0,0:0:0:0:
475,192,199049,1,0,0:0:0:0:
256,192,199124,1,0,0:0:0:0:
36,192,199199,1,0,0:0:0:0:
109,192,199199,1,0,0:0:0:0:
329,192,199199,1,0,0:0:0:0:
475,192,199199,1,0,0:0:0:0:
182,192,199274,1,0,0:0:0:0:
109,192,199349,1,0,0:0:0:0:
182,192,199386,1,0,0:0:0:0:
256,192,199424,1,0,0:0:0:0:
329,192,199461,1,0,0:0:0:0:
475,192,199499,1,0,0:0:0:0:
402,192,199536,1,0,0:0:0:0:
329,192,199574,1,0,0:0:0:0:
256,192,199611,1,0,0:0:0:0:
36,192,199649,1,0,0:0:0:0:
109,192,199686,1,0,0:0:0:0:
182,192,199724,1,0,0:0:0:0:
256,192,199761,1,0,0:0:0:0:
402,192,199799,1,0,0:0:0:0:
329,192,199836,1,0,0:0:0:0:
256,192,199874,1,0,0:0:0:0:
182,192,199911,1,0,0:0:0:0:
475,192,199949,1,0,0:0:0:0:
402,192,199949,1,0,0:0:0:0:
329,192,199949,1,0,0:0:0:0:
36,192,199949,1,0,0:0:0:0:
256,192,200024,1,0,0:0:0:0:
109,192,200099,1,0,0:0:0:0:
182,192,200099,1,0,0:0:0:0:
402,192,200099,1,0,0:0:0:0:
475,192,200099,1,0,0:0:0:0:
329,192,200174,1,0,0:0:0:0:
36,192,200249,1,0,0:0:0:0:
182,192,200249,1,0,0:0:0:0:
256,192,200249,1,0,0:0:0:0:
475,192,200249,1,0,0:0:0:0:
402,192,200324,1,0,0:0:0:0:
109,192,200399,1,0,0:0:0:0:
182,192,200399,1,0,0:0:0:0:
329,192,200399,1,0,0:0:0:0:
475,192,200399,1,0,0:0:0:0:
256,192,200474,1,0,0:0:0:0:
329,192,200549,1,0,0:0:0:0:
256,192,200586,1,0,0:0:0:0:
182,192,200624,1,0,0:0:0:0:
109,192,200661,1,0,0:0:0:0:
475,192,200699,1,0,0:0:0:0:
402,192,200736,1,0,0:0:0:0:
329,192,200774,1,0,0:0:0:0:
256,192,200811,1,0,0:0:0:0:
36,192,200849,1,0,0:0:0:0:
109,192,200886,1,0,0:0:0:0:
182,192,200924,1,0,0:0:0:0:
256,192,200961,1,0,0:0:0:0:
402,192,200999,1,0,0:0:0:0:
329,192,201036,1,0,0:0:0:0:
256,192,201074,1,0,0:0:0:0:
182,192,201111,1,0,0:0:0:0:
475,192,201149,1,0,0:0:0:0:
402,192,201149,1,0,0:0:0:0:
329,192,201149,1,0,0:0:0:0:
36,192,201149,1,0,0:0:0:0:
256,192,201224,1,0,0:0:0:0:
109,192,201299,1,0,0:0:0:0:
182,192,201299,1,0,0:0:0:0:
402,192,201299,1,0,0:0:0:0:
475,192,201299,1,0,0:0:0:0:
256,192,201374,1,0,0:0:0:0:
36,192,201449,1,0,0:0:0:0:
182,192,201449,1,0,0:0:0:0:
329,192,201449,1,0,0:0:0:0:
402,192,201449,1,0,0:0:0:0:
475,192,201524,1,0,0:0:0:0:
329,192,201599,1,0,0:0:0:0:
109,192,201599,1,0,0:0:0:0:
402,192,201599,1,0,0:0:0:0:
182,192,201599,1,0,0:0:0:0:
256,192,201674,1,0,0:0:0:0:
109,192,201749,1,0,0:0:0:0:
402,192,201749,1,0,0:0:0:0:
182,192,201824,1,0,0:0:0:0:
329,192,201824,1,0,0:0:0:0:
109,192,201899,1,0,0:0:0:0:
402,192,201899,1,0,0:0:0:0:
182,192,201974,1,0,0:0:0:0:
329,192,201974,1,0,0:0:0:0:
109,192,202049,1,0,0:0:0:0:
402,192,202049,1,0,0:0:0:0:
182,192,202124,1,0,0:0:0:0:
329,192,202124,1,0,0:0:0:0:
109,192,202199,1,0,0:0:0:0:
402,192,202199,1,0,0:0:0:0:
182,192,202274,1,0,0:0:0:0:
329,192,202274,1,0,0:0:0:0:
256,192,202349,1,0,0:0:0:0:
109,192,202349,1,0,0:0:0:0:
402,192,202349,1,0,0:0:0:0:
109,192,202499,1,0,0:0:0:0:
256,192,202499,1,0,0:0:0:0:
402,192,202499,1,0,0:0:0:0:
109,192,202649,1,0,0:0:0:0:
256,192,202649,1,0,0:0:0:0:
182,192,202724,1,0,0:0:0:0:
329,192,202724,1,0,0:0:0:0:
256,192,202799,1,0,0:0:0:0:
402,192,202799,1,0,0:0:0:0:
329,192,202874,1,0,0:0:0:0:
182,192,202874,1,0,0:0:0:0:
109,192,202949,1,0,0:0:0:0:
256,192,202949,1,0,0:0:0:0:
402,192,203024,1,0,0:0:0:0:
182,192,203024,1,0,0:0:0:0:
36,192,203099,1,0,0:0:0:0:
329,192,203099,1,0,0:0:0:0:
256,192,203099,1,0,0:0:0:0:
109,192,203174,1,0,0:0:0:0:
402,192,203174,1,0,0:0:0:0:
182,192,203249,1,0,0:0:0:0:
475,192,203249,1,0,0:0:0:0:
329,192,203249,1,0,0:0:0:0:
109,192,203324,1,0,0:0:0:0:
402,192,203324,1,0,0:0:0:0:
256,192,203399,1,0,0:0:0:0:
475,192,203399,1,0,0:0:0:0:
182,192,203399,1,0,0:0:0:0:
36,192,203474,1,0,0:0:0:0:
329,192,203474,1,0,0:0:0:0:
182,192,203549,1,0,0:0:0:0:
402,192,203549,1,0,0:0:0:0:
475,192,203549,1,0,0:0:0:0:
256,192,203624,1,0,0:0:0:0:
109,192,203624,1,0,0:0:0:0:
329,192,203699,1,0,0:0:0:0:
475,192,203699,1,0,0:0:0:0:
36,192,203699,1,0,0:0:0:0:
182,192,203774,1,0,0:0:0:0:
402,192,203774,1,0,0:0:0:0:
256,192,203849,1,0,0:0:0:0:
475,192,203849,1,0,0:0:0:0:
36,192,203849,1,0,0:0:0:0:
109,192,203924,1,0,0:0:0:0:
329,192,203924,1,0,0:0:0:0:
256,192,203999,1,0,0:0:0:0:
402,192,203999,1,0,0:0:0:0:
182,192,203999,1,0,0:0:0:0:
36,192,204074,1,0,0:0:0:0:
329,192,204074,1,0,0:0:0:0:
182,192,204149,1,0,0:0:0:0:
256,192,204149,1,0,0:0:0:0:
109,192,204149,1,0,0:0:0:0:
475,192,204149,1,0,0:0:0:0:
402,192,204224,1,0,0:0:0:0:
329,192,204299,1,0,0:0:0:0:
36,192,204299,1,0,0:0:0:0:
256,192,204299,1,0,0:0:0:0:
475,192,204299,1,0,0:0:0:0:
109,192,204374,1,0,0:0:0:0:
402,192,204449,1,0,0:0:0:0:
36,192,204449,1,0,0:0:0:0:
256,192,204449,1,0,0:0:0:0:
475,192,204449,1,0,0:0:0:0:
109,192,204524,1,0,0:0:0:0:
402,192,204599,1,0,0:0:0:0:
36,192,204599,1,0,0:0:0:0:
182,192,204599,1,0,0:0:0:0:
329,192,204599,1,0,0:0:0:0:
256,192,204674,1,0,0:0:0:0:
36,192,204749,1,0,0:0:0:0:
402,192,204749,1,0,0:0:0:0:
475,192,204749,1,0,0:0:0:0:
182,192,204749,1,0,0:0:0:0:
109,192,204749,1,0,0:0:0:0:
256,192,204824,1,0,0:0:0:0:
475,192,204899,1,0,0:0:0:0:
402,192,204899,1,0,0:0:0:0:
36,192,204899,1,0,0:0:0:0:
182,192,204899,1,0,0:0:0:0:
329,192,204974,1,0,0:0:0:0:
256,192,205049,1,0,0:0:0:0:
109,192,205049,1,0,0:0:0:0:
402,192,205049,1,0,0:0:0:0:
182,192,205049,1,0,0:0:0:0:
475,192,205124,1,0,0:0:0:0:
402,192,205199,1,0,0:0:0:0:
329,192,205199,1,0,0:0:0:0:
109,192,205199,1,0,0:0:0:0:
182,192,205199,1,0,0:0:0:0:
36,192,205199,1,0,0:0:0:0:
256,192,205274,1,0,0:0:0:0:
109,192,205349,1,0,0:0:0:0:
182,192,205349,1,0,0:0:0:0:
329,192,205349,1,0,0:0:0:0:
475,192,205349,1,0,0:0:0:0:
402,192,205424,1,0,0:0:0:0:
256,192,205499,1,0,0:0:0:0:
36,192,205499,1,0,0:0:0:0:
329,192,205499,1,0,0:0:0:0:
475,192,205499,1,0,0:0:0:0:
109,192,205574,1,0,0:0:0:0:
329,192,205649,1,0,0:0:0:0:
402,192,205649,1,0,0:0:0:0:
182,192,205649,1,0,0:0:0:0:
256,192,205649,1,0,0:0:0:0:
36,192,205724,1,0,0:0:0:0:
256,192,205799,1,0,0:0:0:0:
182,192,205799,1,0,0:0:0:0:
402,192,205799,1,0,0:0:0:0:
329,192,205799,1,0,0:0:0:0:
36,192,205874,1,0,0:0:0:0:
402,192,205949,1,0,0:0:0:0:
475,192,205949,1,0,0:0:0:0:
182,192,205949,1,0,0:0:0:0:
109,192,205949,1,0,0:0:0:0:
256,192,206024,1,0,0:0:0:0:
36,192,206099,1,0,0:0:0:0:
329,192,206099,1,0,0:0:0:0:
402,192,206099,1,0,0:0:0:0:
182,192,206099,1,0,0:0:0:0:
256,192,206174,1,0,0:0:0:0:
475,192,206249,1,0,0:0:0:0:
109,192,206249,1,0,0:0:0:0:
329,192,206249,1,0,0:0:0:0:
36,192,206249,1,0,0:0:0:0:
402,192,206324,1,0,0:0:0:0:
256,192,206399,1,0,0:0:0:0:
329,192,206399,1,0,0:0:0:0:
475,192,206399,1,0,0:0:0:0:
36,192,206399,1,0,0:0:0:0:
109,192,206474,1,0,0:0:0:0:
182,192,206549,1,0,0:0:0:0:
256,192,206549,1,0,0:0:0:0:
329,192,206549,1,0,0:0:0:0:
402,192,206549,1,0,0:0:0:0:
109,192,206624,1,0,0:0:0:0:
36,192,206699,1,0,0:0:0:0:
475,192,206699,1,0,0:0:0:0:
182,192,206699,1,0,0:0:0:0:
402,192,206699,1,0,0:0:0:0:
329,192,206774,1,0,0:0:0:0:
182,192,206849,1,0,0:0:0:0:
109,192,206849,1,0,0:0:0:0:
256,192,206849,1,0,0:0:0:0:
36,192,206849,1,0,0:0:0:0:
475,192,206924,1,0,0:0:0:0:
36,192,206999,1,0,0:0:0:0:
256,192,206999,1,0,0:0:0:0:
109,192,206999,1,0,0:0:0:0:
329,192,206999,1,0,0:0:0:0:
182,192,207074,1,0,0:0:0:0:
109,192,207149,1,0,0:0:0:0:
402,192,207149,1,0,0:0:0:0:
36,192,207149,1,0,0:0:0:0:
475,192,207149,1,0,0:0:0:0:
182,192,207224,1,0,0:0:0:0:
329,192,207299,1,0,0:0:0:0:
109,192,207299,1,0,0:0:0:0:
402,192,207299,1,0,0:0:0:0:
256,192,207299,1,0,0:0:0:0:
182,192,207374,1,0,0:0:0:0:
402,192,207449,1,0,0:0:0:0:
475,192,207449,1,0,0:0:0:0:
36,192,207449,1,0,0:0:0:0:
256,192,207449,1,0,0:0:0:0:
109,192,207524,1,0,0:0:0:0:
182,192,207599,1,0,0:0:0:0:
36,192,207599,1,0,0:0:0:0:
329,192,207599,1,0,0:0:0:0:
402,192,207599,1,0,0:0:0:0:
109,192,207674,1,0,0:0:0:0:
256,192,207749,1,0,0:0:0:0:
329,192,207749,1,0,0:0:0:0:
475,192,207749,1,0,0:0:0:0:
182,192,207749,1,0,0:0:0:0:
36,192,207824,1,0,0:0:0:0:
329,192,207899,1,0,0:0:0:0:
109,192,207899,1,0,0:0:0:0:
402,192,207899,1,0,0:0:0:0:
182,192,207899,1,0,0:0:0:0:
256,192,207974,1,0,0:0:0:0:
36,192,208049,1,0,0:0:0:0:
475,192,208049,1,0,0:0:0:0:
402,192,208049,1,0,0:0:0:0:
109,192,208049,1,0,0:0:0:0:
329,192,208124,1,0,0:0:0:0:
109,192,208199,1,0,0:0:0:0:
402,192,208199,1,0,0:0:0:0:
256,192,208199,1,0,0:0:0:0:
182,192,208199,1,0,0:0:0:0:
475,192,208274,1,0,0:0:0:0:
329,192,208349,1,0,0:0:0:0:
402,192,208349,1,0,0:0:0:0:
36,192,208349,1,0,0:0:0:0:
109,192,208349,1,0,0:0:0:0:
475,192,208424,1,0,0:0:0:0:
109,192,208499,1,0,0:0:0:0:
182,192,208499,1,0,0:0:0:0:
256,192,208499,1,0,0:0:0:0:
329,192,208499,1,0,0:0:0:0:
402,192,208574,1,0,0:0:0:0:
36,192,208649,1,0,0:0:0:0:
475,192,208649,1,0,0:0:0:0:
109,192,208649,1,0,0:0:0:0:
329,192,208649,1,0,0:0:0:0:
182,192,208724,1,0,0:0:0:0:
256,192,208799,1,0,0:0:0:0:
109,192,208799,1,0,0:0:0:0:
36,192,208799,1,0,0:0:0:0:
402,192,208799,1,0,0:0:0:0:
182,192,208874,1,0,0:0:0:0:
329,192,208949,1,0,0:0:0:0:
475,192,208949,1,0,0:0:0:0:
109,192,208949,1,0,0:0:0:0:
36,192,208949,1,0,0:0:0:0:
256,192,209024,1,0,0:0:0:0:
182,192,209099,1,0,0:0:0:0:
329,192,209099,1,0,0:0:0:0:
402,192,209099,1,0,0:0:0:0:
36,192,209099,1,0,0:0:0:0:
109,192,209174,1,0,0:0:0:0:
256,192,209249,1,0,0:0:0:0:
475,192,209249,1,0,0:0:0:0:
402,192,209249,1,0,0:0:0:0:
36,192,209249,1,0,0:0:0:0:
329,192,209324,1,0,0:0:0:0:
256,192,209399,1,0,0:0:0:0:
402,192,209399,1,0,0:0:0:0:
475,192,209399,1,0,0:0:0:0:
182,192,209399,1,0,0:0:0:0:
329,192,209474,1,0,0:0:0:0:
36,192,209549,1,0,0:0:0:0:
256,192,209549,1,0,0:0:0:0:
475,192,209549,1,0,0:0:0:0:
109,192,209549,1,0,0:0:0:0:
329,192,209624,1,0,0:0:0:0:
402,192,209699,1,0,0:0:0:0:
256,192,209699,1,0,0:0:0:0:
36,192,209699,1,0,0:0:0:0:
475,192,209699,1,0,0:0:0:0:
329,192,209774,1,0,0:0:0:0:
182,192,209849,1,0,0:0:0:0:
256,192,209849,1,0,0:0:0:0:
36,192,209849,1,0,0:0:0:0:
475,192,209849,1,0,0:0:0:0:
109,192,209924,1,0,0:0:0:0:
256,192,209999,1,0,0:0:0:0:
182,192,209999,1,0,0:0:0:0:
402,192,209999,1,0,0:0:0:0:
329,192,209999,1,0,0:0:0:0:
109,192,210074,1,0,0:0:0:0:
256,192,210149,1,0,0:0:0:0:
402,192,210149,1,0,0:0:0:0:
475,192,210149,1,0,0:0:0:0:
36,192,210149,1,0,0:0:0:0:
182,192,210224,1,0,0:0:0:0:
402,192,210299,1,0,0:0:0:0:
329,192,210299,1,0,0:0:0:0:
109,192,210299,1,0,0:0:0:0:
36,192,210299,1,0,0:0:0:0:
475,192,210374,1,0,0:0:0:0:
182,192,210449,1,0,0:0:0:0:
256,192,210449,1,0,0:0:0:0:
402,192,210449,1,0,0:0:0:0:
109,192,210449,1,0,0:0:0:0:
329,192,210524,1,0,0:0:0:0:
475,192,210599,1,0,0:0:0:0:
402,192,210599,1,0,0:0:0:0:
109,192,210599,1,0,0:0:0:0:
182,192,210599,1,0,0:0:0:0:
256,192,210674,1,0,0:0:0:0:
329,192,210749,1,0,0:0:0:0:
402,192,210749,1,0,0:0:0:0:
36,192,210749,1,0,0:0:0:0:
109,192,210749,1,0,0:0:0:0:
256,192,210824,1,0,0:0:0:0:
182,192,210899,1,0,0:0:0:0:
402,192,210899,1,0,0:0:0:0:
329,192,210899,1,0,0:0:0:0:
475,192,210899,1,0,0:0:0:0:
36,192,210974,1,0,0:0:0:0:
182,192,211049,1,0,0:0:0:0:
256,192,211049,1,0,0:0:0:0:
402,192,211049,1,0,0:0:0:0:
475,192,211049,1,0,0:0:0:0:
109,192,211124,1,0,0:0:0:0:
256,192,211199,1,0,0:0:0:0:
182,192,211199,1,0,0:0:0:0:
36,192,211199,1,0,0:0:0:0:
329,192,211199,1,0,0:0:0:0:
109,192,211274,1,0,0:0:0:0:
182,192,211349,1,0,0:0:0:0:
402,192,211349,1,0,0:0:0:0:
256,192,211349,1,0,0:0:0:0:
36,192,211349,1,0,0:0:0:0:
109,192,211424,1,0,0:0:0:0:
329,192,211499,1,0,0:0:0:0:
402,192,211499,1,0,0:0:0:0:
182,192,211499,1,0,0:0:0:0:
475,192,211499,1,0,0:0:0:0:
109,192,211574,1,0,0:0:0:0:
402,192,211649,1,0,0:0:0:0:
329,192,211649,1,0,0:0:0:0:
36,192,211649,1,0,0:0:0:0:
182,192,211649,1,0,0:0:0:0:
256,192,211724,1,0,0:0:0:0:
402,192,211799,1,0,0:0:0:0:
329,192,211799,1,0,0:0:0:0:
36,192,211799,1,0,0:0:0:0:
109,192,211799,1,0,0:0:0:0:
256,192,211874,1,0,0:0:0:0:
182,192,211949,1,0,0:0:0:0:
475,192,211949,1,0,0:0:0:0:
36,192,211949,1,0,0:0:0:0:
402,192,211949,1,0,0:0:0:0:
256,192,212024,1,0,0:0:0:0:
109,192,212099,1,0,0:0:0:0:
182,192,212099,1,0,0:0:0:0:
475,192,212099,1,0,0:0:0:0:
329,192,212099,1,0,0:0:0:0:
36,192,212174,1,0,0:0:0:0:
109,192,212249,1,0,0:0:0:0:
256,192,212249,1,0,0:0:0:0:
402,192,212249,1,0,0:0:0:0:
475,192,212249,1,0,0:0:0:0:
182,192,212324,1,0,0:0:0:0:
329,192,212399,1,0,0:0:0:0:
256,192,212399,1,0,0:0:0:0:
36,192,212399,1,0,0:0:0:0:
402,192,212399,1,0,0:0:0:0:
182,192,212474,1,0,0:0:0:0:
109,192,212549,1,0,0:0:0:0:
475,192,212549,1,0,0:0:0:0:
36,192,212549,1,0,0:0:0:0:
256,192,212549,1,0,0:0:0:0:
329,192,212624,1,0,0:0:0:0:
182,192,212624,1,0,0:0:0:0:
402,192,212699,1,0,0:0:0:0:
36,192,212699,1,0,0:0:0:0:
256,192,212699,1,0,0:0:0:0:
182,192,212774,1,0,0:0:0:0:
475,192,212774,1,0,0:0:0:0:
109,192,212849,1,0,0:0:0:0:
402,192,212849,1,0,0:0:0:0:
329,192,212849,1,0,0:0:0:0:
256,192,212849,1,0,0:0:0:0:
182,192,212924,1,0,0:0:0:0:
36,192,212924,1,0,0:0:0:0:
109,192,212999,1,0,0:0:0:0:
475,192,212999,1,0,0:0:0:0:
329,192,212999,1,0,0:0:0:0:
256,192,213074,1,0,0:0:0:0:
402,192,213074,1,0,0:0:0:0:
182,192,213149,1,0,0:0:0:0:
329,192,213149,1,0,0:0:0:0:
36,192,213149,1,0,0:0:0:0:
475,192,213149,1,0,0:0:0:0:
109,192,213224,1,0,0:0:0:0:
402,192,213224,1,0,0:0:0:0:
256,192,213299,1,0,0:0:0:0:
475,192,213299,1,0,0:0:0:0:
182,192,213374,1,0,0:0:0:0:
329,192,213374,1,0,0:0:0:0:
36,192,213449,1,0,0:0:0:0:
402,192,213449,1,0,0:0:0:0:
109,192,213524,1,0,0:0:0:0:
329,192,213524,1,0,0:0:0:0:
256,192,213599,1,0,0:0:0:0:
475,192,213599,1,0,0:0:0:0:
182,192,213674,1,0,0:0:0:0:
402,192,213674,1,0,0:0:0:0:
36,192,213749,1,0,0:0:0:0:
109,192,213749,1,0,0:0:0:0:
256,192,213749,1,0,0:0:0:0:
475,192,213749,1,0,0:0:0:0:
329,192,213749,1,0,0:0:0:0:
329,192,213899,1,0,0:0:0:0:
182,192,214049,1,0,0:0:0:0:
109,192,214049,1,0,0:0:0:0:
256,192,214049,1,0,0:0:0:0:
329,192,214049,1,0,0:0:0:0:
402,192,214049,1,0,0:0:0:0:
182,192,214199,1,0,0:0:0:0:
36,192,214349,1,0,0:0:0:0:
109,192,214349,1,0,0:0:0:0:
182,192,214349,1,0,0:0:0:0:
402,192,214349,1,0,0:0:0:0:
329,192,214349,1,0,0:0:0:0:
402,192,214499,1,0,0:0:0:0:
109,192,214649,1,0,0:0:0:0:
182,192,214649,1,0,0:0:0:0:
329,192,214649,1,0,0:0:0:0:
402,192,214649,1,0,0:0:0:0:
475,192,214649,1,0,0:0:0:0:
182,192,214799,1,0,0:0:0:0:
36,192,214949,1,0,0:0:0:0:
182,192,214949,1,0,0:0:0:0:
256,192,214949,1,0,0:0:0:0:
329,192,214949,1,0,0:0:0:0:
402,192,214949,1,0,0:0:0:0:
402,192,215099,1,0,0:0:0:0:
109,192,215249,1,0,0:0:0:0:
182,192,215249,1,0,0:0:0:0:
329,192,215249,1,0,0:0:0:0:
402,192,215249,1,0,0:0:0:0:
475,192,215249,1,0,0:0:0:0:
182,192,215399,1,0,0:0:0:0:
256,192,215549,1,0,0:0:0:0:
329,192,215549,1,0,0:0:0:0:
182,192,215549,1,0,0:0:0:0:
475,192,215549,1,0,0:0:0:0:
36,192,215549,1,0,0:0:0:0:
475,192,215699,1,0,0:0:0:0:
109,192,215849,1,0,0:0:0:0:
182,192,215849,1,0,0:0:0:0:
329,192,215849,1,0,0:0:0:0:
402,192,215849,1,0,0:0:0:0:
475,192,215849,1,0,0:0:0:0:
182,192,215999,1,0,0:0:0:0:
36,192,216149,1,0,0:0:0:0:
182,192,216149,1,0,0:0:0:0:
256,192,216149,1,0,0:0:0:0:
329,192,216149,1,0,0:0:0:0:
475,192,216149,1,0,0:0:0:0:
475,192,216299,1,0,0:0:0:0:
109,192,216449,1,0,0:0:0:0:
182,192,216449,1,0,0:0:0:0:
329,192,216449,1,0,0:0:0:0:
402,192,216449,1,0,0:0:0:0:
475,192,216449,1,0,0:0:0:0:
182,192,216599,1,0,0:0:0:0:
182,192,216749,1,0,0:0:0:0:
256,192,216749,1,0,0:0:0:0:
329,192,216749,1,0,0:0:0:0:
36,192,216749,1,0,0:0:0:0:
402,192,216749,1,0,0:0:0:0:
402,192,216899,1,0,0:0:0:0:
109,192,217049,1,0,0:0:0:0:
182,192,217049,1,0,0:0:0:0:
329,192,217049,1,0,0:0:0:0:
402,192,217049,1,0,0:0:0:0:
475,192,217049,1,0,0:0:0:0:
109,192,217199,1,0,0:0:0:0:
329,192,217349,1,0,0:0:0:0:
256,192,217349,1,0,0:0:0:0:
109,192,217349,1,0,0:0:0:0:
36,192,217349,1,0,0:0:0:0:
475,192,217349,1,0,0:0:0:0:
475,192,217499,1,0,0:0:0:0:
182,192,217649,1,0,0:0:0:0:
256,192,217649,1,0,0:0:0:0:
329,192,217649,1,0,0:0:0:0:
402,192,217649,1,0,0:0:0:0:
475,192,217649,1,0,0:0:0:0:
182,192,217799,1,0,0:0:0:0:
109,192,217949,1,0,0:0:0:0:
36,192,217949,1,0,0:0:0:0:
182,192,217949,1,0,0:0:0:0:
329,192,217949,1,0,0:0:0:0:
402,192,217949,1,0,0:0:0:0:
402,192,218099,1,0,0:0:0:0:
329,192,218249,1,0,0:0:0:0:
402,192,218249,1,0,0:0:0:0:
475,192,218249,1,0,0:0:0:0:
109,192,218249,1,0,0:0:0:0:
182,192,218249,1,0,0:0:0:0:
109,192,218399,1,0,0:0:0:0:
182,192,218549,1,0,0:0:0:0:
475,192,218549,1,0,0:0:0:0:
256,192,218586,1,0,0:0:0:0:
329,192,218624,1,0,0:0:0:0:
402,192,218661,1,0,0:0:0:0:
36,192,218699,1,0,0:0:0:0:
109,192,218736,1,0,0:0:0:0:
182,192,218774,1,0,0:0:0:0:
256,192,218811,1,0,0:0:0:0:
475,192,218849,1,0,0:0:0:0:
402,192,218886,1,0,0:0:0:0:
329,192,218924,1,0,0:0:0:0:
256,192,218961,1,0,0:0:0:0:
109,192,218999,1,0,0:0:0:0:
182,192,219036,1,0,0:0:0:0:
256,192,219074,1,0,0:0:0:0:
329,192,219111,1,0,0:0:0:0:
475,192,219149,1,0,0:0:0:0:
36,192,219149,1,0,0:0:0:0:
109,192,219149,1,0,0:0:0:0:
182,192,219149,1,0,0:0:0:0:
402,192,219224,1,0,0:0:0:0:
36,192,219299,1,0,0:0:0:0:
182,192,219299,1,0,0:0:0:0:
475,192,219299,1,0,0:0:0:0:
256,192,219299,1,0,0:0:0:0:
329,192,219299,1,0,0:0:0:0:
109,192,219374,1,0,0:0:0:0:
256,192,219449,1,0,0:0:0:0:
329,192,219449,1,0,0:0:0:0:
36,192,219449,1,0,0:0:0:0:
402,192,219449,1,0,0:0:0:0:
182,192,219524,1,0,0:0:0:0:
109,192,219599,1,0,0:0:0:0:
329,192,219599,1,0,0:0:0:0:
402,192,219599,1,0,0:0:0:0:
475,192,219599,1,0,0:0:0:0:
256,192,219674,1,0,0:0:0:0:
475,192,219749,1,0,0:0:0:0:
36,192,219749,1,0,0:0:0:0:
402,192,219786,1,0,0:0:0:0:
329,192,219824,1,0,0:0:0:0:
256,192,219861,1,0,0:0:0:0:
109,192,219899,1,0,0:0:0:0:
182,192,219936,1,0,0:0:0:0:
256,192,219974,1,0,0:0:0:0:
329,192,220011,1,0,0:0:0:0:
475,192,220049,1,0,0:0:0:0:
402,192,220086,1,0,0:0:0:0:
329,192,220124,1,0,0:0:0:0:
256,192,220161,1,0,0:0:0:0:
109,192,220199,1,0,0:0:0:0:
182,192,220236,1,0,0:0:0:0:
256,192,220274,1,0,0:0:0:0:
329,192,220311,1,0,0:0:0:0:
475,192,220349,1,0,0:0:0:0:
109,192,220349,1,0,0:0:0:0:
36,192,220349,1,0,0:0:0:0:
182,192,220349,1,0,0:0:0:0:
402,192,220424,1,0,0:0:0:0:
109,192,220499,1,0,0:0:0:0:
256,192,220499,1,0,0:0:0:0:
475,192,220499,1,0,0:0:0:0:
329,192,220499,1,0,0:0:0:0:
36,192,220574,1,0,0:0:0:0:
109,192,220649,1,0,0:0:0:0:
182,192,220649,1,0,0:0:0:0:
329,192,220649,1,0,0:0:0:0:
402,192,220649,1,0,0:0:0:0:
36,192,220724,1,0,0:0:0:0:
109,192,220799,1,0,0:0:0:0:
182,192,220799,1,0,0:0:0:0:
256,192,220799,1,0,0:0:0:0:
475,192,220799,1,0,0:0:0:0:
402,192,220874,1,0,0:0:0:0:
329,192,220949,1,0,0:0:0:0:
182,192,220949,1,0,0:0:0:0:
36,192,220949,1,0,0:0:0:0:
475,192,220949,1,0,0:0:0:0:
182,192,221174,1,0,0:0:0:0:
36,192,221174,1,0,0:0:0:0:
329,192,221174,1,0,0:0:0:0:
36,192,221399,1,0,0:0:0:0:
182,192,221399,1,0,0:0:0:0:
329,192,221624,1,0,0:0:0:0:
182,192,221624,1,0,0:0:0:0:
36,192,221624,1,0,0:0:0:0:
475,192,221624,1,0,0:0:0:0:
182,192,221849,1,0,0:0:0:0:
36,192,221849,1,0,0:0:0:0:
329,192,221849,1,0,0:0:0:0:
475,192,221849,1,0,0:0:0:0:
109,192,222149,1,0,0:0:0:0:
256,192,222149,1,0,0:0:0:0:
402,192,222149,1,0,0:0:0:0:
182,192,222224,1,0,0:0:0:0:
329,192,222224,1,0,0:0:0:0:
256,192,222299,1,0,0:0:0:0:
475,192,222299,1,0,0:0:0:0:
109,192,222299,1,0,0:0:0:0:
182,192,222374,1,0,0:0:0:0:
402,192,222374,1,0,0:0:0:0:
36,192,222374,1,0,0:0:0:0:
256,192,222449,1,0,0:0:0:0:
475,192,222449,1,0,0:0:0:0:
182,192,222524,1,0,0:0:0:0:
402,192,222524,1,0,0:0:0:0:
256,192,222599,1,0,0:0:0:0:
475,192,222599,1,0,0:0:0:0:
109,192,222674,1,0,0:0:0:0:
329,192,222674,1,0,0:0:0:0:
256,192,222749,1,0,0:0:0:0:
402,192,222749,1,0,0:0:0:0:
182,192,222824,1,0,0:0:0:0:
475,192,222824,1,0,0:0:0:0:
329,192,222899,1,0,0:0:0:0:
109,192,222974,1,0,0:0:0:0:
256,192,223049,1,0,0:0:0:0:
182,192,223124,1,0,0:0:0:0:
402,192,223199,1,0,0:0:0:0:
256,192,223274,1,0,0:0:0:0:
329,192,223349,1,0,0:0:0:0:
475,192,223349,1,0,0:0:0:0:
36,192,223349,1,0,0:0:0:0:
109,192,223349,1,0,0:0:0:0:
402,192,223349,1,0,0:0:0:0:
182,192,223424,1,0,0:0:0:0:
256,192,223424,1,0,0:0:0:0:
329,192,223499,1,0,0:0:0:0:
109,192,223499,1,0,0:0:0:0:
182,192,223574,1,0,0:0:0:0:
475,192,223574,1,0,0:0:0:0:
109,192,223649,1,0,0:0:0:0:
329,192,223649,1,0,0:0:0:0:
256,192,223724,1,0,0:0:0:0:
402,192,223724,1,0,0:0:0:0:
182,192,223799,1,0,0:0:0:0:
475,192,223799,1,0,0:0:0:0:
329,192,223799,1,0,0:0:0:0:
109,192,223799,1,0,0:0:0:0:
36,192,223799,1,0,0:0:0:0:
402,192,223874,1,0,0:0:0:0:
256,192,223874,1,0,0:0:0:0:
182,192,223949,1,0,0:0:0:0:
475,192,223949,1,0,0:0:0:0:
36,192,224024,1,0,0:0:0:0:
256,192,224024,1,0,0:0:0:0:
402,192,224024,1,0,0:0:0:0:
109,192,224099,1,0,0:0:0:0:
329,192,224099,1,0,0:0:0:0:
256,192,224174,1,0,0:0:0:0:
36,192,224174,1,0,0:0:0:0:
109,192,224249,1,0,0:0:0:0:
329,192,224249,1,0,0:0:0:0:
182,192,224249,1,0,0:0:0:0:
402,192,224249,1,0,0:0:0:0:
475,192,224249,1,0,0:0:0:0:
256,192,224324,1,0,0:0:0:0:
36,192,224324,1,0,0:0:0:0:
109,192,224399,1,0,0:0:0:0:
329,192,224399,1,0,0:0:0:0:
256,192,224474,1,0,0:0:0:0:
402,192,224474,1,0,0:0:0:0:
329,192,224549,1,0,0:0:0:0:
36,192,224549,1,0,0:0:0:0:
182,192,224549,1,0,0:0:0:0:
109,192,224549,1,0,0:0:0:0:
475,192,224549,1,0,0:0:0:0:
256,192,224624,1,0,0:0:0:0:
402,192,224624,1,0,0:0:0:0:
182,192,224699,1,0,0:0:0:0:
475,192,224699,1,0,0:0:0:0:
109,192,224774,1,0,0:0:0:0:
256,192,224774,1,0,0:0:0:0:
182,192,224849,1,0,0:0:0:0:
402,192,224849,1,0,0:0:0:0:
256,192,224924,1,0,0:0:0:0:
109,192,224924,1,0,0:0:0:0:
182,192,224999,1,0,0:0:0:0:
475,192,224999,1,0,0:0:0:0:
329,192,224999,1,0,0:0:0:0:
402,192,224999,1,0,0:0:0:0:
36,192,224999,1,0,0:0:0:0:
256,192,225074,1,0,0:0:0:0:
109,192,225074,1,0,0:0:0:0:
329,192,225149,1,0,0:0:0:0:
182,192,225149,1,0,0:0:0:0:
475,192,225224,1,0,0:0:0:0:
109,192,225224,1,0,0:0:0:0:
402,192,225299,1,0,0:0:0:0:
256,192,225299,1,0,0:0:0:0:
36,192,225374,1,0,0:0:0:0:
329,192,225374,1,0,0:0:0:0:
256,192,225449,1,0,0:0:0:0:
402,192,225449,1,0,0:0:0:0:
109,192,225449,1,0,0:0:0:0:
182,192,225449,1,0,0:0:0:0:
475,192,225449,1,0,0:0:0:0:
329,192,225524,1,0,0:0:0:0:
36,192,225524,1,0,0:0:0:0:
109,192,225599,1,0,0:0:0:0:
402,192,225599,1,0,0:0:0:0:
182,192,225674,1,0,0:0:0:0:
256,192,225674,1,0,0:0:0:0:
329,192,225749,1,0,0:0:0:0:
475,192,225749,1,0,0:0:0:0:
109,192,225749,1,0,0:0:0:0:
36,192,225749,1,0,0:0:0:0:
402,192,225749,1,0,0:0:0:0:
256,192,225824,1,0,0:0:0:0:
182,192,225824,1,0,0:0:0:0:
109,192,225899,1,0,0:0:0:0:
329,192,225899,1,0,0:0:0:0:
182,192,225974,1,0,0:0:0:0:
475,192,225974,1,0,0:0:0:0:
329,192,226049,1,0,0:0:0:0:
109,192,226049,1,0,0:0:0:0:
402,192,226124,1,0,0:0:0:0:
256,192,226124,1,0,0:0:0:0:
475,192,226199,1,0,0:0:0:0:
182,192,226199,1,0,0:0:0:0:
109,192,226199,1,0,0:0:0:0:
36,192,226199,1,0,0:0:0:0:
329,192,226199,1,0,0:0:0:0:
256,192,226274,1,0,0:0:0:0:
402,192,226274,1,0,0:0:0:0:
475,192,226349,1,0,0:0:0:0:
182,192,226349,1,0,0:0:0:0:
36,192,226424,1,0,0:0:0:0:
256,192,226424,1,0,0:0:0:0:
402,192,226424,1,0,0:0:0:0:
329,192,226499,1,0,0:0:0:0:
109,192,226499,1,0,0:0:0:0:
36,192,226574,1,0,0:0:0:0:
256,192,226574,1,0,0:0:0:0:
329,192,226649,1,0,0:0:0:0:
109,192,226649,1,0,0:0:0:0:
182,192,226649,1,0,0:0:0:0:
402,192,226649,1,0,0:0:0:0:
475,192,226649,1,0,0:0:0:0:
256,192,226724,1,0,0:0:0:0:
36,192,226724,1,0,0:0:0:0:
329,192,226799,1,0,0:0:0:0:
109,192,226799,1,0,0:0:0:0:
256,192,226874,1,0,0:0:0:0:
402,192,226874,1,0,0:0:0:0:
36,192,226949,1,0,0:0:0:0:
329,192,226949,1,0,0:0:0:0:
182,192,226949,1,0,0:0:0:0:
109,192,226949,1,0,0:0:0:0:
475,192,226949,1,0,0:0:0:0:
256,192,227024,1,0,0:0:0:0:
402,192,227024,1,0,0:0:0:0:
182,192,227099,1,0,0:0:0:0:
475,192,227099,1,0,0:0:0:0:
256,192,227174,1,0,0:0:0:0:
109,192,227174,1,0,0:0:0:0:
402,192,227249,1,0,0:0:0:0:
182,192,227249,1,0,0:0:0:0:
109,192,227324,1,0,0:0:0:0:
256,192,227324,1,0,0:0:0:0:
475,192,227399,1,0,0:0:0:0:
182,192,227399,1,0,0:0:0:0:
329,192,227399,1,0,0:0:0:0:
402,192,227399,1,0,0:0:0:0:
36,192,227399,1,0,0:0:0:0:
109,192,227474,1,0,0:0:0:0:
256,192,227474,1,0,0:0:0:0:
329,192,227549,1,0,0:0:0:0:
182,192,227549,1,0,0:0:0:0:
475,192,227624,1,0,0:0:0:0:
109,192,227624,1,0,0:0:0:0:
402,192,227699,1,0,0:0:0:0:
256,192,227699,1,0,0:0:0:0:
36,192,227774,1,0,0:0:0:0:
329,192,227774,1,0,0:0:0:0:
256,192,227849,1,0,0:0:0:0:
402,192,227849,1,0,0:0:0:0:
109,192,227849,1,0,0:0:0:0:
182,192,227849,1,0,0:0:0:0:
475,192,227849,1,0,0:0:0:0:
36,192,227924,1,0,0:0:0:0:
329,192,227924,1,0,0:0:0:0:
402,192,227999,1,0,0:0:0:0:
109,192,227999,1,0,0:0:0:0:
182,192,228074,1,0,0:0:0:0:
256,192,228074,1,0,0:0:0:0:
329,192,228149,1,0,0:0:0:0:
475,192,228149,1,0,0:0:0:0:
402,192,228149,1,0,0:0:0:0:
109,192,228149,1,0,0:0:0:0:
36,192,228149,1,0,0:0:0:0:
182,192,228224,1,0,0:0:0:0:
256,192,228224,1,0,0:0:0:0:
329,192,228299,1,0,0:0:0:0:
109,192,228299,1,0,0:0:0:0:
475,192,228374,1,0,0:0:0:0:
182,192,228374,1,0,0:0:0:0:
109,192,228449,1,0,0:0:0:0:
329,192,228449,1,0,0:0:0:0:
256,192,228524,1,0,0:0:0:0:
402,192,228524,1,0,0:0:0:0:
182,192,228599,1,0,0:0:0:0:
475,192,228599,1,0,0:0:0:0:
109,192,228599,1,0,0:0:0:0:
36,192,228599,1,0,0:0:0:0:
329,192,228599,1,0,0:0:0:0:
402,192,228674,1,0,0:0:0:0:
256,192,228674,1,0,0:0:0:0:
182,192,228749,1,0,0:0:0:0:
475,192,228749,1,0,0:0:0:0:
256,192,228824,1,0,0:0:0:0:
36,192,228824,1,0,0:0:0:0:
109,192,228899,1,0,0:0:0:0:
329,192,228899,1,0,0:0:0:0:
256,192,228974,1,0,0:0:0:0:
36,192,228974,1,0,0:0:0:0:
109,192,229049,1,0,0:0:0:0:
329,192,229049,1,0,0:0:0:0:
182,192,229049,1,0,0:0:0:0:
402,192,229049,1,0,0:0:0:0:
475,192,229049,1,0,0:0:0:0:
36,192,229124,1,0,0:0:0:0:
256,192,229124,1,0,0:0:0:0:
109,192,229199,1,0,0:0:0:0:
329,192,229199,1,0,0:0:0:0:
402,192,229274,1,0,0:0:0:0:
256,192,229274,1,0,0:0:0:0:
36,192,229349,1,0,0:0:0:0:
329,192,229349,1,0,0:0:0:0:
182,192,229349,1,0,0:0:0:0:
109,192,229349,1,0,0:0:0:0:
475,192,229349,1,0,0:0:0:0:
402,192,229424,1,0,0:0:0:0:
256,192,229424,1,0,0:0:0:0:
475,192,229499,1,0,0:0:0:0:
182,192,229499,1,0,0:0:0:0:
109,192,229574,1,0,0:0:0:0:
256,192,229574,1,0,0:0:0:0:
182,192,229649,1,0,0:0:0:0:
402,192,229649,1,0,0:0:0:0:
256,192,229724,1,0,0:0:0:0:
109,192,229724,1,0,0:0:0:0:
475,192,229799,1,0,0:0:0:0:
182,192,229799,1,0,0:0:0:0:
329,192,229799,1,0,0:0:0:0:
402,192,229799,1,0,0:0:0:0:
36,192,229799,1,0,0:0:0:0:
256,192,229874,1,0,0:0:0:0:
109,192,229874,1,0,0:0:0:0:
182,192,229949,1,0,0:0:0:0:
329,192,229949,1,0,0:0:0:0:
109,192,230024,1,0,0:0:0:0:
475,192,230024,1,0,0:0:0:0:
256,192,230099,1,0,0:0:0:0:
402,192,230099,1,0,0:0:0:0:
329,192,230174,1,0,0:0:0:0:
36,192,230174,1,0,0:0:0:0:
402,192,230249,1,0,0:0:0:0:
256,192,230249,1,0,0:0:0:0:
109,192,230249,1,0,0:0:0:0:
182,192,230249,1,0,0:0:0:0:
475,192,230249,1,0,0:0:0:0:
329,192,230324,1,0,0:0:0:0:
36,192,230324,1,0,0:0:0:0:
109,192,230399,1,0,0:0:0:0:
402,192,230399,1,0,0:0:0:0:
256,192,230474,1,0,0:0:0:0:
182,192,230474,1,0,0:0:0:0:
329,192,230549,1,0,0:0:0:0:
475,192,230549,1,0,0:0:0:0:
109,192,230549,1,0,0:0:0:0:
36,192,230549,1,0,0:0:0:0:
402,192,230549,1,0,0:0:0:0:
256,192,230624,1,0,0:0:0:0:
182,192,230624,1,0,0:0:0:0:
109,192,230699,1,0,0:0:0:0:
329,192,230699,1,0,0:0:0:0:
182,192,230774,1,0,0:0:0:0:
475,192,230774,1,0,0:0:0:0:
329,192,230849,1,0,0:0:0:0:
109,192,230849,1,0,0:0:0:0:
402,192,230924,1,0,0:0:0:0:
256,192,230924,1,0,0:0:0:0:
475,192,230999,1,0,0:0:0:0:
182,192,230999,1,0,0:0:0:0:
329,192,230999,1,0,0:0:0:0:
109,192,230999,1,0,0:0:0:0:
36,192,230999,1,0,0:0:0:0:
256,192,231074,1,0,0:0:0:0:
402,192,231074,1,0,0:0:0:0:
475,192,231149,1,0,0:0:0:0:
182,192,231149,1,0,0:0:0:0:
36,192,231224,1,0,0:0:0:0:
256,192,231224,1,0,0:0:0:0:
329,192,231299,1,0,0:0:0:0:
109,192,231299,1,0,0:0:0:0:
36,192,231374,1,0,0:0:0:0:
256,192,231374,1,0,0:0:0:0:
329,192,231449,1,0,0:0:0:0:
109,192,231449,1,0,0:0:0:0:
182,192,231449,1,0,0:0:0:0:
402,192,231449,1,0,0:0:0:0:
475,192,231449,1,0,0:0:0:0:
256,192,231524,1,0,0:0:0:0:
36,192,231524,1,0,0:0:0:0:
329,192,231599,1,0,0:0:0:0:
109,192,231599,1,0,0:0:0:0:
256,192,231674,1,0,0:0:0:0:
402,192,231674,1,0,0:0:0:0:
36,192,231749,1,0,0:0:0:0:
329,192,231749,1,0,0:0:0:0:
182,192,231749,1,0,0:0:0:0:
109,192,231749,1,0,0:0:0:0:
475,192,231749,1,0,0:0:0:0:
256,192,231824,1,0,0:0:0:0:
402,192,231824,1,0,0:0:0:0:
182,192,231899,1,0,0:0:0:0:
475,192,231899,1,0,0:0:0:0:
256,192,231974,1,0,0:0:0:0:
109,192,231974,1,0,0:0:0:0:
402,192,232049,1,0,0:0:0:0:
182,192,232049,1,0,0:0:0:0:
109,192,232124,1,0,0:0:0:0:
256,192,232124,1,0,0:0:0:0:
475,192,232199,1,0,0:0:0:0:
182,192,232199,1,0,0:0:0:0:
329,192,232199,1,0,0:0:0:0:
402,192,232199,1,0,0:0:0:0:
36,192,232199,1,0,0:0:0:0:
109,192,232274,1,0,0:0:0:0:
256,192,232274,1,0,0:0:0:0:
329,192,232349,1,0,0:0:0:0:
182,192,232349,1,0,0:0:0:0:
475,192,232424,1,0,0:0:0:0:
109,192,232424,1,0,0:0:0:0:
402,192,232499,1,0,0:0:0:0:
256,192,232499,1,0,0:0:0:0:
36,192,232574,1,0,0:0:0:0:
329,192,232574,1,0,0:0:0:0:
256,192,232649,1,0,0:0:0:0:
402,192,232649,1,0,0:0:0:0:
109,192,232649,1,0,0:0:0:0:
182,192,232649,1,0,0:0:0:0:
475,192,232649,1,0,0:0:0:0:
36,192,232724,1,0,0:0:0:0:
329,192,232724,1,0,0:0:0:0:
402,192,232799,1,0,0:0:0:0:
109,192,232799,1,0,0:0:0:0:
182,192,232874,1,0,0:0:0:0:
256,192,232874,1,0,0:0:0:0:
36,192,232949,1,0,0:0:0:0:
329,192,232949,1,0,0:0:0:0:
475,192,232949,1,0,0:0:0:0:
182,192,233024,1,0,0:0:0:0:
109,192,233024,1,0,0:0:0:0:
256,192,233099,1,0,0:0:0:0:
475,192,233099,1,0,0:0:0:0:
329,192,233099,1,0,0:0:0:0:
182,192,233174,1,0,0:0:0:0:
36,192,233174,1,0,0:0:0:0:
109,192,233249,1,0,0:0:0:0:
402,192,233249,1,0,0:0:0:0:
256,192,233249,1,0,0:0:0:0:
329,192,233324,1,0,0:0:0:0:
475,192,233324,1,0,0:0:0:0:
36,192,233399,1,0,0:0:0:0:
402,192,233399,1,0,0:0:0:0:
182,192,233399,1,0,0:0:0:0:
256,192,233474,1,0,0:0:0:0:
109,192,233474,1,0,0:0:0:0:
475,192,233549,1,0,0:0:0:0:
182,192,233549,1,0,0:0:0:0:
329,192,233549,1,0,0:0:0:0:
256,192,233624,1,0,0:0:0:0:
402,192,233624,1,0,0:0:0:0:
109,192,233699,1,0,0:0:0:0:
182,192,233699,1,0,0:0:0:0:
36,192,233699,1,0,0:0:0:0:
329,192,233774,1,0,0:0:0:0:
256,192,233774,1,0,0:0:0:0:
109,192,233849,1,0,0:0:0:0:
475,192,233849,1,0,0:0:0:0:
182,192,233849,1,0,0:0:0:0:
36,192,233924,1,0,0:0:0:0:
402,192,233924,1,0,0:0:0:0:
329,192,233999,1,0,0:0:0:0:
256,192,233999,1,0,0:0:0:0:
109,192,233999,1,0,0:0:0:0:
182,192,234074,1,0,0:0:0:0:
475,192,234074,1,0,0:0:0:0:
109,192,234149,1,0,0:0:0:0:
402,192,234149,1,0,0:0:0:0:
256,192,234149,1,0,0:0:0:0:
329,192,234224,1,0,0:0:0:0:
36,192,234224,1,0,0:0:0:0:
182,192,234299,1,0,0:0:0:0:
475,192,234299,1,0,0:0:0:0:
402,192,234299,1,0,0:0:0:0:
256,192,234374,1,0,0:0:0:0:
329,192,234374,1,0,0:0:0:0:
182,192,234449,1,0,0:0:0:0:
402,192,234449,1,0,0:0:0:0:
109,192,234449,1,0,0:0:0:0:
329,192,234524,1,0,0:0:0:0:
475,192,234524,1,0,0:0:0:0:
36,192,234599,1,0,0:0:0:0:
402,192,234599,1,0,0:0:0:0:
256,192,234599,1,0,0:0:0:0:
329,192,234674,1,0,0:0:0:0:
182,192,234674,1,0,0:0:0:0:
109,192,234749,1,0,0:0:0:0:
475,192,234749,1,0,0:0:0:0:
402,192,234749,1,0,0:0:0:0:
256,192,234824,1,0,0:0:0:0:
36,192,234824,1,0,0:0:0:0:
109,192,234899,1,0,0:0:0:0:
402,192,234899,1,0,0:0:0:0:
329,192,234899,1,0,0:0:0:0:
182,192,234974,1,0,0:0:0:0:
256,192,234974,1,0,0:0:0:0:
36,192,235049,1,0,0:0:0:0:
329,192,235049,1,0,0:0:0:0:
475,192,235049,1,0,0:0:0:0:
256,192,235124,1,0,0:0:0:0:
109,192,235124,1,0,0:0:0:0:
329,192,235199,1,0,0:0:0:0:
475,192,235199,1,0,0:0:0:0:
182,192,235199,1,0,0:0:0:0:
109,192,235274,1,0,0:0:0:0:
402,192,235274,1,0,0:0:0:0:
36,192,235349,1,0,0:0:0:0:
329,192,235349,1,0,0:0:0:0:
475,192,235349,1,0,0:0:0:0:
182,192,235424,1,0,0:0:0:0:
109,192,235424,1,0,0:0:0:0:
475,192,235499,1,0,0:0:0:0:
256,192,235499,1,0,0:0:0:0:
329,192,235499,1,0,0:0:0:0:
182,192,235574,1,0,0:0:0:0:
36,192,235574,1,0,0:0:0:0:
109,192,235649,1,0,0:0:0:0:
402,192,235649,1,0,0:0:0:0:
256,192,235649,1,0,0:0:0:0:
329,192,235724,1,0,0:0:0:0:
475,192,235724,1,0,0:0:0:0:
402,192,235799,1,0,0:0:0:0:
36,192,235799,1,0,0:0:0:0:
182,192,235799,1,0,0:0:0:0:
256,192,235874,1,0,0:0:0:0:
109,192,235874,1,0,0:0:0:0:
182,192,235949,1,0,0:0:0:0:
475,192,235949,1,0,0:0:0:0:
329,192,235949,1,0,0:0:0:0:
256,192,236024,1,0,0:0:0:0:
402,192,236024,1,0,0:0:0:0:
182,192,236099,1,0,0:0:0:0:
109,192,236099,1,0,0:0:0:0:
36,192,236099,1,0,0:0:0:0:
329,192,236174,1,0,0:0:0:0:
256,192,236174,1,0,0:0:0:0:
475,192,236249,1,0,0:0:0:0:
109,192,236249,1,0,0:0:0:0:
182,192,236249,1,0,0:0:0:0:
36,192,236324,1,0,0:0:0:0:
402,192,236324,1,0,0:0:0:0:
256,192,236399,1,0,0:0:0:0:
329,192,236399,1,0,0:0:0:0:
109,192,236399,1,0,0:0:0:0:
182,192,236474,1,0,0:0:0:0:
475,192,236474,1,0,0:0:0:0:
109,192,236549,1,0,0:0:0:0:
402,192,236549,1,0,0:0:0:0:
256,192,236549,1,0,0:0:0:0:
329,192,236624,1,0,0:0:0:0:
36,192,236624,1,0,0:0:0:0:
182,192,236699,1,0,0:0:0:0:
475,192,236699,1,0,0:0:0:0:
402,192,236699,1,0,0:0:0:0:
256,192,236774,1,0,0:0:0:0:
329,192,236774,1,0,0:0:0:0:
402,192,236849,1,0,0:0:0:0:
36,192,236849,1,0,0:0:0:0:
109,192,236849,1,0,0:0:0:0:
182,192,236924,1,0,0:0:0:0:
475,192,236924,1,0,0:0:0:0:
36,192,236999,1,0,0:0:0:0:
402,192,236999,1,0,0:0:0:0:
256,192,236999,1,0,0:0:0:0:
329,192,237074,1,0,0:0:0:0:
182,192,237074,1,0,0:0:0:0:
109,192,237149,1,0,0:0:0:0:
475,192,237149,1,0,0:0:0:0:
402,192,237149,1,0,0:0:0:0:
256,192,237224,1,0,0:0:0:0:
36,192,237224,1,0,0:0:0:0:
109,192,237299,1,0,0:0:0:0:
402,192,237299,1,0,0:0:0:0:
329,192,237299,1,0,0:0:0:0:
182,192,237374,1,0,0:0:0:0:
256,192,237374,1,0,0:0:0:0:
36,192,237449,1,0,0:0:0:0:
329,192,237449,1,0,0:0:0:0:
475,192,237449,1,0,0:0:0:0:
256,192,237524,1,0,0:0:0:0:
109,192,237524,1,0,0:0:0:0:
475,192,237599,1,0,0:0:0:0:
329,192,237599,1,0,0:0:0:0:
182,192,237599,1,0,0:0:0:0:
109,192,237674,1,0,0:0:0:0:
402,192,237674,1,0,0:0:0:0:
329,192,237749,1,0,0:0:0:0:
36,192,237749,1,0,0:0:0:0:
475,192,237749,1,0,0:0:0:0:
182,192,237824,1,0,0:0:0:0:
109,192,237824,1,0,0:0:0:0:
256,192,237899,1,0,0:0:0:0:
475,192,237899,1,0,0:0:0:0:
329,192,237899,1,0,0:0:0:0:
182,192,237974,1,0,0:0:0:0:
36,192,237974,1,0,0:0:0:0:
402,192,238049,1,0,0:0:0:0:
109,192,238049,1,0,0:0:0:0:
256,192,238049,1,0,0:0:0:0:
329,192,238124,1,0,0:0:0:0:
475,192,238124,1,0,0:0:0:0:
36,192,238199,1,0,0:0:0:0:
402,192,238199,1,0,0:0:0:0:
182,192,238199,1,0,0:0:0:0:
256,192,238274,1,0,0:0:0:0:
109,192,238274,1,0,0:0:0:0:
475,192,238349,1,0,0:0:0:0:
182,192,238349,1,0,0:0:0:0:
329,192,238349,1,0,0:0:0:0:
256,192,238424,1,0,0:0:0:0:
402,192,238424,1,0,0:0:0:0:
109,192,238499,1,0,0:0:0:0:
182,192,238499,1,0,0:0:0:0:
36,192,238499,1,0,0:0:0:0:
329,192,238574,1,0,0:0:0:0:
256,192,238574,1,0,0:0:0:0:
109,192,238649,1,0,0:0:0:0:
475,192,238649,1,0,0:0:0:0:
182,192,238649,1,0,0:0:0:0:
36,192,238724,1,0,0:0:0:0:
402,192,238724,1,0,0:0:0:0:
329,192,238799,1,0,0:0:0:0:
256,192,238799,1,0,0:0:0:0:
109,192,238799,1,0,0:0:0:0:
182,192,238874,1,0,0:0:0:0:
475,192,238874,1,0,0:0:0:0:
402,192,238949,1,0,0:0:0:0:
109,192,238949,1,0,0:0:0:0:
256,192,238949,1,0,0:0:0:0:
329,192,239024,1,0,0:0:0:0:
36,192,239024,1,0,0:0:0:0:
475,192,239099,1,0,0:0:0:0:
182,192,239099,1,0,0:0:0:0:
402,192,239099,1,0,0:0:0:0:
256,192,239174,1,0,0:0:0:0:
329,192,239174,1,0,0:0:0:0:
402,192,239249,1,0,0:0:0:0:
36,192,239249,1,0,0:0:0:0:
109,192,239249,1,0,0:0:0:0:
182,192,239324,1,0,0:0:0:0:
475,192,239324,1,0,0:0:0:0:
36,192,239399,1,0,0:0:0:0:
402,192,239399,1,0,0:0:0:0:
256,192,239399,1,0,0:0:0:0:
329,192,239474,1,0,0:0:0:0:
182,192,239474,1,0,0:0:0:0:
475,192,239549,1,0,0:0:0:0:
109,192,239549,1,0,0:0:0:0:
402,192,239549,1,0,0:0:0:0:
256,192,239624,1,0,0:0:0:0:
36,192,239624,1,0,0:0:0:0:
402,192,239699,1,0,0:0:0:0:
109,192,239699,1,0,0:0:0:0:
329,192,239699,1,0,0:0:0:0:
182,192,239774,1,0,0:0:0:0:
256,192,239774,1,0,0:0:0:0:
329,192,239849,1,0,0:0:0:0:
36,192,239849,1,0,0:0:0:0:
475,192,239849,1,0,0:0:0:0:
256,192,239924,1,0,0:0:0:0:
109,192,239924,1,0,0:0:0:0:
329,192,239999,1,0,0:0:0:0:
475,192,239999,1,0,0:0:0:0:
182,192,239999,1,0,0:0:0:0:
109,192,240074,1,0,0:0:0:0:
402,192,240149,1,0,0:0:0:0:
36,192,240149,1,0,0:0:0:0:
256,192,240149,1,0,0:0:0:0:
402,192,240224,1,0,0:0:0:0:
329,192,240299,1,0,0:0:0:0:
182,192,240449,1,0,0:0:0:0:
182,192,240524,1,0,0:0:0:0:
36,192,240599,1,0,0:0:0:0:
402,192,240599,1,0,0:0:0:0:
256,192,240599,1,0,0:0:0:0:
475,192,240749,1,0,0:0:0:0:
475,192,240824,1,0,0:0:0:0:
402,192,240899,1,0,0:0:0:0:
109,192,241049,1,0,0:0:0:0:
256,192,241049,1,0,0:0:0:0:
329,192,241049,1,0,0:0:0:0:
109,192,241124,1,0,0:0:0:0:
182,192,241199,1,0,0:0:0:0:
475,192,241349,1,0,0:0:0:0:
475,192,241424,1,0,0:0:0:0:
329,192,241499,1,0,0:0:0:0:
36,192,241499,1,0,0:0:0:0:
182,192,241499,1,0,0:0:0:0:
256,192,241499,1,0,0:0:0:0:
402,192,241649,1,0,0:0:0:0:
402,192,241724,1,0,0:0:0:0:
36,192,241799,1,0,0:0:0:0:
329,192,241799,1,0,0:0:0:0:
182,192,241799,1,0,0:0:0:0:
109,192,241799,1,0,0:0:0:0:
256,192,241949,1,0,0:0:0:0:
256,192,242024,1,0,0:0:0:0:
36,192,242099,1,0,0:0:0:0:
329,192,242099,1,0,0:0:0:0:
109,192,242099,1,0,0:0:0:0:
475,192,242099,1,0,0:0:0:0:
402,192,242249,1,0,0:0:0:0:
256,192,242249,1,0,0:0:0:0:
402,192,242324,1,0,0:0:0:0:
109,192,242399,1,0,0:0:0:0:
329,192,242399,1,0,0:0:0:0:
182,192,242474,1,0,0:0:0:0:
36,192,242549,1,0,0:0:0:0:
109,192,242549,1,0,0:0:0:0:
329,192,242549,1,0,0:0:0:0:
402,192,242549,1,0,0:0:0:0:
475,192,242624,1,0,0:0:0:0:
402,192,242699,1,0,0:0:0:0:
329,192,242774,1,0,0:0:0:0:
256,192,242849,1,0,0:0:0:0:
329,192,242924,1,0,0:0:0:0:
402,192,242999,1,0,0:0:0:0:
182,192,243074,1,0,0:0:0:0:
256,192,243149,1,0,0:0:0:0:
329,192,243224,1,0,0:0:0:0:
402,192,243299,1,0,0:0:0:0:
475,192,243374,1,0,0:0:0:0:
402,192,243449,1,0,0:0:0:0:
329,192,243524,1,0,0:0:0:0:
402,192,243599,1,0,0:0:0:0:
475,192,243674,1,0,0:0:0:0:
36,192,243749,1,0,0:0:0:0:
182,192,243749,1,0,0:0:0:0:
109,192,243749,1,0,0:0:0:0:
256,192,243749,1,0,0:0:0:0:
329,192,243824,1,0,0:0:0:0:
402,192,243899,1,0,0:0:0:0:
329,192,243974,1,0,0:0:0:0:
36,192,244049,1,0,0:0:0:0:
256,192,244049,1,0,0:0:0:0:
182,192,244124,1,0,0:0:0:0:
402,192,244124,1,0,0:0:0:0:
109,192,244199,1,0,0:0:0:0:
475,192,244199,1,0,0:0:0:0:
256,192,244274,1,0,0:0:0:0:
329,192,244274,1,0,0:0:0:0:
36,192,244349,1,0,0:0:0:0:
402,192,244349,1,0,0:0:0:0:
182,192,244424,1,0,0:0:0:0:
256,192,244424,1,0,0:0:0:0:
109,192,244499,1,0,0:0:0:0:
475,192,244499,1,0,0:0:0:0:
182,192,244574,1,0,0:0:0:0:
402,192,244574,1,0,0:0:0:0:
36,192,244649,1,0,0:0:0:0:
329,192,244649,1,0,0:0:0:0:
109,192,244724,1,0,0:0:0:0:
475,192,244724,1,0,0:0:0:0:
182,192,244799,1,0,0:0:0:0:
256,192,244799,1,0,0:0:0:0:
36,192,244874,1,0,0:0:0:0:
329,192,244874,1,0,0:0:0:0:
109,192,244949,1,0,0:0:0:0:
182,192,244949,1,0,0:0:0:0:
402,192,244949,1,0,0:0:0:0:
475,192,244949,1,0,0:0:0:0:
