osu file format v5

[General]
AudioFilename: Mysterious mountain.mp3
AudioLeadIn: 0
PreviewTime: -1
Countdown: 0
SampleSet: Normal
StackLeniency: 0.7
Mode: 0
LetterboxInBreaks: 1
EditorDistanceSpacing: 0.800000011920929

[Metadata]
Title:The Youkai Mountain ~ Mysterious Mountain
Artist:Demetori
Creator:lukewarmholiday
Version:Hard
Source:
Tags:Aya touhou

[Difficulty]
HPDrainRate:5
CircleSize:5
OverallDifficulty:7
SliderMultiplier:1.2
SliderTickRate:1

[Events]
//Background and Video events
0,0,"1206971765742.jpg"
//Break Periods
2,104977,124646
2,234770,235778
//Storyboard Layer 0 (Background)
//Storyboard Layer 1 (Fail)
//Storyboard Layer 2 (Pass)
//Storyboard Layer 3 (Foreground)
//Storyboard Sound Samples
//Background Colour Transformations
3,100,163,162,255

[TimingPoints]
1543,324.324324324324,4,1,0,70,1,0
78020,-100,4,1,0,70,0,1
104962,-100,4,1,0,70,0,0
166236,-100,4,1,0,70,0,1
192515,-100,4,1,0,70,0,0
224128,-100,4,1,0,70,0,1
234795,-100,4,1,0,70,0,0
242290,-200,4,1,0,70,0,0
247642,-100,4,1,0,70,0,1
277642,-100,4,1,0,70,0,0

[Colours]
Combo1 : 247,248,234
Combo2 : 4,29,36
Combo3 : 244,222,38
Combo4 : 158,7,14

[HitObjects]
192,192,37542,2,4,B|192:240|256:264|320:240|320:192,1,180
336,56,38515,2,0,B|296:32|256:64,1,60
240,72,38840,2,0,B|200:88|168:64,1,60
96,120,39326,1,0
96,216,39651,1,0
152,288,39975,1,0
192,312,40137,2,4,B|272:376|360:320,1,180
416,248,40948,5,0
384,208,41110,1,0
384,208,41272,1,0
336,224,41434,2,0,B|296:264|216:264|168:224,1,180
88,176,42245,5,0
48,152,42407,1,0
88,128,42570,1,0
48,104,42732,2,4,B|72:56|112:64|144:88|152:104|152:152|120:160,1,180
120,256,43542,5,0
144,296,43705,1,0
176,256,43867,1,0
200,296,44029,2,0,B|200:344|176:360|120:368|88:344|88:296,1,180
88,200,44840,5,0
128,176,45002,1,0
168,200,45164,1,0
208,176,45326,2,4,B|248:136|336:136|376:176,1,180
408,208,45975,1,0
368,232,46137,1,0
400,264,46299,1,0
368,296,46461,1,0
256,136,47110,6,0,B|256:96,2,30
256,184,47434,1,0
256,232,47597,1,0
256,280,47759,1,0
256,328,47921,2,4,B|328:328|336:280|328:232|256:232,1,180
120,272,48894,5,0
80,240,49056,1,0
104,200,49218,1,0
72,160,49380,2,0,B|32:136|32:88|80:64,1,120
176,64,50029,1,0
248,120,50353,1,0
248,168,50515,2,4,B|248:256|344:256|344:168,1,180
256,192,51326,12,0,52137
440,80,52624,5,0
408,120,52786,1,0
376,80,52948,1,0
344,120,53110,2,4,B|304:160|216:160|176:120,1,180
112,48,53921,5,0
64,64,54083,1,0
48,104,54245,1,0
48,152,54407,2,4,B|48:264|160:264,1,180
256,248,55218,5,0
296,224,55380,1,0
336,248,55542,1,0
376,224,55705,2,4,B|432:208|424:152|376:144,1,120
328,128,56191,2,4,B|264:120|256:184|200:160,1,120,4|4
128,136,56840,2,0,B|56:96|8:120|8:192|24:280|128:280|272:256,1,420,4|0
328,176,58299,6,6,B|328:128|256:120|192:128|192:176,1,180,6|6
184,336,59597,5,0
232,336,59759,1,0
280,336,59921,1,0
328,336,60083,1,0
424,336,60407,2,0,B|448:360,2,30
392,304,60732,1,0
392,304,60894,2,6,B|256:176,1,180
24,232,62191,6,6,B|152:88,1,180
368,168,63488,6,6,B|224:24,1,180
128,128,64461,5,2
128,128,64786,1,2
152,272,65272,2,4,B|264:272|264:160,1,180
176,128,66083,6,2,B|160:80|152:40|176:8|216:8|264:8|304:8|344:8|360:40|360:80|344:128,1,360
256,176,67380,5,4
256,176,67705,1,4
176,120,68029,5,0
136,152,68191,1,0
136,200,68353,1,0
160,240,68515,1,0
192,272,68678,2,6,B|224:312|272:328|320:312|352:272,1,180
472,56,69975,5,0
432,80,70137,1,0
392,56,70299,1,0
352,80,70461,1,0
328,176,70786,5,0
288,152,70948,1,0
296,104,71110,1,0
256,80,71272,2,6,B|176:80|176:192|256:192,1,180
252,191,72570,6,6,B|336:192|336:304|256:304,1,180
256,80,73867,6,6,B|176:80|176:192|256:192,1,180
448,48,75164,5,0
408,72,75326,1,0
368,48,75488,1,0
344,88,75651,2,4,B|320:136|272:152|224:136|200:88,1,180
152,240,76461,5,0
256,72,76948,1,0
360,240,77434,1,0
256,144,77759,5,4
288,200,77921,1,4
224,200,78083,1,4
152,136,78407,6,0,B|152:208,1,60
184,288,78894,1,0
184,288,79056,1,4
328,312,79542,6,0,B|328:352,2,30,0|0|0
328,264,79867,1,0
328,144,80191,1,0
328,144,80353,1,4
184,136,80840,6,0,B|160:112,2,30
208,176,81164,1,0
248,152,81326,1,0
288,176,81488,1,0
328,152,81651,2,4,B|376:152|384:224|328:224,1,90
312,272,82137,1,0
264,288,82299,2,4,B|200:296|168:264,1,90,0|4
128,224,82786,2,0,B|104:192|104:168,1,60,0|4
224,96,83434,6,0,B|224:80|288:80|304:104|328:128|392:128|392:104,1,180,4|0
432,80,84083,6,0,B|464:48,2,30
312,160,84732,2,0,B|248:160|176:160,1,120
112,104,85380,1,0
112,104,85542,2,0,B|112:224,1,90,4|0
168,152,86029,1,0
168,152,86191,2,0,B|168:264,1,90,4|0
224,192,86678,1,0
224,192,86840,2,0,B|224:296,1,90,4|0
280,232,87326,1,0
256,192,87488,12,4,89434
256,296,89921,6,0,B|256:328,2,30
256,248,90245,1,0
256,152,90570,1,0
256,152,90732,1,4
120,192,91218,6,0,B|64:192,2,30
160,168,91542,1,0
200,200,91705,1,0
240,168,91867,1,0
280,200,92029,2,4,B|304:224|344:224|360:200,1,90
320,136,92515,1,0
280,104,92678,2,4,B|304:80|344:80|368:104,1,90
408,152,93164,2,0,B|424:168|424:200|408:216,1,60,0|4
312,304,93813,6,0,B|248:256|192:368|144:304,1,180,4|0
104,280,94461,2,0,B|88:328,2,30
112,136,95110,2,0,B|112:64|192:64,1,120
280,64,95759,5,0
280,64,95921,2,0,B|280:176,1,90,4|0
344,112,96407,1,0
344,112,96570,2,0,B|344:224,1,90,4|0
408,160,97056,1,0
408,160,97218,2,0,B|408:264,1,90,4|4
408,320,97705,1,0
256,192,97867,12,4,99488
152,120,99813,6,0,B|152:248,1,120
216,312,100461,2,0,B|320:216,1,120
384,184,101110,2,0,B|248:120,1,120
240,40,101759,2,0,B|128:136,1,120
240,144,102407,2,0,B|304:144,1,60
299,192,102732,2,0,B|227:192,1,60
240,240,103056,2,0,B|312:240,1,60
299,288,103380,2,0,B|235:288,1,60
192,288,103705,6,2,B|48:288|48:128,1,240
192,136,104840,1,4
320,192,125759,6,4,B|320:240|256:264|192:240|192:192,1,180
176,56,126732,2,0,B|216:32|256:64,1,60
272,72,127056,2,0,B|312:88|344:64,1,60
416,120,127542,1,0
416,216,127867,1,0
360,288,128191,1,0
320,312,128353,2,4,B|240:376|152:320,1,180
96,248,129164,5,0
128,208,129326,1,0
128,208,129488,1,0
176,224,129651,2,0,B|216:264|296:264|344:224,1,180
424,176,130461,5,0
464,152,130624,1,0
424,128,130786,1,0
464,104,130948,2,4,B|440:56|400:64|368:88|360:104|360:152|392:160,1,180
392,256,131759,5,0
368,296,131921,1,0
336,256,132083,1,0
312,296,132245,2,0,B|312:344|336:360|392:368|424:344|424:296,1,180
424,200,133056,5,0
384,176,133218,1,0
344,200,133380,1,0
304,176,133542,2,4,B|264:136|176:136|136:176,1,180
104,208,134191,1,0
144,232,134353,1,0
112,264,134515,1,0
144,296,134678,1,0
256,136,135326,6,0,B|256:96,2,30
256,184,135651,1,0
256,232,135813,1,0
256,280,135975,1,0
256,328,136137,2,4,B|184:328|176:280|184:232|256:232,1,180
392,272,137110,5,0
432,240,137272,1,0
408,200,137434,1,0
440,168,137597,2,0,B|480:144|480:96|432:72,1,120
336,64,138245,1,0
264,120,138570,1,0
264,168,138732,2,4,B|264:256|168:256|168:168,1,180
256,192,139542,12,0,140353
72,80,140840,5,0
104,120,141002,1,0
136,80,141164,1,0
168,120,141326,2,4,B|208:160|296:160|336:120,1,180
400,48,142137,5,0
448,64,142299,1,0
464,104,142461,1,0
464,152,142624,2,4,B|464:264|352:264,1,180
256,248,143434,5,0
216,224,143597,1,0
176,248,143759,1,0
136,224,143921,2,4,B|80:208|88:152|136:144,1,120
184,128,144407,2,4,B|248:120|256:184|312:160,1,120,4|4
384,136,145056,2,0,B|456:96|504:120|504:192|488:280|384:280|240:256,1,420,4|0
184,176,146515,6,6,B|184:128|256:120|320:128|320:176,1,180,6|6
328,336,147813,5,0
280,336,147975,1,0
232,336,148137,1,0
184,336,148299,1,0
88,336,148624,2,0,B|64:360,2,30
120,304,148948,1,0
120,304,149110,2,6,B|256:176,1,180
488,232,150407,6,6,B|360:88,1,180
144,168,151705,6,6,B|288:24,1,180
384,128,152678,5,4
384,128,153002,1,4
360,272,153488,2,4,B|248:272|248:160,1,180
336,128,154299,6,2,B|352:80|360:40|336:8|296:8|248:8|208:8|168:8|152:40|152:80|168:128,1,360
256,176,155597,5,4
256,223,155759,1,4
288,128,156083,5,4
336,120,156245,1,0
376,152,156407,1,0
376,200,156570,1,0
352,240,156732,1,0
320,272,156894,2,6,B|288:312|240:328|192:312|160:272,1,180
40,56,158191,5,0
80,80,158353,1,0
120,56,158515,1,0
160,80,158678,1,4
184,176,159002,5,0
224,152,159164,1,0
216,104,159326,1,0
256,80,159488,2,6,B|336:80|336:192|256:192,1,180
260,191,160786,6,6,B|176:192|176:304|256:304,1,180
256,80,162083,6,6,B|336:80|336:192|256:192,1,180
64,48,163380,5,0
104,72,163543,1,0
144,48,163705,1,0
168,88,163867,2,4,B|192:136|240:152|288:136|312:88,1,180
360,240,164678,5,0
256,72,165164,1,0
152,240,165651,1,0
256,144,165975,5,4
224,200,166137,1,4
288,200,166299,1,4
360,136,166624,6,0,B|360:208,1,60
328,288,167110,1,0
328,288,167272,1,4
184,288,167759,6,0,B|184:328,2,30
184,240,168083,1,0
184,144,168407,1,0
184,144,168570,1,4
328,136,169056,6,0,B|352:112,2,30
304,176,169380,1,0
264,152,169543,1,0
224,176,169705,1,0
184,152,169867,2,4,B|136:152|128:224|184:224,1,90
200,272,170353,1,0
248,288,170515,2,4,B|312:296|344:264,1,90
384,224,171002,2,0,B|408:192|408:168,1,60,0|4
288,96,171651,6,0,B|288:80|224:80|208:104|184:128|120:128|120:104,1,180,4|0
80,80,172299,6,0,B|48:48,2,30
200,160,172948,2,0,B|264:160|336:160,1,120
400,104,173597,1,0
400,104,173759,2,0,B|400:224,1,90,4|0
344,152,174245,1,0
344,152,174407,2,0,B|344:264,1,90,4|0
288,192,174894,1,0
288,192,175056,2,0,B|288:296,1,90,4|0
232,232,175543,1,0
256,192,175705,12,4,177651
256,296,178137,6,0,B|256:328,2,30
256,248,178461,1,0
256,152,178786,1,0
256,152,178948,1,4
392,192,179434,6,0,B|448:192,2,30
352,168,179759,1,0
312,200,179921,1,0
272,168,180083,1,0
232,200,180245,2,4,B|208:224|168:224|152:200,1,90
192,136,180732,1,0
232,104,180894,2,4,B|208:80|168:80|144:104,1,90
104,152,181380,2,0,B|88:168|88:200|104:216,1,60,0|4
200,304,182029,6,0,B|264:256|320:368|368:304,1,180,4|0
408,280,182678,2,0,B|424:328,2,30
400,136,183326,2,0,B|400:64|320:64,1,120
232,64,183975,5,0
232,64,184137,2,0,B|232:176,1,90,4|0
168,112,184624,1,0
168,112,184786,2,0,B|168:224,1,90,4|0
104,160,185272,1,0
104,160,185434,2,0,B|104:264,1,90,4|4
104,320,185921,1,0
256,192,186083,12,4,187705
360,120,188029,6,0,B|360:248,1,120
296,312,188678,2,0,B|192:216,1,120
128,184,189326,2,0,B|264:120,1,120
272,40,189975,2,0,B|384:136,1,120
272,144,190624,2,0,B|208:144,1,60
213,192,190948,2,0,B|285:192,1,60
272,240,191272,2,0,B|200:240,1,60
213,288,191597,2,0,B|277:288,1,60
320,288,191921,6,2,B|464:288|464:176,1,180
288,120,193056,1,4
256,192,193137,12,0,197759
144,80,198245,6,4,B|262:77|288:192|152:216|176:294|280:280,1,300,4|0
344,272,199380,2,4,B|304:72|128:392|56:232,1,360,0|4
88,120,200840,5,0
136,32,201164,1,0
192,48,201326,1,0
200,104,201488,1,4
208,208,201813,1,0
256,232,201975,1,0
304,208,202137,1,4
304,104,202461,1,0
312,48,202624,1,0
368,40,202786,1,4
256,48,203110,2,0,B|256:184,1,120,0|4
160,192,203759,5,0
160,192,203921,1,0
152,288,204245,1,0
200,304,204407,1,0
248,296,204570,2,0,B|280:320|312:296,1,60
392,256,205056,1,0
432,232,205218,1,0
480,144,205542,1,0
496,96,205705,6,0,B|496:24|384:24,1,120
408,80,206191,2,0,B|400:144|296:136,1,120
312,88,206678,1,0
272,112,206840,1,0
264,160,207002,1,0
296,192,207164,2,0,B|272:216|224:208|216:200,1,60
200,176,207488,1,0
184,128,207651,2,0,B|176:88|120:88|80:120,1,120
56,160,208137,2,0,B|16:152,2,30
104,168,208461,1,0
104,168,208624,1,4
352,256,209434,6,0,B|440:256|464:192|440:120|352:120,1,240
256,120,210407,6,0,B|256:72,2,30
208,120,210732,6,0,B|208:72,2,30
160,120,211056,5,0
160,120,211218,2,4,B|0:120|0:360|152:360,1,360
232,352,212515,1,0
160,280,212840,2,0,B|184:248|232:248|272:304|320:280|320:248,1,180
392,128,213813,6,0,B|328:112|328:184|216:160,1,180,4|0
216,64,214624,2,0,B|144:64|128:64|136:200,1,180
136,280,215434,2,0,B|96:280,2,30
184,280,215759,1,0
232,280,215921,1,0
280,280,216083,1,0
328,280,216245,1,0
376,280,216407,2,0,B|456:280|448:200,1,120
448,112,217056,1,0
400,112,217218,2,0,B|344:112|344:168,1,90
344,240,217705,2,0,B|312:288|240:288|200:224|216:56,1,300,0|4
48,88,219002,6,0,B|176:88,1,120
144,128,219488,2,0,B|72:160,1,60
128,176,219813,2,0,B|176:232,1,60
120,232,220137,2,0,B|64:272,1,60
112,288,220461,2,0,B|176:336,1,60
168,272,220786,2,0,B|224:240,1,60
232,192,221110,2,0,B|288:256,1,60
304,272,221434,1,0
304,272,221597,2,0,B|368:336|448:280|392:192,1,180
384,168,222245,2,0,B|328:112|256:176|152:296|24:72,1,420,0|4
56,312,224191,5,4
96,200,224515,6,0,B|96:168,2,30
128,248,224840,6,0,B|128:288,2,30
160,200,225164,6,0,B|160:168,2,30
192,248,225488,6,0,B|192:288,2,30
224,200,225813,6,0,B|224:160,2,30
256,248,226137,6,0,B|256:296,2,30
288,200,226461,6,0,B|288:168,2,30
320,248,226786,6,0,B|320:296,2,30
352,200,227110,6,0,B|352:160,2,30
384,248,227434,6,0,B|384:304|456:320|488:312|480:160,1,240
392,80,228407,6,0,B|344:120|304:40|208:80,1,180
88,344,229705,5,0
40,304,229867,2,0,B|104:256,1,60
144,272,230191,2,0,B|96:208,1,60
48,208,230515,2,0,B|112:160,1,60
152,168,230840,2,0,B|104:104,1,60
56,120,231164,2,0,B|96:64,1,60
144,48,231488,2,4,B|200:48|200:120|312:120,1,180
376,216,232299,5,0
376,280,232461,1,0
312,280,232624,1,4
208,216,232948,5,0
144,216,233110,1,0
144,280,233272,1,4
256,320,233597,5,0
256,256,233759,1,0
256,192,233921,1,4
192,80,234245,5,0
256,80,234407,1,0
320,80,234570,1,4
256,64,236678,6,0,B|256:144,1,60
256,216,237164,1,0
256,216,237326,1,4
112,216,237813,6,0,B|64:216,2,30
160,216,238137,1,0
256,216,238461,1,0
256,216,238624,1,4
400,216,239110,6,0,B|440:248,2,30
360,192,239434,1,0
312,208,239597,1,0
304,256,239759,1,0
296,304,239921,2,4,B|296:352|256:352|216:352,1,90
160,352,240407,1,0
112,352,240570,2,4,B|40:352|40:288,1,90
40,232,241056,2,0,B|40:144,1,60,0|4
152,80,241705,2,0,B|224:128|280:64|344:104,1,180
376,96,242353,6,0,B|376:72,2,15
424,96,242840,6,0,B|464:96|440:208,1,120
336,96,244137,6,0,B|296:96|328:208,1,120
256,192,245110,12,4,247705
328,176,248191,6,0,B|328:128,2,30
328,224,248515,1,0
256,288,248840,1,0
256,288,249002,1,0
112,288,249488,6,0,B|80:328,2,30
144,256,249813,1,0
176,224,249975,1,0
216,200,250137,1,0
256,176,250299,2,4,B|272:168|280:136|272:104|256:96,1,90
192,136,250786,5,0
152,168,250948,2,4,B|120:112|160:80|184:72,1,90
224,48,251434,2,0,B|288:48,1,60,0|4
392,144,252083,6,0,B|392:272|272:280,1,180
248,280,252732,2,0,B|248:336,2,30
248,136,253380,2,0,B|160:128|160:224,1,120
160,296,254029,5,0
112,296,254191,2,0,B|56:296|56:240,1,90,4|0
56,168,254678,1,0
104,168,254840,2,0,B|160:168|160:112,1,90,4|0
232,112,255326,1,0
280,112,255488,2,0,B|328:112|328:176,1,90,4|0
256,192,255975,12,4,258083
176,184,258570,6,0,B|176:136,2,30
176,232,258894,1,0
256,288,259218,1,0
256,288,259380,1,4
400,288,259867,6,0,B|432:328,2,30
368,256,260191,1,0
336,224,260353,1,0
296,200,260515,1,0
256,176,260678,2,4,B|240:168|232:136|240:104|256:96,1,90,4|0
320,136,261164,1,0
360,168,261326,2,4,B|392:112|352:80|328:72,1,90,4|0
288,48,261813,2,0,B|224:48,1,60,0|4
120,144,262461,6,4,B|120:272|240:280,1,180
264,280,263110,2,0,B|264:336,2,30
264,136,263759,2,0,B|352:128|352:224,1,120
352,296,264407,5,0
400,296,264570,2,0,B|456:296|456:240,1,90,4|0
456,168,265056,1,0
408,168,265218,2,0,B|352:168|352:112,1,90,4|0
280,112,265705,1,0
232,112,265867,2,0,B|184:112|184:176,1,90,4|0
256,192,266353,12,4,268137
256,192,268461,6,0,B|200:144|144:192,1,120
256,192,269110,6,0,B|304:136|256:80,1,120
256,192,269759,6,0,B|312:240|368:192,1,120
256,192,270407,6,0,B|208:248|256:304,1,120
352,304,271056,6,0,B|384:272|376:224|352:192,1,120
280,128,271705,6,0,B|224:88|160:128,1,120
88,184,272353,6,0,B|56:216|64:264|88:296,1,120
168,344,273002,6,0,B|224:384|288:344,1,120
272,248,273651,6,0,B|192:248,1,60
192,208,273975,2,0,B|272:208,1,60
272,168,274299,2,0,B|200:168,1,60
192,120,274624,2,0,B|264:120,1,60
296,120,274948,2,0,B|384:120|384:208,1,120
384,280,275597,2,0,B|384:344|296:344,1,120
200,344,276245,6,0,B|120:344,1,60
140,296,276570,2,0,B|204:296,1,60,0|0
200,248,276894,2,0,B|120:248,1,60
140,200,277218,2,0,B|210:200,1,60
248,200,277543,1,4
400,88,278191,5,0
456,144,278353,1,0
456,224,278515,1,0
408,288,278678,1,4
